Subcategories

V.A. - Love Is The Song We Sing: San Francisco Nuggets 1965-1970 (2007) 4CD Box Set [Repost]

Posted By: Andi_Deris
V.A. - Love Is The Song We Sing: San Francisco Nuggets 1965-1970 (2007) 4CD Box Set [Repost]

V.A. - Love Is The Song We Sing: San Francisco Nuggets 1965-1970 (2007) 4CD Box Set
EAC Rip | FLAC: Tracks+Cue+Log | 1.3 Gb | MP3 CBR 320 kbps | 576 Mb | Scans+Book (pdf) | 1.1 Gb
Rhino Records | R2 165564
Psychedelic Rock, Garage Rock

Love Is the Song We Sing: San Francisco Nuggets 1965–1970 is the fourth Nuggets box set released by Rhino Records. It was released in 2007 and packaged as an 8 1/2 x 11" 120 page hardcover book, the first 73 pages of which were made up mostly of vintage photographs. The compilation focuses on San Francisco Sound bands. Its title is derived from the first line of "Get Together," two versions of which open (Dino Valenti) and close (The Youngbloods) the four-disc set.

V.A. - Love Is The Song We Sing: San Francisco Nuggets 1965-1970 (2007) 4CD Box Set [Repost]




V.A. - Love Is The Song We Sing: San Francisco Nuggets 1965-1970 (2007) 4CD Box Set [Repost]


Disc 1: "Seismic Rumbles"
01:03:49

01. Dino Valenti - Let's Get Together (03:01)
02. Country Joe And The Fish - I Feel Like I'm Flying To Die Rag (Ep Version) (02:44)
03. We Five - You Were On My Mind (02:37)
04. The Charlatans - Number One (04:07)
05. The Warlocks - Can't Come Down (03:02)
06. The Beau Brummels - Don't Talk To Strangers (02:21)
07. The Vejtables - Anything (01:58)
08. Jefferson Airplane - It's No Secret (02:30)
09. The Mystery Trend - Johnny Was A Good Boy (02:37)
10. The Great! Society - Free Advice (02:07)
11. The Grass Roots - Mr Jones (A Ballad Of A Thin Man) (02:55)
12. Blackburn And Snow - Stranger In A Strange Land (02:30)
13. Quicksilver Messenger Service - Who Do You Love (Demo Version) (05:57)
14. The Mojo Men - She's My Baby (03:02)
15. The Wildflower - Coffee Cup (02:18)
16. The Family Tree - Live Your Own Life (02:55)
17. The Sons Of Champlin - Fat City (03:04)
18. The Francis - Human Monkey (02:09)
19. The Tikis - Bye Bye Bye (Warner Bros. Single Version)track 19 (02:46)
20. Country Joe And The Fish - Section 43 (Ep Version) (06:44)
21. The Sopwith 'Camel' - Hello Hello (02:25)

V.A. - Love Is The Song We Sing: San Francisco Nuggets 1965-1970 (2007) 4CD Box Set [Repost]


Disc 2: "Suburbia"
59:22

01. Count Five - Psychotic Reaction (03:08)
02. The Front Line - Got Love (01:44)
03. The Mourning Reign - Satisfaction Guaranteed (02:19)
04. The Oxford Circle - Foolish Woman (02:33)
05. The Stained Glass - My Buddy Sin (02:53)
06. The Otherside - Streetcar (02:23)
07. Teddy And His Patches - Suzy Creamcheese (03:14)
08. The Immediate Family - Rubiyat (02:34)
09. Syndicate Of Sound - Rumors (02:07)
10. The Harbinger Complex - Sometimes I Wonder (02:18)
11. The New Breed - Want Ad Reader (02:31)
12. The Generation - I'm A Good Woman (04:18)
13. The Chocolate Watchband - No Way Out (02:22)
14. Butch Eagle And The Styx - Hey I'm Lost (02:31)
15. People - I Love You (04:31)
16. Public Nuisance - America (03:23)
17. Country Weather - Fly To New York (06:18)
18. The Savage Resurrection - Thing In 'E' (03:08)
19. Frumious Bandersnatch - Hearts To Cry (05:05)

V.A. - Love Is The Song We Sing: San Francisco Nuggets 1965-1970 (2007) 4CD Box Set [Repost]


Disc 3: "Summer Of Love"
01:13:53

01. The Charlatans - Alabama Bound (06:26)
02. The Mystery Trend - Carl Street (02:49)
03. The Great! Society - Somebody To Love (Lp Version) (04:20)
04. Country Joe And The Fish - Superbird (02:04)
05. The Beau Brummels - Two Days 'Til Tomorrow (03:50)
06. Moby Grape - Omaha (02:24)
07. The Serpent Power - Up And Down (03:37)
08. Grateful Dead - The Golden Road (To Unlimited Devotion) (02:12)
09. Quicksilver Messenger Service - Codine (05:21)
10. Big Brother And The Holding Company - Down On Me (Live) (02:50)
11. Salvation - Think Twice (07:12)
12. Jefferson Airplane - White Rabbit (02:31)
13. Steve Miller Band - Roll With It (02:27)
14. Notes From The Underground - Why Did Put Me On (02:43)
15. Sly And The Family Stone - Underdog (03:58)
16. Blue Cheer - Summertime Blues (03:46)
17. The Ace Of Cups - Glue (04:39)
18. Santana - Soul Sacrifice (06:42)
19. The Loading Zone - The Bells (04:00)

V.A. - Love Is The Song We Sing: San Francisco Nuggets 1965-1970 (2007) 4CD Box Set [Repost]


Disc 4: "The Man Can't Bust Our Music"
01:00:19

01. Santana - Evil Ways (03:58)
02. Fifty Foot Hose - Red The Sign Post (02:59)
03. Kak - Lemonade Kid (05:53)
04. The Sons Of Champlin - 1982-A (03:55)
05. Dan Hicks And His Hot Licks - How Can I Miss You When You Won't Go Away (02:39)
06. Mad River - Amphetamine Gazelle (02:55)
07. Steve Miller Band - Quicksilver Girl (02:47)
08. Mother Earth - Revolution (03:04)
09. Moby Grape - Murder In My Heart For The Judge (02:58)
10. Quicksilver Messenger Service - Light Your Windows (02:37)
11. Flamin' Groovies - I'm Drowning (02:10)
12. Seatrain - Portrait Of The Artist As A Young Lady (03:52)
13. It's A Beautiful Day - White Bird (06:12)
14. Grateful Dead - Dark Star (Single Version) (02:45)
15. Blue Cheer - Fool (Single Version) (02:56)
16. Jefferson Airplane - Mexico (02:13)
17. Janis Joplin - Mercedes Benz (01:49)
18. The Youngbloods - Get Together (04:37)

EAC extraction logfile from 11. October 2007, 22:28 for CD
VA / San Fransisco Nuggets 1965-1970 (Disc 1: Seismic Rumbles)

Used drive : HL-DT-STRW/DVD GCC-4240N Adapter: 1 ID: 0
Read mode : Secure with NO C2, accurate stream, disable cache
Read offset correction : 102
Overread into Lead-In and Lead-Out : No

Used output format : C:\Program Files\FLAC\flac.exe (User Defined Encoder)
320 kBit/s
Additional command line options : -V -8 -T "artist=%a" -T "title=%t" -T "album=%g" -T "date=%y" -T "tracknumber=%n" -T "genre=%m" %s

Other options :
Fill up missing offset samples with silence : Yes
Delete leading and trailing silent blocks : No
Native Win32 interface for Win NT & 2000


Track 1
Filename C:\Documents and Settings\Dan\My Documents\Oink\San Fransisco Nuggets 1965-1970\01 - Let's Get Together.wav

Pre-gap length 0:00:02.00

Peak level 97.5 %
Track quality 99.9 %
Test CRC 0ED12458
Copy CRC 0ED12458
Copy OK

Track 2
Filename C:\Documents and Settings\Dan\My Documents\Oink\San Fransisco Nuggets 1965-1970\02 - I Feel Like I'm Flying to Die Rag (EP version).wav

Peak level 99.8 %
Track quality 100.0 %
Test CRC 6B34478D
Copy CRC 6B34478D
Copy OK

Track 3
Filename C:\Documents and Settings\Dan\My Documents\Oink\San Fransisco Nuggets 1965-1970\03 - You Were on My Mind.wav

Pre-gap length 0:00:01.04

Peak level 99.8 %
Track quality 100.0 %
Test CRC F8B3A87D
Copy CRC F8B3A87D
Copy OK

Track 4
Filename C:\Documents and Settings\Dan\My Documents\Oink\San Fransisco Nuggets 1965-1970\04 - Number One.wav

Pre-gap length 0:00:01.16

Peak level 99.8 %
Track quality 100.0 %
Test CRC A930B300
Copy CRC A930B300
Copy OK

Track 5
Filename C:\Documents and Settings\Dan\My Documents\Oink\San Fransisco Nuggets 1965-1970\05 - Can't Come Down.wav

Pre-gap length 0:00:01.12

Peak level 98.6 %
Track quality 100.0 %
Test CRC ECA1882E
Copy CRC ECA1882E
Copy OK

Track 6
Filename C:\Documents and Settings\Dan\My Documents\Oink\San Fransisco Nuggets 1965-1970\06 - Don't Talk to Strangers.wav

Peak level 99.8 %
Track quality 100.0 %
Test CRC 72E3D2A1
Copy CRC 72E3D2A1
Copy OK

Track 7
Filename C:\Documents and Settings\Dan\My Documents\Oink\San Fransisco Nuggets 1965-1970\07 - Anything.wav

Peak level 99.8 %
Track quality 100.0 %
Test CRC 934A2C7B
Copy CRC 934A2C7B
Copy OK

Track 8
Filename C:\Documents and Settings\Dan\My Documents\Oink\San Fransisco Nuggets 1965-1970\08 - It's no Secret.wav

Peak level 88.3 %
Track quality 100.0 %
Test CRC 628E5D9C
Copy CRC 628E5D9C
Copy OK

Track 9
Filename C:\Documents and Settings\Dan\My Documents\Oink\San Fransisco Nuggets 1965-1970\09 - Johnny was a Good Boy.wav

Peak level 99.8 %
Track quality 100.0 %
Test CRC DE6252D2
Copy CRC DE6252D2
Copy OK

Track 10
Filename C:\Documents and Settings\Dan\My Documents\Oink\San Fransisco Nuggets 1965-1970\10 - Free Advice.wav

Pre-gap length 0:00:01.18

Peak level 99.8 %
Track quality 100.0 %
Test CRC D4E4CAD6
Copy CRC D4E4CAD6
Copy OK

Track 11
Filename C:\Documents and Settings\Dan\My Documents\Oink\San Fransisco Nuggets 1965-1970\11 - Mr Jones (A Ballad of a Thin Man).wav

Pre-gap length 0:00:01.10

Peak level 94.1 %
Track quality 100.0 %
Test CRC 619BF114
Copy CRC 619BF114
Copy OK

Track 12
Filename C:\Documents and Settings\Dan\My Documents\Oink\San Fransisco Nuggets 1965-1970\12 - Stranger in a Strange Land.wav

Pre-gap length 0:00:01.13

Peak level 94.5 %
Track quality 100.0 %
Test CRC A4C8BF07
Copy CRC A4C8BF07
Copy OK

Track 13
Filename C:\Documents and Settings\Dan\My Documents\Oink\San Fransisco Nuggets 1965-1970\13 - Who Do You Love (Demo Version).wav

Peak level 99.8 %
Track quality 100.0 %
Test CRC 60AF9666
Copy CRC 60AF9666
Copy OK

Track 14
Filename C:\Documents and Settings\Dan\My Documents\Oink\San Fransisco Nuggets 1965-1970\14 - She's My Baby.wav

Peak level 92.2 %
Track quality 99.9 %
Test CRC 7DB2A5AD
Copy CRC 7DB2A5AD
Copy OK

Track 15
Filename C:\Documents and Settings\Dan\My Documents\Oink\San Fransisco Nuggets 1965-1970\15 - Coffee Cup.wav

Peak level 93.0 %
Track quality 100.0 %
Test CRC 4DC0836A
Copy CRC 4DC0836A
Copy OK

Track 16
Filename C:\Documents and Settings\Dan\My Documents\Oink\San Fransisco Nuggets 1965-1970\16 - Live Your Own Life.wav

Peak level 99.8 %
Track quality 100.0 %
Test CRC 4824DD67
Copy CRC 4824DD67
Copy OK

Track 17
Filename C:\Documents and Settings\Dan\My Documents\Oink\San Fransisco Nuggets 1965-1970\17 - Fat City.wav

Peak level 97.8 %
Track quality 100.0 %
Test CRC 08BA1EA8
Copy CRC 08BA1EA8
Copy OK

Track 18
Filename C:\Documents and Settings\Dan\My Documents\Oink\San Fransisco Nuggets 1965-1970\18 - Human Monkey.wav

Peak level 92.1 %
Track quality 100.0 %
Test CRC 2675ED6B
Copy CRC 2675ED6B
Copy OK

Track 19
Filename C:\Documents and Settings\Dan\My Documents\Oink\San Fransisco Nuggets 1965-1970\19 - Bye Bye Bye (Warner Bros. Single Version)Track 19.wav

Peak level 99.8 %
Track quality 99.9 %
Test CRC 456038E2
Copy CRC 456038E2
Copy OK

Track 20
Filename C:\Documents and Settings\Dan\My Documents\Oink\San Fransisco Nuggets 1965-1970\20 - Section 43 (EP Version).wav

Peak level 99.8 %
Track quality 99.7 %
Test CRC 96E20E04
Copy CRC 96E20E04
Copy OK

Track 21
Filename C:\Documents and Settings\Dan\My Documents\Oink\San Fransisco Nuggets 1965-1970\21 - Hello Hello.wav

Peak level 91.8 %
Track quality 99.9 %
Test CRC FA93DE5E
Copy CRC FA93DE5E
Copy OK

No errors occured


End of status report

EAC extraction logfile from 11. October 2007, 23:27 for CD
VA / San Fransisco Nuggets 1965-1970 (Disc 2: Suburbia)

Used drive : HL-DT-STRW/DVD GCC-4240N Adapter: 1 ID: 0
Read mode : Secure with NO C2, accurate stream, disable cache
Read offset correction : 102
Overread into Lead-In and Lead-Out : No

Used output format : C:\Program Files\FLAC\flac.exe (User Defined Encoder)
320 kBit/s
Additional command line options : -V -8 -T "artist=%a" -T "title=%t" -T "album=%g" -T "date=%y" -T "tracknumber=%n" -T "genre=%m" %s

Other options :
Fill up missing offset samples with silence : Yes
Delete leading and trailing silent blocks : No
Native Win32 interface for Win NT & 2000


Track 1
Filename C:\Documents and Settings\Dan\My Documents\Oink\San Fransisco Nuggets 1965-1970\San Fransisco Nuggets 1965-1970 (Disc 2 Suburbia)\01 - Psychotic Reaction.wav

Pre-gap length 0:00:02.00

Peak level 99.8 %
Track quality 99.9 %
Test CRC 8BBC7A7D
Copy CRC 8BBC7A7D
Copy OK

Track 2
Filename C:\Documents and Settings\Dan\My Documents\Oink\San Fransisco Nuggets 1965-1970\San Fransisco Nuggets 1965-1970 (Disc 2 Suburbia)\02 - Got Love.wav

Peak level 86.4 %
Track quality 99.8 %
Test CRC 54693B0B
Copy CRC 54693B0B
Copy OK

Track 3
Filename C:\Documents and Settings\Dan\My Documents\Oink\San Fransisco Nuggets 1965-1970\San Fransisco Nuggets 1965-1970 (Disc 2 Suburbia)\03 - Satisfaction Guaranteed.wav

Peak level 97.7 %
Track quality 100.0 %
Test CRC DE42D3DB
Copy CRC DE42D3DB
Copy OK

Track 4
Filename C:\Documents and Settings\Dan\My Documents\Oink\San Fransisco Nuggets 1965-1970\San Fransisco Nuggets 1965-1970 (Disc 2 Suburbia)\04 - Foolish Woman.wav

Peak level 91.6 %
Track quality 99.9 %
Test CRC D12EDF10
Copy CRC D12EDF10
Copy OK

Track 5
Filename C:\Documents and Settings\Dan\My Documents\Oink\San Fransisco Nuggets 1965-1970\San Fransisco Nuggets 1965-1970 (Disc 2 Suburbia)\05 - My Buddy Sin.wav

Peak level 99.8 %
Track quality 100.0 %
Test CRC 1AF10765
Copy CRC 1AF10765
Copy OK

Track 6
Filename C:\Documents and Settings\Dan\My Documents\Oink\San Fransisco Nuggets 1965-1970\San Fransisco Nuggets 1965-1970 (Disc 2 Suburbia)\06 - Streetcar.wav

Peak level 99.8 %
Track quality 100.0 %
Test CRC E77D7363
Copy CRC E77D7363
Copy OK

Track 7
Filename C:\Documents and Settings\Dan\My Documents\Oink\San Fransisco Nuggets 1965-1970\San Fransisco Nuggets 1965-1970 (Disc 2 Suburbia)\07 - Suzy Creamcheese.wav

Pre-gap length 0:00:02.62

Peak level 94.2 %
Track quality 100.0 %
Test CRC 2F17759B
Copy CRC 2F17759B
Copy OK

Track 8
Filename C:\Documents and Settings\Dan\My Documents\Oink\San Fransisco Nuggets 1965-1970\San Fransisco Nuggets 1965-1970 (Disc 2 Suburbia)\08 - Rubiyat.wav

Pre-gap length 0:00:02.60

Peak level 95.9 %
Track quality 100.0 %
Test CRC 7E85C695
Copy CRC 7E85C695
Copy OK

Track 9
Filename C:\Documents and Settings\Dan\My Documents\Oink\San Fransisco Nuggets 1965-1970\San Fransisco Nuggets 1965-1970 (Disc 2 Suburbia)\09 - Rumors.wav

Peak level 99.6 %
Track quality 100.0 %
Test CRC 5995E5DD
Copy CRC 5995E5DD
Copy OK

Track 10
Filename C:\Documents and Settings\Dan\My Documents\Oink\San Fransisco Nuggets 1965-1970\San Fransisco Nuggets 1965-1970 (Disc 2 Suburbia)\10 - Sometimes I Wonder.wav

Peak level 99.8 %
Track quality 100.0 %
Test CRC 70BFBFA0
Copy CRC 70BFBFA0
Copy OK

Track 11
Filename C:\Documents and Settings\Dan\My Documents\Oink\San Fransisco Nuggets 1965-1970\San Fransisco Nuggets 1965-1970 (Disc 2 Suburbia)\11 - Want Ad Reader.wav

Pre-gap length 0:00:01.68

Peak level 92.8 %
Track quality 99.9 %
Test CRC E52E8518
Copy CRC E52E8518
Copy OK

Track 12
Filename C:\Documents and Settings\Dan\My Documents\Oink\San Fransisco Nuggets 1965-1970\San Fransisco Nuggets 1965-1970 (Disc 2 Suburbia)\12 - I'm a Good Woman.wav

Peak level 93.7 %
Track quality 99.9 %
Test CRC 9F384D0A
Copy CRC 9F384D0A
Copy OK

Track 13
Filename C:\Documents and Settings\Dan\My Documents\Oink\San Fransisco Nuggets 1965-1970\San Fransisco Nuggets 1965-1970 (Disc 2 Suburbia)\13 - No Way Out.wav

Peak level 76.1 %
Track quality 100.0 %
Test CRC A596A47E
Copy CRC A596A47E
Copy OK

Track 14
Filename C:\Documents and Settings\Dan\My Documents\Oink\San Fransisco Nuggets 1965-1970\San Fransisco Nuggets 1965-1970 (Disc 2 Suburbia)\14 - Hey I'm Lost.wav

Pre-gap length 0:00:01.02

Peak level 96.6 %
Track quality 100.0 %
Test CRC 2DC7E20B
Copy CRC 2DC7E20B
Copy OK

Track 15
Filename C:\Documents and Settings\Dan\My Documents\Oink\San Fransisco Nuggets 1965-1970\San Fransisco Nuggets 1965-1970 (Disc 2 Suburbia)\15 - I Love You.wav

Peak level 99.8 %
Track quality 100.0 %
Test CRC BF8CF892
Copy CRC BF8CF892
Copy OK

Track 16
Filename C:\Documents and Settings\Dan\My Documents\Oink\San Fransisco Nuggets 1965-1970\San Fransisco Nuggets 1965-1970 (Disc 2 Suburbia)\16 - America.wav

Peak level 97.4 %
Track quality 99.9 %
Test CRC 3395DA03
Copy CRC 3395DA03
Copy OK

Track 17
Filename C:\Documents and Settings\Dan\My Documents\Oink\San Fransisco Nuggets 1965-1970\San Fransisco Nuggets 1965-1970 (Disc 2 Suburbia)\17 - Fly to New York.wav

Pre-gap length 0:00:01.25

Peak level 99.8 %
Track quality 100.0 %
Test CRC 4B2E7FC9
Copy CRC 4B2E7FC9
Copy OK

Track 18
Filename C:\Documents and Settings\Dan\My Documents\Oink\San Fransisco Nuggets 1965-1970\San Fransisco Nuggets 1965-1970 (Disc 2 Suburbia)\18 - Thing in 'E'.wav

Peak level 99.3 %
Track quality 99.6 %
Test CRC DB5DA38E
Copy CRC DB5DA38E
Copy OK

Track 19
Filename C:\Documents and Settings\Dan\My Documents\Oink\San Fransisco Nuggets 1965-1970\San Fransisco Nuggets 1965-1970 (Disc 2 Suburbia)\19 - Hearts to Cry.wav

Pre-gap length 0:00:01.48

Peak level 99.8 %
Track quality 99.8 %
Test CRC EA1ECDC5
Copy CRC EA1ECDC5
Copy OK

No errors occured


End of status report

EAC extraction logfile from 12. October 2007, 0:42 for CD
VA / San Fransisco Nuggets 1965-1970 (Disc 3: Summer of Love)

Used drive : HL-DT-STRW/DVD GCC-4240N Adapter: 1 ID: 0
Read mode : Secure with NO C2, accurate stream, disable cache
Read offset correction : 102
Overread into Lead-In and Lead-Out : No

Used output format : C:\Program Files\FLAC\flac.exe (User Defined Encoder)
320 kBit/s
Additional command line options : -V -8 -T "artist=%a" -T "title=%t" -T "album=%g" -T "date=%y" -T "tracknumber=%n" -T "genre=%m" %s

Other options :
Fill up missing offset samples with silence : Yes
Delete leading and trailing silent blocks : No
Native Win32 interface for Win NT & 2000


Track 1
Filename C:\Documents and Settings\Dan\My Documents\Oink\San Fransisco Nuggets 1965-1970\San Fransisco Nuggets 1965-1970 (Disc 3 Summer of Love)\01 - Alabama Bound.wav

Pre-gap length 0:00:02.00

Peak level 98.7 %
Track quality 100.0 %
Test CRC 49B63771
Copy CRC 49B63771
Copy OK

Track 2
Filename C:\Documents and Settings\Dan\My Documents\Oink\San Fransisco Nuggets 1965-1970\San Fransisco Nuggets 1965-1970 (Disc 3 Summer of Love)\02 - Carl Street.wav

Peak level 100.0 %
Track quality 100.0 %
Test CRC C6B863C0
Copy CRC C6B863C0
Copy OK

Track 3
Filename C:\Documents and Settings\Dan\My Documents\Oink\San Fransisco Nuggets 1965-1970\San Fransisco Nuggets 1965-1970 (Disc 3 Summer of Love)\03 - Somebody to Love (LP Version).wav

Peak level 100.0 %
Track quality 100.0 %
Test CRC E5589666
Copy CRC E5589666
Copy OK

Track 4
Filename C:\Documents and Settings\Dan\My Documents\Oink\San Fransisco Nuggets 1965-1970\San Fransisco Nuggets 1965-1970 (Disc 3 Summer of Love)\04 - Superbird.wav

Pre-gap length 0:00:01.94

Peak level 100.0 %
Track quality 100.0 %
Test CRC 6E6E3B5C
Copy CRC 6E6E3B5C
Copy OK

Track 5
Filename C:\Documents and Settings\Dan\My Documents\Oink\San Fransisco Nuggets 1965-1970\San Fransisco Nuggets 1965-1970 (Disc 3 Summer of Love)\05 - Two Days 'til Tomorrow.wav

Peak level 100.0 %
Track quality 100.0 %
Test CRC 7C12D6AD
Copy CRC 7C12D6AD
Copy OK

Track 6
Filename C:\Documents and Settings\Dan\My Documents\Oink\San Fransisco Nuggets 1965-1970\San Fransisco Nuggets 1965-1970 (Disc 3 Summer of Love)\06 - Omaha.wav

Pre-gap length 0:00:02.92

Peak level 100.0 %
Track quality 100.0 %
Test CRC 066FB3AE
Copy CRC 066FB3AE
Copy OK

Track 7
Filename C:\Documents and Settings\Dan\My Documents\Oink\San Fransisco Nuggets 1965-1970\San Fransisco Nuggets 1965-1970 (Disc 3 Summer of Love)\07 - Up and Down.wav

Pre-gap length 0:00:01.05

Peak level 95.8 %
Track quality 100.0 %
Test CRC 48B51012
Copy CRC 48B51012
Copy OK

Track 8
Filename C:\Documents and Settings\Dan\My Documents\Oink\San Fransisco Nuggets 1965-1970\San Fransisco Nuggets 1965-1970 (Disc 3 Summer of Love)\08 - The Golden Road (to Unlimited Devotion).wav

Peak level 91.1 %
Track quality 100.0 %
Test CRC 1881BE75
Copy CRC 1881BE75
Copy OK

Track 9
Filename C:\Documents and Settings\Dan\My Documents\Oink\San Fransisco Nuggets 1965-1970\San Fransisco Nuggets 1965-1970 (Disc 3 Summer of Love)\09 - Codine.wav

Pre-gap length 0:00:01.57

Peak level 100.0 %
Track quality 100.0 %
Test CRC B2E931C9
Copy CRC B2E931C9
Copy OK

Track 10
Filename C:\Documents and Settings\Dan\My Documents\Oink\San Fransisco Nuggets 1965-1970\San Fransisco Nuggets 1965-1970 (Disc 3 Summer of Love)\10 - Down on Me (Live).wav

Peak level 100.0 %
Track quality 100.0 %
Test CRC A15A45F0
Copy CRC A15A45F0
Copy OK

Track 11
Filename C:\Documents and Settings\Dan\My Documents\Oink\San Fransisco Nuggets 1965-1970\San Fransisco Nuggets 1965-1970 (Disc 3 Summer of Love)\11 - Think Twice.wav

Pre-gap length 0:00:01.60

Peak level 100.0 %
Track quality 100.0 %
Test CRC 9AC0587C
Copy CRC 9AC0587C
Copy OK

Track 12
Filename C:\Documents and Settings\Dan\My Documents\Oink\San Fransisco Nuggets 1965-1970\San Fransisco Nuggets 1965-1970 (Disc 3 Summer of Love)\12 - White Rabbit.wav

Pre-gap length 0:00:03.62

Peak level 100.0 %
Track quality 100.0 %
Test CRC 1ADED96D
Copy CRC 1ADED96D
Copy OK

Track 13
Filename C:\Documents and Settings\Dan\My Documents\Oink\San Fransisco Nuggets 1965-1970\San Fransisco Nuggets 1965-1970 (Disc 3 Summer of Love)\13 - Roll With It.wav

Peak level 92.4 %
Track quality 100.0 %
Test CRC 7B6F1F7A
Copy CRC 7B6F1F7A
Copy OK

Track 14
Filename C:\Documents and Settings\Dan\My Documents\Oink\San Fransisco Nuggets 1965-1970\San Fransisco Nuggets 1965-1970 (Disc 3 Summer of Love)\14 - Why Did Put Me On.wav

Pre-gap length 0:00:02.24

Peak level 96.2 %
Track quality 100.0 %
Test CRC B477A6A5
Copy CRC B477A6A5
Copy OK

Track 15
Filename C:\Documents and Settings\Dan\My Documents\Oink\San Fransisco Nuggets 1965-1970\San Fransisco Nuggets 1965-1970 (Disc 3 Summer of Love)\15 - Underdog.wav

Pre-gap length 0:00:01.14

Peak level 98.9 %
Track quality 99.9 %
Test CRC 016C77C3
Copy CRC 016C77C3
Copy OK

Track 16
Filename C:\Documents and Settings\Dan\My Documents\Oink\San Fransisco Nuggets 1965-1970\San Fransisco Nuggets 1965-1970 (Disc 3 Summer of Love)\16 - Summertime Blues.wav

Peak level 100.0 %
Track quality 100.0 %
Test CRC 5C5A5F85
Copy CRC 5C5A5F85
Copy OK

Track 17
Filename C:\Documents and Settings\Dan\My Documents\Oink\San Fransisco Nuggets 1965-1970\San Fransisco Nuggets 1965-1970 (Disc 3 Summer of Love)\17 - Glue.wav

Pre-gap length 0:00:01.40

Peak level 95.4 %
Track quality 100.0 %
Test CRC CA8333E6
Copy CRC CA8333E6
Copy OK

Track 18
Filename C:\Documents and Settings\Dan\My Documents\Oink\San Fransisco Nuggets 1965-1970\San Fransisco Nuggets 1965-1970 (Disc 3 Summer of Love)\18 - Soul Sacrifice.wav

Pre-gap length 0:00:01.66

Peak level 100.0 %
Track quality 100.0 %
Test CRC 33AF4557
Copy CRC 33AF4557
Copy OK

Track 19
Filename C:\Documents and Settings\Dan\My Documents\Oink\San Fransisco Nuggets 1965-1970\San Fransisco Nuggets 1965-1970 (Disc 3 Summer of Love)\19 - The Bells.wav

Pre-gap length 0:00:02.73

Peak level 94.1 %
Track quality 100.0 %
Test CRC 7EAD69F4
Copy CRC 7EAD69F4
Copy OK

No errors occured


End of status report

EAC extraction logfile from 12. October 2007, 1:49 for CD
VA / San Francisco Nuggets 1965-1970 (Disc 4: "The Man Can't Bust Our Music")

Used drive : HL-DT-STRW/DVD GCC-4240N Adapter: 1 ID: 0
Read mode : Secure with NO C2, accurate stream, disable cache
Read offset correction : 102
Overread into Lead-In and Lead-Out : No

Used output format : C:\Program Files\FLAC\flac.exe (User Defined Encoder)
320 kBit/s
Additional command line options : -V -8 -T "artist=%a" -T "title=%t" -T "album=%g" -T "date=%y" -T "tracknumber=%n" -T "genre=%m" %s

Other options :
Fill up missing offset samples with silence : Yes
Delete leading and trailing silent blocks : No
Native Win32 interface for Win NT & 2000


Track 1
Filename C:\Documents and Settings\Dan\My Documents\Oink\San Fransisco Nuggets 1965-1970\San Francisco Nuggets 1965-1970 (Disc 4 The Man Can't Bust Our Music )\01 - Evil Ways.wav

Pre-gap length 0:00:02.00

Peak level 99.8 %
Track quality 100.0 %
Test CRC C65C7D08
Copy CRC C65C7D08
Copy OK

Track 2
Filename C:\Documents and Settings\Dan\My Documents\Oink\San Fransisco Nuggets 1965-1970\San Francisco Nuggets 1965-1970 (Disc 4 The Man Can't Bust Our Music )\02 - Red the Sign Post.wav

Peak level 99.8 %
Track quality 100.0 %
Test CRC 0733AF30
Copy CRC 0733AF30
Copy OK

Track 3
Filename C:\Documents and Settings\Dan\My Documents\Oink\San Fransisco Nuggets 1965-1970\San Francisco Nuggets 1965-1970 (Disc 4 The Man Can't Bust Our Music )\03 - Lemonade Kid.wav

Pre-gap length 0:00:01.28

Peak level 99.4 %
Track quality 99.9 %
Test CRC 2D57D177
Copy CRC 2D57D177
Copy OK

Track 4
Filename C:\Documents and Settings\Dan\My Documents\Oink\San Fransisco Nuggets 1965-1970\San Francisco Nuggets 1965-1970 (Disc 4 The Man Can't Bust Our Music )\04 - 1982-A.wav

Peak level 99.7 %
Track quality 100.0 %
Test CRC 8270E3FD
Copy CRC 8270E3FD
Copy OK

Track 5
Filename C:\Documents and Settings\Dan\My Documents\Oink\San Fransisco Nuggets 1965-1970\San Francisco Nuggets 1965-1970 (Disc 4 The Man Can't Bust Our Music )\05 - How Can I Miss You When You Won't Go Away.wav

Pre-gap length 0:00:01.16

Peak level 99.8 %
Track quality 100.0 %
Test CRC B414BD61
Copy CRC B414BD61
Copy OK

Track 6
Filename C:\Documents and Settings\Dan\My Documents\Oink\San Fransisco Nuggets 1965-1970\San Francisco Nuggets 1965-1970 (Disc 4 The Man Can't Bust Our Music )\06 - Amphetamine Gazelle.wav

Peak level 99.8 %
Track quality 100.0 %
Test CRC B4946815
Copy CRC B4946815
Copy OK

Track 7
Filename C:\Documents and Settings\Dan\My Documents\Oink\San Fransisco Nuggets 1965-1970\San Francisco Nuggets 1965-1970 (Disc 4 The Man Can't Bust Our Music )\07 - Quicksilver Girl.wav

Pre-gap length 0:00:01.00

Peak level 92.6 %
Track quality 100.0 %
Test CRC 48E14EC7
Copy CRC 48E14EC7
Copy OK

Track 8
Filename C:\Documents and Settings\Dan\My Documents\Oink\San Fransisco Nuggets 1965-1970\San Francisco Nuggets 1965-1970 (Disc 4 The Man Can't Bust Our Music )\08 - Revolution.wav

Pre-gap length 0:00:03.68

Peak level 99.8 %
Track quality 99.9 %
Test CRC DFED89E6
Copy CRC DFED89E6
Copy OK

Track 9
Filename C:\Documents and Settings\Dan\My Documents\Oink\San Fransisco Nuggets 1965-1970\San Francisco Nuggets 1965-1970 (Disc 4 The Man Can't Bust Our Music )\09 - Murder In My Heart for the Judge.wav

Pre-gap length 0:00:04.65

Peak level 99.8 %
Track quality 100.0 %
Test CRC 3857F002
Copy CRC 3857F002
Copy OK

Track 10
Filename C:\Documents and Settings\Dan\My Documents\Oink\San Fransisco Nuggets 1965-1970\San Francisco Nuggets 1965-1970 (Disc 4 The Man Can't Bust Our Music )\10 - Light Your Windows.wav

Pre-gap length 0:00:01.64

Peak level 99.8 %
Track quality 100.0 %
Test CRC BAA217D7
Copy CRC BAA217D7
Copy OK

Track 11
Filename C:\Documents and Settings\Dan\My Documents\Oink\San Fransisco Nuggets 1965-1970\San Francisco Nuggets 1965-1970 (Disc 4 The Man Can't Bust Our Music )\11 - I'm Drowning.wav

Peak level 99.8 %
Track quality 99.9 %
Test CRC D73C5063
Copy CRC D73C5063
Copy OK

Track 12
Filename C:\Documents and Settings\Dan\My Documents\Oink\San Fransisco Nuggets 1965-1970\San Francisco Nuggets 1965-1970 (Disc 4 The Man Can't Bust Our Music )\12 - Portrait of the Artist as a Young Lady.wav

Pre-gap length 0:00:03.66

Peak level 99.8 %
Track quality 100.0 %
Test CRC 1DB38DBF
Copy CRC 1DB38DBF
Copy OK

Track 13
Filename C:\Documents and Settings\Dan\My Documents\Oink\San Fransisco Nuggets 1965-1970\San Francisco Nuggets 1965-1970 (Disc 4 The Man Can't Bust Our Music )\13 - White Bird.wav

Pre-gap length 0:00:03.57

Peak level 99.8 %
Track quality 100.0 %
Test CRC 5C72843F
Copy CRC 5C72843F
Copy OK

Track 14
Filename C:\Documents and Settings\Dan\My Documents\Oink\San Fransisco Nuggets 1965-1970\San Francisco Nuggets 1965-1970 (Disc 4 The Man Can't Bust Our Music )\14 - Dark Star (Single Version).wav

Pre-gap length 0:00:02.90

Peak level 95.1 %
Track quality 100.0 %
Test CRC 90612CAC
Copy CRC 90612CAC
Copy OK

Track 15
Filename C:\Documents and Settings\Dan\My Documents\Oink\San Fransisco Nuggets 1965-1970\San Francisco Nuggets 1965-1970 (Disc 4 The Man Can't Bust Our Music )\15 - Fool (Single Version).wav

Pre-gap length 0:00:02.65

Peak level 99.8 %
Track quality 100.0 %
Test CRC A5607DA0
Copy CRC A5607DA0
Copy OK

Track 16
Filename C:\Documents and Settings\Dan\My Documents\Oink\San Fransisco Nuggets 1965-1970\San Francisco Nuggets 1965-1970 (Disc 4 The Man Can't Bust Our Music )\16 - Mexico.wav

Peak level 99.8 %
Track quality 100.0 %
Test CRC 5B82F349
Copy CRC 5B82F349
Copy OK

Track 17
Filename C:\Documents and Settings\Dan\My Documents\Oink\San Fransisco Nuggets 1965-1970\San Francisco Nuggets 1965-1970 (Disc 4 The Man Can't Bust Our Music )\17 - Mercedes Benz.wav

Pre-gap length 0:00:03.66

Peak level 99.8 %
Track quality 100.0 %
Test CRC FBB81FB1
Copy CRC FBB81FB1
Copy OK

Track 18
Filename C:\Documents and Settings\Dan\My Documents\Oink\San Fransisco Nuggets 1965-1970\San Francisco Nuggets 1965-1970 (Disc 4 The Man Can't Bust Our Music )\18 - Get Together.wav

Pre-gap length 0:00:01.61

Peak level 98.7 %
Track quality 99.7 %
Test CRC 8A2FE53C
Copy CRC 8A2FE53C
Copy OK

No errors occured


End of status report


Many thanks to the original uploader



Password: pass