Subcategories

VA - Marshmallow Skies (60s Pop Stars Flirt With Psychedelia) (2017)

Posted By: ciklon5
VA - Marshmallow Skies (60s Pop Stars Flirt With Psychedelia) (2017)

VA - Marshmallow Skies (60s Pop Stars Flirt With Psychedelia) (2017)
Flac (tracks, .cue, log) | 01:19:26 | 478 Mb
Genre: Oldies, Pop, Psychedelia / Label: Teensville

Turn the time machine back fifty years for a groovy 80 minute trip: Marshmallow Skies is a turned-on look into established 60s pop artists’ forays and experiments with the psychedelic music scene. Listen as stars of sixties flirt with psych instrumentation coupled with lyrics about peace and love. It’ll blow your mind in 28 different pieces, man.

Track List:

1. Watch The Flowers Grow - The Four Seasons
2. Gemini - Del Shannon
3. Suzanne In The Mirror - Billy Fury
4. You're Just What I Was Looking For Today - The Everly Brothers
5. Marshmallow Skies - Rick Nelson
6. Fly Away - Bobby Vee
7. Girl, You're Blowing My Mind - Jan & Dean
8. 20th Century Fox - Freddy Cannon
9. Sunstroke - Chad & Jeremy
10. Green Plant - The Tokens
11. Abyssinian Secret - Cilla Black
12. I'm High Again - Bo Diddley
13. My Girl The Month of May - Dion & The Belmonts
14. Don't Tell Me It's Raining - Johnny Tillotson
15. (We'll Meet In The) Yellow Forest - Jay & The Americans
16. Animal Crackers (In Cellophane Boxes) - Gene Pitney
17. Bring The Whole Family - Gary Lewis
18. Cold Girl - Neil Sedaka
19. Strange Sensations - Bobby Vinton
20. My Love Is A Rainbow - (Little) Anthony & The Imperials
21. Say What You See - Lesley Gore
22. Candy Store Prophet - Tommy Sands
23. Come With Me - Brian Hyland
24. Born To Be A Rolling Stone - Gene Vincent
25. Moontalk - Tommy Roe
26. Stoned In The Bathroom - Chubby Checker
27. Popcorn Double Feature - The Searchers
28. Southbound Jericho Parkway - Roy Orbison

Exact Audio Copy V1.2 from 12. August 2016

EAC extraction logfile from 25. January 2018, 14:12

Various Artists / Marshmallow Skies

Used drive : HL-DT-STDVD+-RW GU90N Adapter: 1 ID: 1

Read mode : Secure
Utilize accurate stream : Yes
Defeat audio cache : Yes
Make use of C2 pointers : No

Read offset correction : 102
Overread into Lead-In and Lead-Out : No
Fill up missing offset samples with silence : Yes
Delete leading and trailing silent blocks : No
Null samples used in CRC calculations : Yes
Used interface : Native Win32 interface for Win NT & 2000
Gap handling : Appended to previous track

Used output format : User Defined Encoder
Selected bitrate : 1024 kBit/s
Quality : High
Add ID3 tag : No
Command line compressor : C:\Program Files (x86)\Exact Audio Copy\Flac\flac.exe
Additional command line options : -8 -V -T "ARTIST=%artist%" -T "TITLE=%title%" -T "ALBUM=%albumtitle%" -T "DATE=%year%" -T "TRACKNUMBER=%tracknr%" -T "GENRE=%genre%" -T "PERFORMER=%albuminterpret%" -T "COMPOSER=%composer%" %haslyrics%–tag-from-file=LYRICS="%lyricsfile%"%haslyrics% -T "ALBUMARTIST=%albumartist%" -T "DISCNUMBER=%cdnumber%" -T "TOTALDISCS=%totalcds%" -T "TOTALTRACKS=%numtracks%" -T "COMMENT=%comment%" %source% -o %dest%


TOC of the extracted CD

Track | Start | Length | Start sector | End sector
––––––––––––––––––––––––––––-
1 | 0:00.00 | 3:20.37 | 0 | 15036
2 | 3:20.37 | 3:25.39 | 15037 | 30450
3 | 6:46.01 | 2:29.20 | 30451 | 41645
4 | 9:15.21 | 2:57.64 | 41646 | 54984
5 | 12:13.10 | 2:16.71 | 54985 | 65255
6 | 14:30.06 | 2:58.00 | 65256 | 78605
7 | 17:28.06 | 2:28.29 | 78606 | 89734
8 | 19:56.35 | 2:27.63 | 89735 | 100822
9 | 22:24.23 | 4:12.13 | 100823 | 119735
10 | 26:36.36 | 2:14.65 | 119736 | 129850
11 | 28:51.26 | 2:15.46 | 129851 | 140021
12 | 31:06.72 | 2:39.07 | 140022 | 151953
13 | 33:46.04 | 2:17.19 | 151954 | 162247
14 | 36:03.23 | 2:32.63 | 162248 | 173710
15 | 38:36.11 | 2:15.47 | 173711 | 183882
16 | 40:51.58 | 1:48.58 | 183883 | 192040
17 | 42:40.41 | 2:37.00 | 192041 | 203815
18 | 45:17.41 | 2:43.53 | 203816 | 216093
19 | 48:01.19 | 2:18.46 | 216094 | 226489
20 | 50:19.65 | 2:43.34 | 226490 | 238748
21 | 53:03.24 | 2:57.66 | 238749 | 252089
22 | 56:01.15 | 2:42.47 | 252090 | 264286
23 | 58:43.62 | 2:35.05 | 264287 | 275916
24 | 61:18.67 | 2:18.06 | 275917 | 286272
25 | 63:36.73 | 3:12.34 | 286273 | 300706
26 | 66:49.32 | 2:39.61 | 300707 | 312692
27 | 69:29.18 | 2:58.09 | 312693 | 326051
28 | 72:27.27 | 6:58.57 | 326052 | 357458


Track 1

Filename C:\Users\ian\Desktop\VA - Marshmallow Skies 60s Pop Stars Flirt With Psychedelia (2017) [FLAC]\01 - The Four Seasons - Watch The Flowers Grow.wav

Pre-gap length 0:00:02.00

Peak level 97.9 %
Extraction speed 1.1 X
Track quality 99.9 %
Test CRC 4FEC792D
Copy CRC 4FEC792D
Copy OK

Track 2

Filename C:\Users\ian\Desktop\VA - Marshmallow Skies 60s Pop Stars Flirt With Psychedelia (2017) [FLAC]\02 - Del Shannon - Gemini.wav

Pre-gap length 0:00:02.00

Peak level 97.9 %
Extraction speed 1.2 X
Track quality 99.9 %
Test CRC 003E165E
Copy CRC 003E165E
Copy OK

Track 3

Filename C:\Users\ian\Desktop\VA - Marshmallow Skies 60s Pop Stars Flirt With Psychedelia (2017) [FLAC]\03 - Billy Fury - Suzanne In The Mirror.wav

Pre-gap length 0:00:02.00

Peak level 97.9 %
Extraction speed 1.3 X
Track quality 100.0 %
Test CRC DDA9DB18
Copy CRC DDA9DB18
Copy OK

Track 4

Filename C:\Users\ian\Desktop\VA - Marshmallow Skies 60s Pop Stars Flirt With Psychedelia (2017) [FLAC]\04 - The Everly Brothers - You're Just What I Was Looking For Today.wav

Pre-gap length 0:00:02.00

Peak level 97.9 %
Extraction speed 1.5 X
Track quality 100.0 %
Test CRC 3BC3743B
Copy CRC 3BC3743B
Copy OK

Track 5

Filename C:\Users\ian\Desktop\VA - Marshmallow Skies 60s Pop Stars Flirt With Psychedelia (2017) [FLAC]\05 - Rick Nelson - Marshmallow Skies.wav

Pre-gap length 0:00:02.00

Peak level 97.9 %
Extraction speed 1.4 X
Track quality 100.0 %
Test CRC ACB96348
Copy CRC ACB96348
Copy OK

Track 6

Filename C:\Users\ian\Desktop\VA - Marshmallow Skies 60s Pop Stars Flirt With Psychedelia (2017) [FLAC]\06 - Bobby Vee - Fly Away.wav

Pre-gap length 0:00:02.00

Peak level 97.9 %
Extraction speed 1.6 X
Track quality 100.0 %
Test CRC FDC1AE22
Copy CRC FDC1AE22
Copy OK

Track 7

Filename C:\Users\ian\Desktop\VA - Marshmallow Skies 60s Pop Stars Flirt With Psychedelia (2017) [FLAC]\07 - Jan & Dean - Girl, You're Blowing My Mind.wav

Pre-gap length 0:00:02.00

Peak level 97.9 %
Extraction speed 1.3 X
Track quality 99.9 %
Test CRC 403C885A
Copy CRC 403C885A
Copy OK

Track 8

Filename C:\Users\ian\Desktop\VA - Marshmallow Skies 60s Pop Stars Flirt With Psychedelia (2017) [FLAC]\08 - Freddy Cannon - 20th Century Fox.wav

Pre-gap length 0:00:02.00

Peak level 100.0 %
Extraction speed 1.6 X
Track quality 100.0 %
Test CRC D5F2AB73
Copy CRC D5F2AB73
Copy OK

Track 9

Filename C:\Users\ian\Desktop\VA - Marshmallow Skies 60s Pop Stars Flirt With Psychedelia (2017) [FLAC]\09 - Chad & Jeremy - Sunstroke.wav

Pre-gap length 0:00:02.00

Peak level 97.9 %
Extraction speed 1.9 X
Track quality 100.0 %
Test CRC B962B2A0
Copy CRC B962B2A0
Copy OK

Track 10

Filename C:\Users\ian\Desktop\VA - Marshmallow Skies 60s Pop Stars Flirt With Psychedelia (2017) [FLAC]\10 - The Tokens - Green Plant.wav

Pre-gap length 0:00:02.00

Peak level 97.9 %
Extraction speed 1.7 X
Track quality 100.0 %
Test CRC BFAD3932
Copy CRC BFAD3932
Copy OK

Track 11

Filename C:\Users\ian\Desktop\VA - Marshmallow Skies 60s Pop Stars Flirt With Psychedelia (2017) [FLAC]\11 - Cilla Black - Abyssinian Secret.wav

Pre-gap length 0:00:02.00

Peak level 97.9 %
Extraction speed 1.8 X
Track quality 100.0 %
Test CRC D2F7718F
Copy CRC D2F7718F
Copy OK

Track 12

Filename C:\Users\ian\Desktop\VA - Marshmallow Skies 60s Pop Stars Flirt With Psychedelia (2017) [FLAC]\12 - Bo Diddley - I'm High Again.wav

Pre-gap length 0:00:02.00

Peak level 97.9 %
Extraction speed 1.9 X
Track quality 100.0 %
Test CRC 2F3F66D8
Copy CRC 2F3F66D8
Copy OK

Track 13

Filename C:\Users\ian\Desktop\VA - Marshmallow Skies 60s Pop Stars Flirt With Psychedelia (2017) [FLAC]\13 - Dion & The Belmonts - My Girl The Month Of May.wav

Pre-gap length 0:00:02.00

Peak level 97.9 %
Extraction speed 1.9 X
Track quality 100.0 %
Test CRC E74AA32D
Copy CRC E74AA32D
Copy OK

Track 14

Filename C:\Users\ian\Desktop\VA - Marshmallow Skies 60s Pop Stars Flirt With Psychedelia (2017) [FLAC]\14 - Johnny Tillotson - Don't Tell Me It's Raining.wav

Pre-gap length 0:00:02.00

Peak level 97.9 %
Extraction speed 2.0 X
Track quality 100.0 %
Test CRC D494BEB1
Copy CRC D494BEB1
Copy OK

Track 15

Filename C:\Users\ian\Desktop\VA - Marshmallow Skies 60s Pop Stars Flirt With Psychedelia (2017) [FLAC]\15 - Jay & The Americans - (We'll Meet In The) Yellow Forest.wav

Pre-gap length 0:00:02.00

Peak level 99.0 %
Extraction speed 1.9 X
Track quality 100.0 %
Test CRC 6A107481
Copy CRC 6A107481
Copy OK

Track 16

Filename C:\Users\ian\Desktop\VA - Marshmallow Skies 60s Pop Stars Flirt With Psychedelia (2017) [FLAC]\16 - Gene Pitney - Animal Crackers (In Cellophane Boxes).wav

Pre-gap length 0:00:02.00

Peak level 97.9 %
Extraction speed 1.9 X
Track quality 100.0 %
Test CRC D7B719CC
Copy CRC D7B719CC
Copy OK

Track 17

Filename C:\Users\ian\Desktop\VA - Marshmallow Skies 60s Pop Stars Flirt With Psychedelia (2017) [FLAC]\17 - Gary Lewis - Bring The Whole Family.wav

Pre-gap length 0:00:02.00

Peak level 97.9 %
Extraction speed 1.8 X
Track quality 99.9 %
Test CRC 23575A46
Copy CRC 23575A46
Copy OK

Track 18

Filename C:\Users\ian\Desktop\VA - Marshmallow Skies 60s Pop Stars Flirt With Psychedelia (2017) [FLAC]\18 - Neil Sedaka - Cold Girl.wav

Pre-gap length 0:00:02.00

Peak level 97.9 %
Extraction speed 2.1 X
Track quality 100.0 %
Test CRC F0F08F34
Copy CRC F0F08F34
Copy OK

Track 19

Filename C:\Users\ian\Desktop\VA - Marshmallow Skies 60s Pop Stars Flirt With Psychedelia (2017) [FLAC]\19 - Bobby Vinton - Strange Sensations.wav

Pre-gap length 0:00:02.00

Peak level 97.9 %
Extraction speed 2.1 X
Track quality 100.0 %
Test CRC EAD6D4C2
Copy CRC EAD6D4C2
Copy OK

Track 20

Filename C:\Users\ian\Desktop\VA - Marshmallow Skies 60s Pop Stars Flirt With Psychedelia (2017) [FLAC]\20 - (Little) Anthony & The Imperials - My Love Is A Rainbow.wav

Pre-gap length 0:00:02.00

Peak level 97.9 %
Extraction speed 2.2 X
Track quality 100.0 %
Test CRC C872CD30
Copy CRC C872CD30
Copy OK

Track 21

Filename C:\Users\ian\Desktop\VA - Marshmallow Skies 60s Pop Stars Flirt With Psychedelia (2017) [FLAC]\21 - Lesley Gore - Say What You See.wav

Pre-gap length 0:00:02.00

Peak level 97.9 %
Extraction speed 2.3 X
Track quality 100.0 %
Test CRC 365483EE
Copy CRC 365483EE
Copy OK

Track 22

Filename C:\Users\ian\Desktop\VA - Marshmallow Skies 60s Pop Stars Flirt With Psychedelia (2017) [FLAC]\22 - Tommy Sands - Candy Store Prophet.wav

Pre-gap length 0:00:02.00

Peak level 97.9 %
Extraction speed 2.3 X
Track quality 100.0 %
Test CRC 3A742E8C
Copy CRC 3A742E8C
Copy OK

Track 23

Filename C:\Users\ian\Desktop\VA - Marshmallow Skies 60s Pop Stars Flirt With Psychedelia (2017) [FLAC]\23 - Brian Hyland - Come With Me.wav

Pre-gap length 0:00:02.00

Peak level 97.9 %
Extraction speed 2.3 X
Track quality 100.0 %
Test CRC 238A991A
Copy CRC 238A991A
Copy OK

Track 24

Filename C:\Users\ian\Desktop\VA - Marshmallow Skies 60s Pop Stars Flirt With Psychedelia (2017) [FLAC]\24 - Gene Vincent - Born To Be A Rolling Stone.wav

Pre-gap length 0:00:02.00

Peak level 97.9 %
Extraction speed 1.9 X
Track quality 99.9 %
Test CRC 13245A21
Copy CRC 13245A21
Copy OK

Track 25

Filename C:\Users\ian\Desktop\VA - Marshmallow Skies 60s Pop Stars Flirt With Psychedelia (2017) [FLAC]\25 - Tommy Roe - Moontalk.wav

Pre-gap length 0:00:02.00

Peak level 97.9 %
Extraction speed 2.5 X
Track quality 100.0 %
Test CRC A9F67630
Copy CRC A9F67630
Copy OK

Track 26

Filename C:\Users\ian\Desktop\VA - Marshmallow Skies 60s Pop Stars Flirt With Psychedelia (2017) [FLAC]\26 - Chubby Checker - Stoned In The Bathroom.wav

Pre-gap length 0:00:02.00

Peak level 97.9 %
Extraction speed 2.4 X
Track quality 100.0 %
Test CRC B0BE5B58
Copy CRC B0BE5B58
Copy OK

Track 27

Filename C:\Users\ian\Desktop\VA - Marshmallow Skies 60s Pop Stars Flirt With Psychedelia (2017) [FLAC]\27 - The Searchers - Popcorn Double Feature.wav

Pre-gap length 0:00:02.00

Peak level 97.9 %
Extraction speed 2.6 X
Track quality 100.0 %
Test CRC BB9C808E
Copy CRC BB9C808E
Copy OK

Track 28

Filename C:\Users\ian\Desktop\VA - Marshmallow Skies 60s Pop Stars Flirt With Psychedelia (2017) [FLAC]\28 - Roy Orbison - Southbound Jerico Parkway.wav

Pre-gap length 0:00:02.00

Peak level 97.9 %
Extraction speed 2.9 X
Track quality 100.0 %
Test CRC 5A22A78B
Copy CRC 5A22A78B
Copy OK

No errors occurred

End of status report

–– CUETools DB Plugin V2.1.6

[CTDB TOCID: d65enfszK_lRkRkRGF1C1zGorfE-] found
Submit result: d65enfszK_lRkRkRGF1C1zGorfE- has been confirmed
Track | CTDB Status
1 | (4/4) Accurately ripped
2 | (4/4) Accurately ripped
3 | (4/4) Accurately ripped
4 | (4/4) Accurately ripped
5 | (4/4) Accurately ripped
6 | (4/4) Accurately ripped
7 | (4/4) Accurately ripped
8 | (4/4) Accurately ripped
9 | (4/4) Accurately ripped
10 | (4/4) Accurately ripped
11 | (4/4) Accurately ripped
12 | (4/4) Accurately ripped
13 | (4/4) Accurately ripped
14 | (4/4) Accurately ripped
15 | (4/4) Accurately ripped
16 | (4/4) Accurately ripped
17 | (4/4) Accurately ripped
18 | (4/4) Accurately ripped
19 | (4/4) Accurately ripped
20 | (4/4) Accurately ripped
21 | (4/4) Accurately ripped
22 | (4/4) Accurately ripped
23 | (4/4) Accurately ripped
24 | (4/4) Accurately ripped
25 | (4/4) Accurately ripped
26 | (4/4) Accurately ripped
27 | (4/4) Accurately ripped
28 | (4/4) Accurately ripped


==== Log checksum 0E46994EFE8E03131342256F1F59042318D45255BBBFA88D966D6047220D69B8 ====