Tags
Language
Tags

VA - OMG! The Ultimate Christmas Album (2014)

Posted By: popsakov
VA - OMG! The Ultimate Christmas Album (2014)

VA - OMG! The Ultimate Christmas Album (2014)
2CD | EAC Rip | FLAC (Img) + Cue + Log ~ 654 Mb | MP3 CBR320 ~ 266 Mb
Full Scans | 00:40:27 + 00:55:06 | RAR 5% Recovery
Pop, Vocal, Christmas, Classical | Sony Music #88875031302

Oh My Gosh! The Ultimate Christmas Collection includes the hits by Elvis Presley, Roy Orbison, Frank Sinatra, Tony Bennett, Daryl Hall & John Oates, Dolly Parton & Kenny Rogers, Boney M, Christina Aguilera, John Legend, Backstreet Boys, Whitney Houston, Bette Midler, Chris Botti, Jose Carreras, Placido Domingo, Luciano Pavarotti and many more!
VA - OMG! The Ultimate Christmas Album (2014)

Track List CD1:

01. Burl Ives - Jingle Bells [02:14]
02. Gene Autry - Frosty The Snowman [02:55]
03. Elvis Presley - Blue Christmas [02:11]
04. Roy Orbison - Pretty Paper [02:46]
05. Frank Sinatra - Have Yourself A Merry Little Christmas [02:35]
06. Andy Williams - White Christmas [02:32]
07. Harry Belafonte - Mary's Boy Child [04:23]
08. Jerry Vale - Silver Bells [03:23]
09. Tony Bennett - Christmasland [02:25]
10. Darlene Love - Christmas (Baby Please Come Home) [02:48]
11. Brian Wilson - Little Saint Nick [02:12]
12. Johnny Mathis - Have A Holly Jolly Christmas [02:01]
13. Daryl Hall & John Oates - Jingle Bell Rock [02:05]
14. Dolly Parton & Kenny Rogers - A Christmas To Remember [03:43]
15. Boney M - Feliz Navidad [02:21]

Exact Audio Copy V1.0 beta 3 from 29. August 2011

EAC extraction logfile from 12. December 2015, 9:33

Various Artists / OMG! The Ultimate Christmas Album Disc One

Used drive : PIONEER BD-RW BDR-TD03 Adapter: 0 ID: 1

Read mode : Secure
Utilize accurate stream : Yes
Defeat audio cache : Yes
Make use of C2 pointers : No

Read offset correction : 667
Overread into Lead-In and Lead-Out : No
Fill up missing offset samples with silence : Yes
Delete leading and trailing silent blocks : No
Null samples used in CRC calculations : Yes
Used interface : Native Win32 interface for Win NT & 2000

Used output format : User Defined Encoder
Selected bitrate : 768 kBit/s
Quality : High
Add ID3 tag : No
Command line compressor : C:\Program Files (x86)\Exact Audio Copy\FLAC\FLAC.EXE
Additional command line options : -6 -V -T "ARTIST=%artist%" -T "TITLE=%title%" -T "ALBUM=%albumtitle%" -T "DATE=%year%" -T "TRACKNUMBER=%tracknr%" -T "GENRE=%genre%" -T "COMMENT=%comment%" -T "BAND=%albuminterpret%" -T "ALBUMARTIST=%albuminterpret%" -T "COMPOSER=%composer%" %haslyrics%–tag-from-file=LYRICS="%lyricsfile%"%haslyrics% -T "DISCNUMBER=%cdnumber%" -T "TOTALDISCS=%totalcds%" -T "TOTALTRACKS=%numtracks%" %hascover%–picture="%coverfile%"%hascover% %source% -o %dest%


TOC of the extracted CD

Track | Start | Length | Start sector | End sector
––––––––––––––––––––––––––––-
1 | 0:00.00 | 2:13.53 | 0 | 10027
2 | 2:13.53 | 2:54.37 | 10028 | 23114
3 | 5:08.15 | 2:10.27 | 23115 | 32891
4 | 7:18.42 | 2:45.09 | 32892 | 45275
5 | 10:03.51 | 2:34.15 | 45276 | 56840
6 | 12:37.66 | 2:31.69 | 56841 | 68234
7 | 15:09.60 | 4:22.63 | 68235 | 87947
8 | 19:32.48 | 3:22.18 | 87948 | 103115
9 | 22:54.66 | 2:24.38 | 103116 | 113953
10 | 25:19.29 | 2:47.34 | 113954 | 126512
11 | 28:06.63 | 2:11.64 | 126513 | 136401
12 | 30:18.52 | 2:00.31 | 136402 | 145432
13 | 32:19.08 | 2:04.30 | 145433 | 154762
14 | 34:23.38 | 3:42.02 | 154763 | 171414
15 | 38:05.40 | 2:20.65 | 171415 | 181979


Range status and errors

Selected range

Filename C:\Users\Deris\Desktop\…\OMGChris\cd1\Various Artists - OMG! The Ultimate Christmas Album Disc One.wav

Peak level 99.9 %
Extraction speed 4.4 X
Range quality 100.0 %
Test CRC 47E96205
Copy CRC 47E96205
Copy OK

No errors occurred


AccurateRip summary

Track 1 not present in database
Track 2 not present in database
Track 3 not present in database
Track 4 not present in database
Track 5 not present in database
Track 6 not present in database
Track 7 not present in database
Track 8 not present in database
Track 9 not present in database
Track 10 not present in database
Track 11 not present in database
Track 12 not present in database
Track 13 not present in database
Track 14 not present in database
Track 15 not present in database

None of the tracks are present in the AccurateRip database

End of status report

–– CUETools DB Plugin V2.1.3

[CTDB TOCID: XVo2ChK_YsFsbGGCy57qWDRO_iA-] disk not present in database, Submit result: XVo2ChK_YsFsbGGCy57qWDRO_iA- has been uploaded


==== Log checksum 606743325873B95B870F0DC195B44F20706875D943749770D047F9384D607636 ====

VA - OMG! The Ultimate Christmas Album (2014)

Track List CD2:

01. Luther Vandross - This Is Christmas [04:47]
02. Christina Aguilera - Angels We Have Heard On High [04:10]
03. Destiny's Child - 8 Days Of Christmas [03:31]
04. John Legend - Let It Snow [02:02]
05. Backstreet Boys - Christmas Time [04:16]
06. Whitney Houston - One Wish (For Christmas) [04:14]
07. Jessica Simpson - Baby It's Cold Outside [02:49]
08. Carrie Underwood - Do You Hear What I Hear [04:13]
09. Bette Midler - Mele Kalikimaka [02:36]
10. Celine Dion - The Christmas Song (Chestnuts Roasting On An Open Fire) [04:15]
11. Kenny G - Winter Wonderland [03:03]
12. Chris Botti - Santa Claus Is Coming To Town [04:09]
13. Newsong - The Christmas Shoes [04:52]
14. Jackie Evancho - Silent Night [03:32]
15. Jose Carreras, Placido Domingo, Luciano Pavarotti - Ave Maria Dolce Maria [02:44]

Exact Audio Copy V1.0 beta 3 from 29. August 2011

EAC extraction logfile from 12. December 2015, 10:21

Various Artists / OMG! The Ultimate Christmas Album Disc Two

Used drive : PIONEER BD-RW BDR-TD03 Adapter: 0 ID: 1

Read mode : Secure
Utilize accurate stream : Yes
Defeat audio cache : Yes
Make use of C2 pointers : No

Read offset correction : 667
Overread into Lead-In and Lead-Out : No
Fill up missing offset samples with silence : Yes
Delete leading and trailing silent blocks : No
Null samples used in CRC calculations : Yes
Used interface : Native Win32 interface for Win NT & 2000

Used output format : User Defined Encoder
Selected bitrate : 768 kBit/s
Quality : High
Add ID3 tag : No
Command line compressor : C:\Program Files (x86)\Exact Audio Copy\FLAC\FLAC.EXE
Additional command line options : -6 -V -T "ARTIST=%artist%" -T "TITLE=%title%" -T "ALBUM=%albumtitle%" -T "DATE=%year%" -T "TRACKNUMBER=%tracknr%" -T "GENRE=%genre%" -T "COMMENT=%comment%" -T "BAND=%albuminterpret%" -T "ALBUMARTIST=%albuminterpret%" -T "COMPOSER=%composer%" %haslyrics%–tag-from-file=LYRICS="%lyricsfile%"%haslyrics% -T "DISCNUMBER=%cdnumber%" -T "TOTALDISCS=%totalcds%" -T "TOTALTRACKS=%numtracks%" %hascover%–picture="%coverfile%"%hascover% %source% -o %dest%


TOC of the extracted CD

Track | Start | Length | Start sector | End sector
––––––––––––––––––––––––––––-
1 | 0:00.00 | 4:46.29 | 0 | 21478
2 | 4:46.29 | 4:09.60 | 21479 | 40213
3 | 8:56.14 | 3:30.27 | 40214 | 55990
4 | 12:26.41 | 2:01.26 | 55991 | 65091
5 | 14:27.67 | 4:15.27 | 65092 | 84243
6 | 18:43.19 | 4:13.18 | 84244 | 103236
7 | 22:56.37 | 2:48.01 | 103237 | 115837
8 | 25:44.38 | 4:12.29 | 115838 | 134766
9 | 29:56.67 | 2:35.58 | 134767 | 146449
10 | 32:32.50 | 4:14.15 | 146450 | 165514
11 | 36:46.65 | 3:02.17 | 165515 | 179181
12 | 39:49.07 | 4:08.60 | 179182 | 197841
13 | 43:57.67 | 4:52.00 | 197842 | 219741
14 | 48:49.67 | 3:31.67 | 219742 | 235633
15 | 52:21.59 | 2:43.33 | 235634 | 247891


Range status and errors

Selected range

Filename C:\Users\Deris\Desktop\…\OMGChris\cd2\Various Artists - OMG! The Ultimate Christmas Album Disc Two.wav

Peak level 99.9 %
Extraction speed 4.7 X
Range quality 100.0 %
Test CRC 81287382
Copy CRC 81287382
Copy OK

No errors occurred


AccurateRip summary

Track 1 not present in database
Track 2 not present in database
Track 3 not present in database
Track 4 not present in database
Track 5 not present in database
Track 6 not present in database
Track 7 not present in database
Track 8 not present in database
Track 9 not present in database
Track 10 not present in database
Track 11 not present in database
Track 12 not present in database
Track 13 not present in database
Track 14 not present in database
Track 15 not present in database

None of the tracks are present in the AccurateRip database

End of status report

–– CUETools DB Plugin V2.1.3

[CTDB TOCID: r48Jftv2AU_858cf6AHK0bTcLEk-] disk not present in database, Submit result: database access error: The request was aborted: The request was canceled.


==== Log checksum A71B46522AB60E336541EEEB55636948BFC63DE9233225DB418BB05380748E47 ====

VA - OMG! The Ultimate Christmas Album (2014)


All thanks go to Boris1

>>> My Blog <<<

DOWNLOAD: