Subcategories
Tags
Language
Tags

VA - Rude Boy Ska (2016)

Posted By: popsakov
VA - Rude Boy Ska (2016)

VA - Rude Boy Ska (2016)
2CD | EAC Rip | FLAC (Img) + Cue + Log ~ 509 Mb | MP3 CBR320 ~ 279 Mb
Full Scans ~ 25 Mb | 01:00:04 + 00:55:31 | RAR 5% Recovery
Ska, Reggae | Sanctuary Records / Union Square Music / Metro Select #METRSL120

Here comes Rudie outlaw hero of Jamaican legend. And this is his album: rough, tough and full of the stuff that has rocked generations. They're all here: Monkey Man, Liquidator, Django, Long Shot Kick De Bucket… reggae's original boss sound, plus a selection of super-rare gems that will have you skanking and doing the rock steady for years. This is Rude Boy Ska! Includes detailed sleevenotes in an 8-page booklet.

***************

VA - Rude Boy Ska (2016)

Track List CD1:

01. Harry J Allstars - Liquidator [03:13]
02. The Bleechers - Come Into My Parlour [03:07]
03. The Maytals - Monkey Man [03:45]
04. The Skatalites - Lucky Seven [02:52]
05. Lord Tanamo - I'm In The Mood For Love [02:32]
06. The Tennors - Ride Your Donkey [02:01]
07. Alton Ellis & The Flames - Cry Tough [02:16]
08. Bob Andy & Marcia Griffiths - Young Gifted And Black [03:07]
09. Tony Tribe - Red Red Wine [02:56]
10. John Holt - Sister Big Stuff [02:28]
11. The Pioneers - Long Shot Kick De Bucket [02:49]
12. Prince Of Darkness - Burial of Long Shot [02:50]
13. The Upsetters - Clint Eastwood [03:46]
14. Desmond Dekker - Ah It Mek [02:23]
15. The Versatiles - Push It In [02:16]
16. Clancy Eccles - Fatty Fatty [05:30]
17. The Termites - Shake It Up [02:51]
18. King Stitt & Andy Capp - Herbsman Shuffle [02:40]
19. The Slickers - Johnny Too Bad [03:10]
20. Val Bennett - The Russians Are Coming (Take Five) [03:40]

Exact Audio Copy V0.99 prebeta 5 from 4. May 2009

EAC extraction logfile from 17. July 2016, 15:58

Various / Rude Boy Ska (cd1of2)

Used drive : ATAPI iHAS122 C Adapter: 1 ID: 1

Read mode : Secure
Utilize accurate stream : Yes
Defeat audio cache : Yes
Make use of C2 pointers : No

Read offset correction : 6
Overread into Lead-In and Lead-Out : No
Fill up missing offset samples with silence : Yes
Delete leading and trailing silent blocks : No
Null samples used in CRC calculations : Yes
Used interface : Native Win32 interface for Win NT & 2000

Used output format : Internal WAV Routines
Sample format : 44.100 Hz; 16 Bit; Stereo


TOC of the extracted CD

Track | Start | Length | Start sector | End sector
––––––––––––––––––––––––––––-
1 | 0:00.00 | 3:12.02 | 0 | 14401
2 | 3:12.02 | 3:06.62 | 14402 | 28413
3 | 6:18.64 | 3:44.19 | 28414 | 45232
4 | 10:03.08 | 2:51.61 | 45233 | 58118
5 | 12:54.69 | 2:31.65 | 58119 | 69508
6 | 15:26.59 | 2:00.59 | 69509 | 78567
7 | 17:27.43 | 2:15.69 | 78568 | 88761
8 | 19:43.37 | 3:06.73 | 88762 | 102784
9 | 22:50.35 | 2:55.30 | 102785 | 115939
10 | 25:45.65 | 2:27.53 | 115940 | 127017
11 | 28:13.43 | 2:48.43 | 127018 | 139660
12 | 31:02.11 | 2:49.23 | 139661 | 152358
13 | 33:51.34 | 3:45.53 | 152359 | 169286
14 | 37:37.12 | 2:22.38 | 169287 | 179974
15 | 39:59.50 | 2:15.02 | 179975 | 190101
16 | 42:14.52 | 5:29.44 | 190102 | 214820
17 | 47:44.21 | 2:50.18 | 214821 | 227588
18 | 50:34.39 | 2:39.63 | 227589 | 239576
19 | 53:14.27 | 3:09.32 | 239577 | 253783
20 | 56:23.59 | 3:39.50 | 253784 | 270258


Range status and errors

Selected range

Filename C:\Users\Arturs\Desktop\Various - Rude Boy Ska (cd1of2).wav

Peak level 97.7 %
Range quality 100.0 %
Test CRC 4E4FFF25
Copy CRC 4E4FFF25
Copy OK

No errors occurred


AccurateRip summary

Track 1 cannot be verified as accurate (confidence 2) [F6149757], AccurateRip returned [C6A38F3C]
Track 2 cannot be verified as accurate (confidence 2) [DD313E7A], AccurateRip returned [E51F7793]
Track 3 cannot be verified as accurate (confidence 2) [9FCD84FA], AccurateRip returned [4A13547C]
Track 4 cannot be verified as accurate (confidence 2) [AD65B4CF], AccurateRip returned [29DDCE3C]
Track 5 cannot be verified as accurate (confidence 2) [8598A0D4], AccurateRip returned [85686656]
Track 6 cannot be verified as accurate (confidence 2) [F91C8C44], AccurateRip returned [E49B278A]
Track 7 cannot be verified as accurate (confidence 2) [8CDDB83C], AccurateRip returned [E3FECD61]
Track 8 cannot be verified as accurate (confidence 2) [8F265F1B], AccurateRip returned [C55BFD4E]
Track 9 cannot be verified as accurate (confidence 2) [26A40DAA], AccurateRip returned [18EFE28C]
Track 10 cannot be verified as accurate (confidence 2) [29F061C7], AccurateRip returned [F444C48F]
Track 11 cannot be verified as accurate (confidence 1) [02B98DBB], AccurateRip returned [9A0832F6]
Track 12 cannot be verified as accurate (confidence 2) [2FEA37C1], AccurateRip returned [87D2273A]
Track 13 cannot be verified as accurate (confidence 2) [AEA9615A], AccurateRip returned [E98A9B8A]
Track 14 cannot be verified as accurate (confidence 2) [A9012D63], AccurateRip returned [87EE10AC]
Track 15 cannot be verified as accurate (confidence 2) [D25F333D], AccurateRip returned [0FEF8C68]
Track 16 cannot be verified as accurate (confidence 2) [E0F9DAF9], AccurateRip returned [4F3BE00F]
Track 17 cannot be verified as accurate (confidence 2) [D44A8871], AccurateRip returned [011F5904]
Track 18 cannot be verified as accurate (confidence 2) [812E5A4A], AccurateRip returned [E393DEA1]
Track 19 cannot be verified as accurate (confidence 2) [4322F88C], AccurateRip returned [B7CFB103]
Track 20 cannot be verified as accurate (confidence 2) [C4BBA566], AccurateRip returned [856B6FA9]

No tracks could be verified as accurate
You may have a different pressing from the one(s) in the database

End of status report

VA - Rude Boy Ska (2016)

Track List CD2:

01. Desmond Dekker & The Aces - Rude Boy Train [02:19]
02. The Upsetters - Return of Django [02:31]
03. Dave Barker & Ansel Collins - Monkey Spanner [02:31]
04. Emperor Rosko - Al Capone [03:34]
05. Derrick Morgan - Fat Man [03:12]
06. Max Romeo - Wet Dream [02:48]
07. Nora Dean - Barbwire [02:34]
08. Brother Dan's All Stars - Eastern Organ [02:54]
09. Pat Kelly - If It Don't Work Out (Then You Can Tell Me Goodbye) [02:50]
10. Desmond Dekker & The Aces - Intensified [02:44]
11. Hemsley Morris - Little Things [02:43]
12. Nicky Thomas - Love Of The Common People [02:19]
13. Hopeton Lewis - Boom Shacka Lacka [02:45]
14. The Melodians - Sweet Sensation [03:53]
15. The Techniques - Run Come Celebrate (Festival '68) [02:16]
16. Joe White - Rudies All Around [01:57]
17. Derrick Morgan - Tougher Than Tough (Rudie In Court) [02:23]
18. Freddie Notes & The Rudies - Rudexous [02:46]
19. Winston Groovy - Please Don't Make Me Cry [03:27]
20. Keith & Tex - Stop That Train [03:15]

Exact Audio Copy V0.99 prebeta 5 from 4. May 2009

EAC extraction logfile from 17. July 2016, 13:50

Various / Rude Boy Ska (CD2of2)

Used drive : ATAPI iHAS122 C Adapter: 1 ID: 1

Read mode : Secure
Utilize accurate stream : Yes
Defeat audio cache : Yes
Make use of C2 pointers : No

Read offset correction : 6
Overread into Lead-In and Lead-Out : No
Fill up missing offset samples with silence : Yes
Delete leading and trailing silent blocks : No
Null samples used in CRC calculations : Yes
Used interface : Native Win32 interface for Win NT & 2000

Used output format : Internal WAV Routines
Sample format : 44.100 Hz; 16 Bit; Stereo


TOC of the extracted CD

Track | Start | Length | Start sector | End sector
––––––––––––––––––––––––––––-
1 | 0:00.00 | 2:18.05 | 0 | 10354
2 | 2:18.05 | 2:30.23 | 10355 | 21627
3 | 4:48.28 | 2:30.22 | 21628 | 32899
4 | 7:18.50 | 3:33.41 | 32900 | 48915
5 | 10:52.16 | 3:11.67 | 48916 | 63307
6 | 14:04.08 | 2:47.03 | 63308 | 75835
7 | 16:51.11 | 2:33.03 | 75836 | 87313
8 | 19:24.14 | 2:53.17 | 87314 | 100305
9 | 22:17.31 | 2:49.08 | 100306 | 112988
10 | 25:06.39 | 2:43.68 | 112989 | 125281
11 | 27:50.32 | 2:42.58 | 125282 | 137489
12 | 30:33.15 | 2:18.38 | 137490 | 147877
13 | 32:51.53 | 2:44.31 | 147878 | 160208
14 | 35:36.09 | 3:52.31 | 160209 | 177639
15 | 39:28.40 | 2:15.35 | 177640 | 187799
16 | 41:44.00 | 1:56.24 | 187800 | 196523
17 | 43:40.24 | 2:22.58 | 196524 | 207231
18 | 46:03.07 | 2:45.70 | 207232 | 219676
19 | 48:49.02 | 3:26.44 | 219677 | 235170
20 | 52:15.46 | 3:14.42 | 235171 | 249762


Range status and errors

Selected range

Filename C:\Users\Arturs\Desktop\Various - Rude Boy Ska (CD2of2).wav

Peak level 97.7 %
Range quality 100.0 %
Test CRC 5C070DAC
Copy CRC 5C070DAC
Copy OK

No errors occurred


AccurateRip summary

Track 1 cannot be verified as accurate (confidence 1) [1731A701], AccurateRip returned [58549943]
Track 2 cannot be verified as accurate (confidence 1) [B5D7B382], AccurateRip returned [A3AA864B]
Track 3 cannot be verified as accurate (confidence 1) [E403210E], AccurateRip returned [B26049FB]
Track 4 cannot be verified as accurate (confidence 1) [5AFB0560], AccurateRip returned [66567A59]
Track 5 cannot be verified as accurate (confidence 1) [CE96E703], AccurateRip returned [EE28257C]
Track 6 cannot be verified as accurate (confidence 1) [19A3C48D], AccurateRip returned [8D17C0D9]
Track 7 cannot be verified as accurate (confidence 1) [B90DD963], AccurateRip returned [9C976E54]
Track 8 cannot be verified as accurate (confidence 1) [F953EFAE], AccurateRip returned [D0B722FF]
Track 9 cannot be verified as accurate (confidence 1) [56FB94A8], AccurateRip returned [1C9DE612]
Track 10 cannot be verified as accurate (confidence 1) [3EC0FB05], AccurateRip returned [1ACDC340]
Track 11 cannot be verified as accurate (confidence 1) [C55EFC82], AccurateRip returned [A726ADCE]
Track 12 cannot be verified as accurate (confidence 1) [B4E6BCE5], AccurateRip returned [37C9221E]
Track 13 cannot be verified as accurate (confidence 1) [BD45B2CD], AccurateRip returned [1DD50BC0]
Track 14 cannot be verified as accurate (confidence 1) [3141C8DB], AccurateRip returned [34D707B2]
Track 15 cannot be verified as accurate (confidence 1) [A5703589], AccurateRip returned [2204AB75]
Track 16 cannot be verified as accurate (confidence 2) [54C8878D], AccurateRip returned [B7990087]
Track 17 cannot be verified as accurate (confidence 2) [B483D5D1], AccurateRip returned [FD4C503E]
Track 18 cannot be verified as accurate (confidence 2) [4A800CAA], AccurateRip returned [97E55AD7]
Track 19 cannot be verified as accurate (confidence 2) [F1C10ECF], AccurateRip returned [81645E9F]
Track 20 cannot be verified as accurate (confidence 2) [2B54C90E], AccurateRip returned [04148BF3]

No tracks could be verified as accurate
You may have a different pressing from the one(s) in the database

End of status report

VA - Rude Boy Ska (2016)


All thanks go to London

>>> My Blog <<<

DOWNLOAD: