Subcategories

VA - All This And World War II (2 CD) 1976

Posted By: socola78
VA - All This And World War II (2 CD) 1976

VA - All This And World War II (2 CD) 1976
Rock | EAC Rip | FLAC + CUE + LOG + Cover | 1H 36 Min | 2 CD | 615.3 Mb
Label: Riva (UK), 20th Century (U.S.) | Released: November 5, 1976

All This and World War II is a 1976 musical documentary that juxtaposes Beatles songs, performed by a number of musicians, with World War II newsreel footage and 20th Century Fox films from the 1940s. It lasted a week in movie theaters and was quickly sent into storage, although it did play a midnight show at Landmark's Nuart Theatre in Los Angeles in June 2007.

TrackList
CD1

01. Ambrosia - Magical Mystery Tour (3:56)
02. Elton John - Lucy In The Sky With Diamonds (6:17)
03. The Bee Gees - Golden Slumbers / Carry That Weight (3:12)
04. Leo Sayer - I Am The Walrus (3:50)
05. Bryan Ferry - She's Leaving Home (3:08)
06. Roy Wood - Lovely Rita (1:16)
07. Keith Moon - When I'm Sixty-Four (2:40)
08. Rod Stewart - Get Back (4:26)
09. Leo Sayer - Let It Be (3:47)
10. David Essex - Yesterday (2:45)
11. Jeff Lynne - With A Little Help From My Friends / Nowhere Man (6:57)
12. Lynsey DePaul - Because (3:27)
13. The Bee Gees - She Came In Through The Bathroom Window (1:55)
14. Richard Cocciante - Michelle (4:03)

CD2
01. The Four Seasons - We Can Work It Out (2:42)
02. Helen Reddy - The Fool On The Hill (3:38)
03. Frankie Laine - Maxwell's Silver Hammer (3:31)
04. The Brothers Johnson - Hey Jude (4:59)
05. Roy Wood - Polythene Pam (1:34)
06. The Bee Gees - The Sun King (2:08)
07. Status Quo - Getting Better (2:24)
08. Leo Sayer - The Long And Winding Road (4:48)
09. Henry Gross - Help! (3:09)
10. Peter Gabriel - Strawberry Fields Forever (2:33)
11. Frankie Valli - A Day In The Life (4:06)
12. Tina Turner - Come Together (4:05)
13. Wil Malone & Lou Reizner - You Never Give Me Your Money (3:05)
14. The London Symphony Orchestra - The End (2:28)

Exact Audio Copy V0.99 prebeta 5 from 4. May 2009

EAC extraction logfile from 12. November 2009, 17:48

Various Artists / All This And World War II [Disc 1]

Used drive : ATAPI DVD A DH20A4P Adapter: 1 ID: 1

Read mode : Secure
Utilize accurate stream : Yes
Defeat audio cache : Yes
Make use of C2 pointers : No

Read offset correction : 6
Overread into Lead-In and Lead-Out : No
Fill up missing offset samples with silence : Yes
Delete leading and trailing silent blocks : No
Null samples used in CRC calculations : Yes
Used interface : Native Win32 interface for Win NT & 2000

Used output format : Internal WAV Routines
Sample format : 44.100 Hz; 16 Bit; Stereo


TOC of the extracted CD

Track | Start | Length | Start sector | End sector
––––––––––––––––––––––––––––-
1 | 0:00.00 | 3:56.00 | 0 | 17699
2 | 3:56.00 | 6:16.56 | 17700 | 45955
3 | 10:12.56 | 3:12.12 | 45956 | 60367
4 | 13:24.68 | 3:49.62 | 60368 | 77604
5 | 17:14.55 | 3:08.12 | 77605 | 91716
6 | 20:22.67 | 1:15.65 | 91717 | 97406
7 | 21:38.57 | 2:39.47 | 97407 | 109378
8 | 24:18.29 | 4:25.63 | 109379 | 129316
9 | 28:44.17 | 3:46.63 | 129317 | 146329
10 | 32:31.05 | 2:44.73 | 146330 | 158702
11 | 35:16.03 | 6:57.27 | 158703 | 190004
12 | 42:13.30 | 3:26.50 | 190005 | 205504
13 | 45:40.05 | 1:55.13 | 205505 | 214142
14 | 47:35.18 | 4:03.10 | 214143 | 232377


Range status and errors

Selected range

Filename C:\EAC\VA - All This And World War II [Disc 1].wav

Peak level 99.0 %
Range quality 100.0 %
Copy CRC 0680C0B4
Copy OK

No errors occurred


AccurateRip summary

Track 1 accurately ripped (confidence 6) [C36EA05A]
Track 2 accurately ripped (confidence 6) [B74F3F83]
Track 3 accurately ripped (confidence 6) [A6539C5B]
Track 4 accurately ripped (confidence 6) [45F1B8B6]
Track 5 accurately ripped (confidence 6) [34DF0542]
Track 6 accurately ripped (confidence 7) [620F1A31]
Track 7 accurately ripped (confidence 6) [8873BBD3]
Track 8 accurately ripped (confidence 6) [D1424C35]
Track 9 accurately ripped (confidence 6) [A48090F0]
Track 10 accurately ripped (confidence 6) [F9980201]
Track 11 accurately ripped (confidence 7) [CE660D42]
Track 12 accurately ripped (confidence 6) [530B9C8E]
Track 13 accurately ripped (confidence 6) [AB5B03AF]
Track 14 accurately ripped (confidence 6) [4350D183]

All tracks accurately ripped

End of status report

Exact Audio Copy V0.99 prebeta 5 from 4. May 2009

EAC extraction logfile from 12. November 2009, 17:20

Various Artists / All This And World War II [Disc 2]

Used drive : ATAPI DVD A DH20A4P Adapter: 1 ID: 1

Read mode : Secure
Utilize accurate stream : Yes
Defeat audio cache : Yes
Make use of C2 pointers : No

Read offset correction : 6
Overread into Lead-In and Lead-Out : No
Fill up missing offset samples with silence : Yes
Delete leading and trailing silent blocks : No
Null samples used in CRC calculations : Yes
Used interface : Native Win32 interface for Win NT & 2000

Used output format : Internal WAV Routines
Sample format : 44.100 Hz; 16 Bit; Stereo


TOC of the extracted CD

Track | Start | Length | Start sector | End sector
––––––––––––––––––––––––––––-
1 | 0:00.00 | 2:41.53 | 0 | 12127
2 | 2:41.53 | 3:38.24 | 12128 | 28501
3 | 6:20.02 | 3:30.38 | 28502 | 44289
4 | 9:50.40 | 4:59.10 | 44290 | 66724
5 | 14:49.50 | 1:33.63 | 66725 | 73762
6 | 16:23.38 | 2:07.51 | 73763 | 83338
7 | 18:31.14 | 2:23.60 | 83339 | 94123
8 | 20:54.74 | 4:47.50 | 94124 | 115698
9 | 25:42.49 | 3:09.03 | 115699 | 129876
10 | 28:51.52 | 2:33.36 | 129877 | 141387
11 | 31:25.13 | 4:06.00 | 141388 | 159837
12 | 35:31.13 | 4:05.25 | 159838 | 178237
13 | 39:36.38 | 3:04.54 | 178238 | 192091
14 | 42:41.17 | 2:27.51 | 192092 | 203167


Range status and errors

Selected range

Filename C:\EAC\VA - All This And World War II [Disc 2].wav

Peak level 96.7 %
Range quality 100.0 %
Copy CRC A00D703B
Copy OK

No errors occurred


AccurateRip summary

Track 1 accurately ripped (confidence 5) [BF5563EF]
Track 2 accurately ripped (confidence 5) [A927B9D6]
Track 3 accurately ripped (confidence 5) [365D9F67]
Track 4 accurately ripped (confidence 5) [B7B66697]
Track 5 accurately ripped (confidence 6) [DFD3DE15]
Track 6 accurately ripped (confidence 5) [CDFEBEEB]
Track 7 accurately ripped (confidence 5) [D3103669]
Track 8 accurately ripped (confidence 5) [8D3CC1EA]
Track 9 accurately ripped (confidence 5) [01A1FA82]
Track 10 accurately ripped (confidence 5) [E7232365]
Track 11 accurately ripped (confidence 5) [6EABE37A]
Track 12 accurately ripped (confidence 5) [83DC00BC]
Track 13 accurately ripped (confidence 5) [4C3C59D3]
Track 14 accurately ripped (confidence 6) [811CED55]

All tracks accurately ripped

End of status report