Subcategories

VA - Humanary Stew: A Tribute To Alice Cooper (1999) (Japanese, VACM-1138)

Posted By: Necromandus
VA - Humanary Stew: A Tribute To Alice Cooper (1999) (Japanese, VACM-1138)

VA - Humanary Stew: A Tribute To Alice Cooper (1999)
EAC Rip | FLAC, IMG+CUE+LOG | 380 MB | MP3 CBR 320 Kbps | 140 MB | Complete HQ Scans | PNG -> 70 MB
Metal | Label: Video Art Music, Japan #VACM-1138 | RAR 3% Rec. | FilePost
… Dave Mustaine, Ronnie James Dio, Bruce Dickinson, Zakk Wylde and other …

On this album, compiled by former Meat Loaf sideman and one-time Cooper touring guitarist Bob Kulick, members of metal's biggest bands pay tribute to the artist formerly known as Vincent Furnier. New life is breathed into Cooper's classic tunes as hardheads such as Alice in Chains ' Mike Inez, the Who's Roger Daltry, Iron Maiden's Bruce Dickinson, and Slash rework (and add their own distinctive licks to) "No More Mr. Nice Guy," "Billion Dollar Babies," and the anthem for graduating seniors everywhere, "Schools Out." The most unexpected contribution, however, comes from former Deep Purple bassist Glen Hughes, who after spending most of the '90s off the radar screen, wrings out a wickedly dramatic version of "Only Women Bleed," Cooper's dark paean to feminism.
A new twist on the well-worn tribute album concept, Humanary Stew?: A Tribute to Alice Cooper assembles a series of all-star, one-off "supergroups" – a different lineup on each track – for run-throughs of staples from the Cooper catalog. Big names from superstar acts mingle with journeyman players, most of whom will nevertheless be familiar to ardent hard rock fans. Like any tribute album, the results are uneven, but the novel approach will definitely hold interested listeners' attention. At times, the producers play it safe when teaming up the various musicians; bands contributing more than one member to a particular song include Motley Crue (Vince Neil and Mick Mars), Iron Maiden (Bruce Dickinson and Adrian Smith), Def Leppard (Joe Elliott and Phil Collen) and Megadeth (Dave Mustaine and Marty Friedman). The songs holding the most intrigue, though, are those with the farthest-ranging matchups – for example, the Who's Roger Daltrey belts out "No More Mr. Nice Guy" with guitar backup from Slash, while former Guns N' Roses rhythm section Duff McKagan and Matt Sorum supports the guitar team of Steve Jones (the Sex Pistols) and Billy Duffy (the Cult) on "Elected." Other featured musicians include Ronnie James Dio ("Welcome to My Nightmare"), George Lynch ("Billion Dollar Babies"), Dee Snider ("Go to Hell") and Don Dokken ("Eighteen").

~ by Steve Huey, allmusic.com
Tracklist :

1. Under My Wheels (3:20)
Vocal: Joe Elliott
Lead & Rhythm Guitar: Phil Collen
Rhythm Guitar: Bob Kulick
Bass: Chuck Wright
Drums: Pat Torpey
Saxophone: Clarence Clemons

2. School's Out (3:59)
Vocal: Dave Mustaine
Lead Guitar: Marty Friedman
Rhythm Guitar: Bob Kulick
Bass: Bob Daisley
Drums: Eric Singer
Keyboards: Paul Taylor
Background Vocals: David Glen Eisley, Cristy Baeuerle, Stella Stevens & Tom Fletcher

3. No More Mr. Nice Guy (3:40)
Vocal: Roger Daltrey
Lead & Rhythm Guitar: Slash
Rhythm Guitar: Bob Kulick
Bass: Mike Inez
Drums: Carmine Appice
Background Vocals: David Glen Eisley

4. Welcome To My Nightmare (5:11)
Vocal: Ronnie James Dio
Lead Guitar: Steve Lukather
Acoustic & Rhythm Guitar: Bob Kulick
Bass: Phil Soussan
Drums: Randy Castillo
Keyboards: Paul Taylor

5. Cold Ethyl (4:03)
Vocal: Vince Neil
Lead Guitar: Mick Mars
Rhythm Guitar: Bob Kulick
Bass: Billy Sheehan
Drums: Simon Phillips

6. Black Widow (4:47)
Vocal & Narration: Bruce Dickinson
Lead Guitar: Adrian Smith
Rhythm Guitar: Bob Kulick
Bass: Tony Franklin
Drums: Tommy Aldridge
Background Vocals: David Glen Eisley

7. Go To Hell (4:35)
Vocal: Dee Snider
Lead Guitar: Zakk Wylde
Rhythm Guitar: Bob Kulick
Bass: Rudy Sarzo
Drums: Frankie Banali
Keyboards: Paul Taylor

8. Billion Dollar Babies (3:57)
Vocal: Phil Lewis
Lead Guitar: George Lynch
Rhythm Guitar: Bob Kulick
Bass: Stu Hamm
Drums: Vinnie Colaiuta
Keyboards: Derek Sherinian
Background Vocals: David Glen Eisley

9. Only Women Bleed (5:43)
Vocal: Glenn Hughes
Lead Guitar: Paul Gilbert
Rhythm Guitar: Bob Kulick
Bass: Michael Porcaro
Drums: Stephen Ferrone
Keyboards: Paul Taylor
Background Vocals: David Glen Eisley

10. Eighteen (5:09)
Vocal: Don Dokken
Lead Guitar: John Norum
Rhythm Guitar: Bob Kulick
Bass: Tim Bogert
Drums: Gregg Bissonette
Background Vocals: David Glen Eisley

11. Elected (3:59)
Vocal: Steve Jones & Duff McKagen
Lead Guitar & Rhythm Guitar: Steve Jones
Rhythm Guitar: Bob Kulick
Bass: Duff McKagen
Drums: Matt Sorum

Exact Audio Copy V1.0 beta 3 from 29. August 2011

EAC extraction logfile from 27. January 2013, 17:35

Alice Cooper / Humanary Stew - A Tribute to Alice Cooper (VACM-1138, Japan)

Used drive : PLEXTOR DVDR PX-612U Adapter: 1 ID: 0

Read mode : Secure
Utilize accurate stream : Yes
Defeat audio cache : Yes
Make use of C2 pointers : No

Read offset correction : 6
Overread into Lead-In and Lead-Out : No
Fill up missing offset samples with silence : Yes
Delete leading and trailing silent blocks : No
Null samples used in CRC calculations : Yes
Used interface : Installed external ASPI interface

Used output format : User Defined Encoder
Selected bitrate : 1024 kBit/s
Quality : High
Add ID3 tag : No
Command line compressor : C:\Program Files (x86)\Exact Audio Copy 1.0b3\Flac\flac.exe
Additional command line options : -V -8 -T "Date=%year%" -T "Genre=%genre%" %source%


TOC of the extracted CD

Track | Start | Length | Start sector | End sector
––––––––––––––––––––––––––––-
1 | 0:00.00 | 3:20.12 | 0 | 15011
2 | 3:20.12 | 3:59.03 | 15012 | 32939
3 | 7:19.15 | 3:39.40 | 32940 | 49404
4 | 10:58.55 | 5:11.00 | 49405 | 72729
5 | 16:09.55 | 4:02.67 | 72730 | 90946
6 | 20:12.47 | 4:47.33 | 90947 | 112504
7 | 25:00.05 | 4:35.17 | 112505 | 133146
8 | 29:35.22 | 3:57.35 | 133147 | 150956
9 | 33:32.57 | 5:43.20 | 150957 | 176701
10 | 39:16.02 | 5:09.35 | 176702 | 199911
11 | 44:25.37 | 3:58.70 | 199912 | 217831


Range status and errors

Selected range

Filename D:\Ripped By liveevil\Alice Cooper - Humanary Stew - A Tribute to Alice Cooper (VACM-1138, Japan).wav

Peak level 99.8 %
Extraction speed 4.3 X
Range quality 100.0 %
Test CRC 1E15096B
Copy CRC 1E15096B
Copy OK

No errors occurred


AccurateRip summary

Track 1 accurately ripped (confidence 1) [EE7811F2] (AR v1)
Track 2 accurately ripped (confidence 1) [9FB0F812] (AR v1)
Track 3 accurately ripped (confidence 1) [E3D51989] (AR v1)
Track 4 accurately ripped (confidence 1) [29F02225] (AR v1)
Track 5 accurately ripped (confidence 1) [88E43B89] (AR v1)
Track 6 accurately ripped (confidence 1) [E9BB81F5] (AR v1)
Track 7 accurately ripped (confidence 1) [1F4307A6] (AR v1)
Track 8 accurately ripped (confidence 1) [F5480BA0] (AR v1)
Track 9 accurately ripped (confidence 1) [8EC8A4C5] (AR v1)
Track 10 accurately ripped (confidence 1) [84979ABB] (AR v1)
Track 11 accurately ripped (confidence 1) [289DAA85] (AR v1)

All tracks accurately ripped

End of status report

==== Log checksum 507D291E51C8318FE1A8A60F9A8AB22A2D1D94E44EE1566F0EF3A8A8F56EE2D9 ====
Lossless (FLAC)*
http://filepost.com/files/c434df8m/VA99ATTACLOS.rar

All Covers.png
http://filepost.com/files/a34585ee/VA99ATTACCOV.rar

Lossy HQ (320 Kbps CBR)
http://filepost.com/files/9m9b23eb/VA99ATTACMP3.rar

* Original CD -> EAC image, embedded cuesheet & more, foobar2000 ready, etc.
Huge thanks to my friend Sanych aka liveevil!