Subcategories

VA - A Celebration Of New Orleans Music To Benefit MusiCares Hurrincane Relief (2005)

Posted By: Pisulik
VA - A Celebration Of New Orleans Music To Benefit MusiCares Hurrincane Relief (2005)

VA - A Celebration Of New Orleans Music To Benefit MusiCares Hurrincane Relief (2005)
EAC Rip | FLAC (Tracks) +cue, log, artworks - 456 MB | MP3 CBR 320 kbps - 170 MB | 01:14:00
Jazz, New Orleans Jazz, Blues | Label: Rounder Records | Release Year: 2005

Hurricane Katrina struck a direct hit to the soul of American music. It is the wish of everyone at Rounder Records that the proceeds from this sampler will help to restore the lives and livelihoods of the Gulf Coast musicians who are among our greatest cultural treasures," states Rounder Vice President of A&R Scott Billington. Neil Portnow, President of The Recording Academy and MusiCares, states, "It is inspiring and gratifying to witness the generosity of spirit, support and resources that the music community has poured out in response to this tragedy. We are immensely proud to be the music industry's 'charity of choice' during this profound time and will continue to work very hard to keep that support.

Featuring liner notes by Branford Marsalis, the album is a joyfully unruly collection celebrating America's greatest musical city, moving from second-line brass band music and R&B to modern jazz, Mardi Gras Indian music and gospel, spanning 65 years of recording. There's a common thread that connects all of these sounds the ebullient, funky musical attitude that lets you know this music is from no other place on the planet than New Orleans. Here is the soul and spirit of a city that will never die.

TRACKLIST

01. Dirty Dozen Brass Band - Mardi Gras in New Orleans
02. Davell Crawford - Something Уou Got
03. Harry Connick. Jr. with Branford Marsalis - Good Tо Be Home
04. Irma Thomas - Second Line Medley: I Done Got Over/lko Iko/Hey Pocky Way
05. Al Johnson - Carnival Time
06. BO DOLLIS AND THE WlLD MAGNOLIAS - Meet de Boys on de Battlefront
07. Eddie Bo - Check Mr. Popeye
08. ReBirth Brass Band - Do Whatcha Wanna. Pt 3
09. Jelly Roll Morton - I'm Alabama Bound
10. James Booker - Lawdy Miss Clawdy
11. Theryl de'Clouet with Galactic J - Get Lifted
12. New Orleans Nightcrawlers - Keep On Gwine
13. Branford Marsalis Quartet - B's Paris Blues
14. Professor Longhair - Cuttin Out
15. Walter Wolfman Washington and the Roadmasters - Funkyard
16. Johnny Adams and Aaron Neville - Never Alone

Exact Audio Copy V0.99 prebeta 4 from 23. January 2008

EAC extraction logfile from 7. April 2010, 18:51

Various Artists / A Celebration Of New Orleans Music To Benefit Musicares Hurrincane Relief 2005

Used drive : HL-DT-STDVD-RAM GH22NP20 Adapter: 0 ID: 0

Read mode : Secure
Utilize accurate stream : Yes
Defeat audio cache : Yes
Make use of C2 pointers : No

Read offset correction : 102
Overread into Lead-In and Lead-Out : No
Fill up missing offset samples with silence : Yes
Delete leading and trailing silent blocks : No
Null samples used in CRC calculations : Yes
Used interface : Installed external ASPI interface
Gap handling : Appended to previous track

Used output format : User Defined Encoder
Selected bitrate : 320 kBit/s
Quality : High
Add ID3 tag : No
Command line compressor : C:\Program Files\Exact Audio Copy\Flac\flac.exe
Additional command line options : -V -8 -T "artist=%a" -T "title=%t" -T "album=%g" -T "date=%y" -T "tracknumber=%n" -T "genre=%m" %s


TOC of the extracted CD

Track | Start | Length | Start sector | End sector
––––––––––––––––––––––––––––-
1 | 0:00.00 | 5:26.21 | 0 | 24470
2 | 5:26.21 | 3:44.09 | 24471 | 41279
3 | 9:10.30 | 6:25.40 | 41280 | 70194
4 | 15:35.70 | 10:08.57 | 70195 | 115851
5 | 25:44.52 | 2:42.27 | 115852 | 128028
6 | 28:27.04 | 5:35.10 | 128029 | 153163
7 | 34:02.14 | 2:17.18 | 153164 | 163456
8 | 36:19.32 | 4:32.46 | 163457 | 183902
9 | 40:52.03 | 4:06.16 | 183903 | 202368
10 | 44:58.19 | 3:32.62 | 202369 | 218330
11 | 48:31.06 | 3:09.57 | 218331 | 232562
12 | 51:40.63 | 5:14.00 | 232563 | 256112
13 | 56:54.63 | 4:29.54 | 256113 | 276341
14 | 61:24.42 | 2:39.60 | 276342 | 288326
15 | 64:04.27 | 5:01.35 | 288327 | 310936
16 | 69:05.62 | 4:54.55 | 310937 | 333041


Track 1

Filename D:\music\Musicgate's rips\VA - A Celebration Of New Orleans Music To Benefit MusiCares Hurrincane Relief (2005)\01 - Dirty Dozen Brass Band - Mardi Gras In New Orleans.wav

Pre-gap length 0:00:02.00

Peak level 96.4 %
Track quality 100.0 %
Test CRC 5DF4549A
Copy CRC 5DF4549A
Accurately ripped (confidence 1) [E1A839B4]
Copy OK

Track 2

Filename D:\music\Musicgate's rips\VA - A Celebration Of New Orleans Music To Benefit MusiCares Hurrincane Relief (2005)\02 - Davell Crawford - Something You Got.wav

Pre-gap length 0:00:02.08

Peak level 96.5 %
Track quality 99.9 %
Test CRC CA60BFFA
Copy CRC CA60BFFA
Accurately ripped (confidence 1) [B4E8CF07]
Copy OK

Track 3

Filename D:\music\Musicgate's rips\VA - A Celebration Of New Orleans Music To Benefit MusiCares Hurrincane Relief (2005)\03 - Harry Connick Jr.; Branford Marsalis - Good To Be Home.wav

Pre-gap length 0:00:01.88

Peak level 81.0 %
Track quality 99.9 %
Test CRC 4F665120
Copy CRC 4F665120
Accurately ripped (confidence 1) [504CDAC3]
Copy OK

Track 4

Filename D:\music\Musicgate's rips\VA - A Celebration Of New Orleans Music To Benefit MusiCares Hurrincane Relief (2005)\04 - Irma Thomas - Second Line Medley- I Done Got Over,Iko Iko,Hey Pocky Way.wav

Pre-gap length 0:00:01.01

Peak level 96.6 %
Track quality 100.0 %
Test CRC DCF7EBCB
Copy CRC DCF7EBCB
Accurately ripped (confidence 1) [74545A12]
Copy OK

Track 5

Filename D:\music\Musicgate's rips\VA - A Celebration Of New Orleans Music To Benefit MusiCares Hurrincane Relief (2005)\05 - Al Johnson - Carnival Time.wav

Pre-gap length 0:00:02.61

Peak level 96.3 %
Track quality 99.9 %
Test CRC CC92BFCA
Copy CRC CC92BFCA
Accurately ripped (confidence 1) [FB175CD3]
Copy OK

Track 6

Filename D:\music\Musicgate's rips\VA - A Celebration Of New Orleans Music To Benefit MusiCares Hurrincane Relief (2005)\06 - Bo Dollis And The Wild Magnolias - Meet De Boys On De Battlefront.wav

Pre-gap length 0:00:03.22

Peak level 96.3 %
Track quality 100.0 %
Test CRC 1964318C
Copy CRC 1964318C
Accurately ripped (confidence 1) [1180A676]
Copy OK

Track 7

Filename D:\music\Musicgate's rips\VA - A Celebration Of New Orleans Music To Benefit MusiCares Hurrincane Relief (2005)\07 - Eddie Bo - Check Mr. Popeye.wav

Pre-gap length 0:00:03.66

Peak level 84.6 %
Track quality 100.0 %
Test CRC A197F2CD
Copy CRC A197F2CD
Accurately ripped (confidence 1) [76A26B4B]
Copy OK

Track 8

Filename D:\music\Musicgate's rips\VA - A Celebration Of New Orleans Music To Benefit MusiCares Hurrincane Relief (2005)\08 - Rebirth Brass Band - Do Whatcha Wanna.wav

Peak level 96.5 %
Track quality 99.9 %
Test CRC 1025D99C
Copy CRC 1025D99C
Accurately ripped (confidence 1) [BD47CEE2]
Copy OK

Track 9

Filename D:\music\Musicgate's rips\VA - A Celebration Of New Orleans Music To Benefit MusiCares Hurrincane Relief (2005)\09 - Jelly Roll Morton - I'm Alabama Bound.wav

Pre-gap length 0:00:02.13

Peak level 96.3 %
Track quality 100.0 %
Test CRC 774FC90B
Copy CRC 774FC90B
Accurately ripped (confidence 1) [BA632A90]
Copy OK

Track 10

Filename D:\music\Musicgate's rips\VA - A Celebration Of New Orleans Music To Benefit MusiCares Hurrincane Relief (2005)\10 - James Booker - Lawdy Miss Clawdy.wav

Pre-gap length 0:00:02.36

Peak level 95.1 %
Track quality 99.9 %
Test CRC 4A2DD778
Copy CRC 4A2DD778
Accurately ripped (confidence 1) [B30D7F74]
Copy OK

Track 11

Filename D:\music\Musicgate's rips\VA - A Celebration Of New Orleans Music To Benefit MusiCares Hurrincane Relief (2005)\11 - Theryl De Clouet; Galactic - I Get Lifted.wav

Pre-gap length 0:00:04.66

Peak level 69.7 %
Track quality 100.0 %
Test CRC 44A9D8C8
Copy CRC 44A9D8C8
Accurately ripped (confidence 1) [FAE6C1D7]
Copy OK

Track 12

Filename D:\music\Musicgate's rips\VA - A Celebration Of New Orleans Music To Benefit MusiCares Hurrincane Relief (2005)\12 - New Orleans Nightcrawlers - Keep On Gwine.wav

Pre-gap length 0:00:02.64

Peak level 96.5 %
Track quality 100.0 %
Test CRC 992673DE
Copy CRC 992673DE
Accurately ripped (confidence 1) [83C2050E]
Copy OK

Track 13

Filename D:\music\Musicgate's rips\VA - A Celebration Of New Orleans Music To Benefit MusiCares Hurrincane Relief (2005)\13 - Branford Marsalis Quartet - B's Paris Blues.wav

Pre-gap length 0:00:02.16

Peak level 90.9 %
Track quality 100.0 %
Test CRC 2F9794BA
Copy CRC 2F9794BA
Accurately ripped (confidence 1) [BADAA2C2]
Copy OK

Track 14

Filename D:\music\Musicgate's rips\VA - A Celebration Of New Orleans Music To Benefit MusiCares Hurrincane Relief (2005)\14 - Professor Longhair - Cuttin' Out.wav

Pre-gap length 0:00:01.57

Peak level 96.3 %
Track quality 100.0 %
Test CRC 09B40293
Copy CRC 09B40293
Accurately ripped (confidence 1) [F3CA8BCA]
Copy OK

Track 15

Filename D:\music\Musicgate's rips\VA - A Celebration Of New Orleans Music To Benefit MusiCares Hurrincane Relief (2005)\15 - Walter Wolfman Washington - Funkyard.wav

Pre-gap length 0:00:01.74

Peak level 81.1 %
Track quality 100.0 %
Test CRC 847CCDB7
Copy CRC 847CCDB7
Accurately ripped (confidence 1) [54751819]
Copy OK

Track 16

Filename D:\music\Musicgate's rips\VA - A Celebration Of New Orleans Music To Benefit MusiCares Hurrincane Relief (2005)\16 - Johnny Adams; Aaron Neville - Never Alone.wav

Pre-gap length 0:00:01.90

Peak level 91.0 %
Track quality 100.0 %
Test CRC 42A81156
Copy CRC 42A81156
Cannot be verified as accurate (confidence 1) [DA0C2E78], AccurateRip returned [083875D5]
Copy OK


15 track(s) accurately ripped
1 track(s) could not be verified as accurate

Some tracks could not be verified as accurate

No errors occurred

End of status report


All thanks go to the original releaser - Musicgate