Tags
Language
Tags

VA - Beauty and the Beast (Original Motion Picture Soundtrack) (Deluxe Edition) (2017)

Posted By: Pisulik
VA - Beauty and the Beast (Original Motion Picture Soundtrack) (Deluxe Edition) (2017)

VA - Beauty and the Beast (Original Motion Picture Soundtrack) (Deluxe Edition) (2017)
EAC Rip | FLAC (Tracks) +cue, log - 700 MB | 02:11:56
Soundtracks | Label: Walt Disney Records | Release Year: 2017

Disney s Beauty and the Beast is a live-action re-telling of the studio s animated classic which refashions the classic characters from the tale as old as time for a contemporary audience, staying true to the original music while updating the score with several new songs. Beauty and the Beast is the fantastic journey of Belle, a bright, beautiful and independent young woman who is taken prisoner by a beast in his castle. Despite her fears, she befriends the castle s enchanted staff and learns to look beyond the Beast s hideous exterior and realize the kind heart and soul of the true Prince within. The film stars: Emma Watson as Belle; Dan Stevens as the Beast; Luke Evans as Gaston, the handsome, but shallow villager who woos Belle; Oscar® winner Kevin Kline as Maurice, Belle s eccentric, but lovable father; Josh Gad as Lefou, Gaston s long-suffering aide-de-camp; Golden Globe® nominee Ewan McGregor as Lumiere, the candelabra; Oscar nominee Stanley Tucci as Maestro Cadenza, the harpsichord; Gugu Mbatha-Raw as Plumette, the feather duster; six-time Tony Award® winner Audra McDonald as Madame Garderobe, the wardrobe; Oscar nominee Ian McKellen as Cogsworth, the mantel clock; and two-time Academy Award® winner Emma Thompson as the teapot, Mrs. Potts.

Directed by Oscar® winner Bill Condon from a screenplay by TBD based on the 1991 animated film, the film is produced by Mandeville Films David Hoberman and Todd Lieberman with eight-time Oscar-winning composer Alan Menken, who won two Academy Awards® (Best Original Score and Best Song) for the 1991 animated film, providing the score, which will include new recordings of the original songs written by Menken and Howard Ashman, as well as several new songs written by Menken and three-time Oscar winner Tim Rice. Beauty and the Beast will be released in U.S. theaters on March 17, 2017.

TRACKLIST

01. Alan Menken – Overture
02. Alan Menken – Main Title: Prologue, Pt. 1
03. Audra McDonald – Aria
04. Alan Menken – Main Title: Prologue, Pt. 2
05. Emma Watson, Luke Evans & Ensemble - Beauty and the Beast – Belle
06. Kevin Kline – How Does a Moment Last Forever (Music Box)
07. Emma Watson – Belle (Reprise)
08. Josh Gad, Luke Evans & Ensemble - Beauty and the Beast – Gaston
09. Ewan McGregor, Emma Thompson, Gugu Mbatha-Raw & Ian McKellen – Be Our Guest
10. Adam Mitchell, Stanley Tucci, Ewan McGregor, Gugu Mbatha-Raw, Ian McKellen, Emma Thompson, Emma Watson, Audra McDonald & Clive Rowe – Days in the Sun
11. Emma Watson, Dan Stevens, Ewan McGregor, Ian McKellen, Emma Thompson, Nathan Mack & Gugu Mbatha-Raw – Something There
12. Emma Watson – How Does a Moment Last Forever (Montmartre)
13. Emma Thompson – Beauty and the Beast
14. Dan Stevens – Evermore
15. Luke Evans, Josh Gad, Ensemble - Beauty and the Beast, Emma Thompson, Ian McKellen, Stanley Tucci, Nathan Mack, Gugu Mbatha-Raw & Ewan McGregor – The Mob Song
16. Audra McDonald, Emma Thompson & Ensemble - Beauty and the Beast – Beauty and the Beast (Finale)
17. Céline Dion – How Does a Moment Last Forever
18. Ariana Grande & John Legend – Beauty and the Beast
19. Josh Groban – Evermore
20. Alan Menken – Aria (Demo)
21. Alan Menken – How Does a Moment Last Forever (Music Box) [Demo]
22. Alan Menken – Days in the Sun (Demo)
23. Alan Menken – How Does a Moment Last Forever (Montmartre) [Demo]
24. Alan Menken – Evermore (Demo)

Exact Audio Copy V1.3 from 2. September 2016

EAC extraction logfile from 13. March 2017, 11:44

Various Artists / Beauty and the Beast (CD 2)

Used drive : PLEXTOR CD-R PX-230A Adapter: 1 ID: 0

Read mode : Secure
Utilize accurate stream : Yes
Defeat audio cache : Yes
Make use of C2 pointers : No

Read offset correction : 738
Overread into Lead-In and Lead-Out : No
Fill up missing offset samples with silence : Yes
Delete leading and trailing silent blocks : No
Null samples used in CRC calculations : Yes
Used interface : Native Win32 interface for Win NT & 2000
Gap handling : Appended to previous track

Used output format : User Defined Encoder
Selected bitrate : 1024 kBit/s
Quality : High
Add ID3 tag : No
Command line compressor : C:\Program Files\Exact Audio Copy\Flac\flac.exe
Additional command line options : -6 -V -T "ARTIST=%artist%" -T "TITLE=%title%" -T "ALBUM=%albumtitle%" -T "DATE=%year%" -T "TRACKNUMBER=%tracknr%" -T "GENRE=%genre%" -T "COMMENT=%comment%" -T "ALBUMARTIST=%albuminterpret%" -T "COMPOSER=%composer%" -T "DISCNUMBER=%cdnumber%" -T "TOTALDISCS=%totalcds%" -T "TOTALTRACKS=%numtracks%" %source% -o %dest%


TOC of the extracted CD

Track | Start | Length | Start sector | End sector
––––––––––––––––––––––––––––-
1 | 0:00.00 | 3:05.42 | 0 | 13916
2 | 3:05.42 | 0:42.48 | 13917 | 17114
3 | 3:48.15 | 1:02.69 | 17115 | 21833
4 | 4:51.09 | 2:21.43 | 21834 | 32451
5 | 7:12.52 | 5:33.20 | 32452 | 57446
6 | 12:45.72 | 1:03.64 | 57447 | 62235
7 | 13:49.61 | 1:15.62 | 62236 | 67922
8 | 15:05.48 | 4:25.59 | 67923 | 87856
9 | 19:31.32 | 4:48.57 | 87857 | 109513
10 | 24:20.14 | 2:40.27 | 109514 | 121540
11 | 27:00.41 | 2:54.66 | 121541 | 134656
12 | 29:55.32 | 1:55.37 | 134657 | 143318
13 | 31:50.69 | 3:19.39 | 143319 | 158282
14 | 35:10.33 | 3:14.40 | 158283 | 172872
15 | 38:24.73 | 2:28.46 | 172873 | 184018
16 | 40:53.44 | 2:14.37 | 184019 | 194105
17 | 43:08.06 | 3:37.40 | 194106 | 210420
18 | 46:45.46 | 3:47.70 | 210421 | 227515
19 | 50:33.41 | 3:09.35 | 227516 | 241725
20 | 53:43.01 | 0:36.02 | 241726 | 244427
21 | 54:19.03 | 0:59.01 | 244428 | 248853
22 | 55:18.04 | 3:30.46 | 248854 | 264649
23 | 58:48.50 | 1:21.05 | 264650 | 270729
24 | 60:09.55 | 2:55.54 | 270730 | 283908


Track 1

Filename C:\Ripped by Filex\01 - Alan Menken - Overture.wav

Pre-gap length 0:00:02.00

Peak level 97.7 %
Extraction speed 2.6 X
Track quality 99.9 %
Test CRC 603EA714
Copy CRC 603EA714
Track not present in AccurateRip database
Copy OK

Track 2

Filename C:\Ripped by Filex\02 - Alan Menken - Main Title- Prologue Pt. 1.wav

Peak level 91.2 %
Extraction speed 2.0 X
Track quality 100.0 %
Test CRC 52E15123
Copy CRC 52E15123
Track not present in AccurateRip database
Copy OK

Track 3

Filename C:\Ripped by Filex\03 - Audra McDonald - Aria.wav

Peak level 97.7 %
Extraction speed 2.5 X
Track quality 100.0 %
Test CRC 9D4A9550
Copy CRC 9D4A9550
Track not present in AccurateRip database
Copy OK

Track 4

Filename C:\Ripped by Filex\04 - Alan Menken - Main Title- Prologue Pt. 2.wav

Peak level 97.8 %
Extraction speed 2.6 X
Track quality 100.0 %
Test CRC B941A2A0
Copy CRC B941A2A0
Track not present in AccurateRip database
Copy OK

Track 5

Filename C:\Ripped by Filex\05 - Emma Watson & Luke Evans & Ensemble - Beauty And The Beast - Belle.wav

Peak level 98.8 %
Extraction speed 2.7 X
Track quality 100.0 %
Test CRC 34FD9502
Copy CRC 34FD9502
Track not present in AccurateRip database
Copy OK

Track 6

Filename C:\Ripped by Filex\06 - Kevin Kline - How Does A Moment Last Forever (Music Box).wav

Peak level 97.7 %
Extraction speed 2.2 X
Track quality 100.0 %
Test CRC 1D7F7CCF
Copy CRC 1D7F7CCF
Track not present in AccurateRip database
Copy OK

Track 7

Filename C:\Ripped by Filex\07 - Emma Watson - Belle (Reprise).wav

Peak level 97.7 %
Extraction speed 2.3 X
Track quality 100.0 %
Test CRC 6A7937BE
Copy CRC 6A7937BE
Track not present in AccurateRip database
Copy OK

Track 8

Filename C:\Ripped by Filex\08 - Josh Gad & Luke Evans & Ensemble - Beauty And The Beast - Gaston.wav

Peak level 97.7 %
Extraction speed 2.8 X
Track quality 100.0 %
Test CRC 71A80B99
Copy CRC 71A80B99
Track not present in AccurateRip database
Copy OK

Track 9

Filename C:\Ripped by Filex\09 - Ewan McGregor & Emma Thompson & Gugu Mbatha-Raw & Ian McKellen - Be Our Guest.wav

Peak level 97.7 %
Extraction speed 2.8 X
Track quality 100.0 %
Test CRC B8289EDE
Copy CRC B8289EDE
Track not present in AccurateRip database
Copy OK

Track 10

Filename C:\Ripped by Filex\10 - Adam Mitchell & Stanley Tucci & Ewan McGregor & Gugu Mbatha-Raw & Ian McKellen & Emma Thompson & Emma Watson & Audra McDonald & Clive Rowe - Days in the Sun.wav

Peak level 100.0 %
Extraction speed 2.4 X
Track quality 99.9 %
Test CRC 0FB7C780
Copy CRC 0FB7C780
Track not present in AccurateRip database
Copy OK

Track 11

Filename C:\Ripped by Filex\11 - Emma Watson & Dan Stevens & Ewan McGregor & Ian McKellen & Emma Thompson & Nathan Mack & Gugu Mbatha-Raw - Something There.wav

Peak level 97.7 %
Extraction speed 2.6 X
Track quality 100.0 %
Test CRC 6ED9FD37
Copy CRC 6ED9FD37
Track not present in AccurateRip database
Copy OK

Track 12

Filename C:\Ripped by Filex\12 - Emma Watson - How Does a Moment Last Foever (Montmartre).wav

Peak level 97.7 %
Extraction speed 2.3 X
Track quality 99.9 %
Test CRC 49228777
Copy CRC 49228777
Track not present in AccurateRip database
Copy OK

Track 13

Filename C:\Ripped by Filex\13 - Emma Thompson - Beauty and the Beast.wav

Peak level 97.7 %
Extraction speed 2.8 X
Track quality 99.9 %
Test CRC 0B9CECC6
Copy CRC 0B9CECC6
Track not present in AccurateRip database
Copy OK

Track 14

Filename C:\Ripped by Filex\14 - Dan Stevens - Evermore.wav

Peak level 97.7 %
Extraction speed 2.8 X
Track quality 99.9 %
Test CRC E71FF942
Copy CRC E71FF942
Track not present in AccurateRip database
Copy OK

Track 15

Filename C:\Ripped by Filex\15 - Luke Evans & Josh Gad & Ensemble - Beauty And The Beast & Emma Thompson & Ian McKellen & Stanley Tucci & Nathan Mack & Gugu Mbatha-Raw & Ewan McGregor - The Mob Song.wav

Peak level 97.7 %
Extraction speed 2.9 X
Track quality 100.0 %
Test CRC F078978C
Copy CRC F078978C
Track not present in AccurateRip database
Copy OK

Track 16

Filename C:\Ripped by Filex\16 - Audra McDonald And Emma Thompson And Ensemble - Beauty And The Beast - Beauty and the Beast (Finale).wav

Peak level 97.7 %
Extraction speed 2.9 X
Track quality 100.0 %
Test CRC 38F36265
Copy CRC 38F36265
Track not present in AccurateRip database
Copy OK

Track 17

Filename C:\Ripped by Filex\17 - Céline Dion - How Does A Moment Last Foever.wav

Peak level 100.0 %
Extraction speed 3.2 X
Track quality 100.0 %
Test CRC 12EFBAA5
Copy CRC 12EFBAA5
Track not present in AccurateRip database
Copy OK

Track 18

Filename C:\Ripped by Filex\18 - Ariana Grande & John Legend - Beauty and the Beast.wav

Peak level 97.7 %
Extraction speed 3.2 X
Track quality 100.0 %
Test CRC 4D19B592
Copy CRC 4D19B592
Track not present in AccurateRip database
Copy OK

Track 19

Filename C:\Ripped by Filex\19 - Josh Groban - Evermore.wav

Peak level 100.0 %
Extraction speed 3.3 X
Track quality 100.0 %
Test CRC F578B2CE
Copy CRC F578B2CE
Track not present in AccurateRip database
Copy OK

Track 20

Filename C:\Ripped by Filex\20 - Alan Menken - Aria (Demo).wav

Peak level 97.7 %
Extraction speed 2.5 X
Track quality 100.0 %
Test CRC 9174F875
Copy CRC 9174F875
Track not present in AccurateRip database
Copy OK

Track 21

Filename C:\Ripped by Filex\21 - Alan Menken - How Does A Mement Last Forever (Music Box) (Demo).wav

Peak level 97.7 %
Extraction speed 2.7 X
Track quality 100.0 %
Test CRC FD65448A
Copy CRC FD65448A
Track not present in AccurateRip database
Copy OK

Track 22

Filename C:\Ripped by Filex\22 - Alan Menken - Days in the Sun (Demo).wav

Peak level 99.9 %
Extraction speed 3.2 X
Track quality 100.0 %
Test CRC 8A9ECA4D
Copy CRC 8A9ECA4D
Track not present in AccurateRip database
Copy OK

Track 23

Filename C:\Ripped by Filex\23 - Alan Menken - How Does A Moment Last Forever (Montmarte) (Demo).wav

Peak level 97.7 %
Extraction speed 2.8 X
Track quality 100.0 %
Test CRC 5104CB05
Copy CRC 5104CB05
Track not present in AccurateRip database
Copy OK

Track 24

Filename C:\Ripped by Filex\24 - Alan Menken - Evermore (Demo).wav

Peak level 100.0 %
Extraction speed 2.9 X
Track quality 100.0 %
Test CRC E1909447
Copy CRC E1909447
Track not present in AccurateRip database
Copy OK


None of the tracks are present in the AccurateRip database

No errors occurred

End of status report

–– CUETools DB Plugin V2.1.6

[CTDB TOCID: sMPtLeJT5og0ePDrHGs2q2zcfJ8-] found
Submit result: sMPtLeJT5og0ePDrHGs2q2zcfJ8- has been confirmed
Track | CTDB Status
1 | (8/8) Accurately ripped
2 | (8/8) Accurately ripped
3 | (8/8) Accurately ripped
4 | (8/8) Accurately ripped
5 | (8/8) Accurately ripped
6 | (8/8) Accurately ripped
7 | (8/8) Accurately ripped
8 | (8/8) Accurately ripped
9 | (8/8) Accurately ripped
10 | (8/8) Accurately ripped
11 | (8/8) Accurately ripped
12 | (8/8) Accurately ripped
13 | (8/8) Accurately ripped
14 | (8/8) Accurately ripped
15 | (8/8) Accurately ripped
16 | (8/8) Accurately ripped
17 | (8/8) Accurately ripped
18 | (8/8) Accurately ripped
19 | (8/8) Accurately ripped
20 | (8/8) Accurately ripped
21 | (8/8) Accurately ripped
22 | (8/8) Accurately ripped
23 | (8/8) Accurately ripped
24 | (8/8) Accurately ripped


==== Log checksum 6DA754250D23B5B7354F67E7B60AD8A501E911862C96121D40B16E95392324CE ====


CD2:

01. Alan Menken – Main Title: Prologue
02. Alan Menken – Belle Meets Gaston
03. Alan Menken – Your Mother
04. Alan Menken – The Laverie
05. Alan Menken – Wolf Chase
06. Alan Menken – Entering the Castle
07. Alan Menken – A White Rose
08. Alan Menken – The Beast
09. Alan Menken – Meet the Staff
10. Alan Menken – Home (Extended Mix)
11. Alan Menken – Madame de Garderobe
12. Alan Menken – There's a Beast
13. Alan Menken – A Petal Drops
14. Alan Menken – A Bracing Cup of Tea
15. Alan Menken – The West Wing
16. Alan Menken – Wolves Attack Belle
17. Alan Menken – The Library
18. Alan Menken – Colonnade Chat
19. Alan Menken – The Plague
20. Alan Menken – Maurice Accuses Gaston
21. Alan Menken – Beast Takes a Bath
22. Alan Menken – The Dress
23. Alan Menken – You Must Go to Him
24. Alan Menken – Belle Stops the Wagon
25. Alan Menken – Castle Under Attack
26. Alan Menken – Turret Pursuit
27. Alan Menken – You Came Back
28. Alan Menken – Transformations

Exact Audio Copy V1.3 from 2. September 2016

EAC extraction logfile from 13. March 2017, 11:01

Alan Menken / Beauty and the Beast

Used drive : PLEXTOR CD-R PX-230A Adapter: 1 ID: 0

Read mode : Secure
Utilize accurate stream : Yes
Defeat audio cache : Yes
Make use of C2 pointers : No

Read offset correction : 738
Overread into Lead-In and Lead-Out : No
Fill up missing offset samples with silence : Yes
Delete leading and trailing silent blocks : No
Null samples used in CRC calculations : Yes
Used interface : Native Win32 interface for Win NT & 2000
Gap handling : Appended to previous track

Used output format : User Defined Encoder
Selected bitrate : 1024 kBit/s
Quality : High
Add ID3 tag : No
Command line compressor : C:\Program Files\Exact Audio Copy\Flac\flac.exe
Additional command line options : -6 -V -T "ARTIST=%artist%" -T "TITLE=%title%" -T "ALBUM=%albumtitle%" -T "DATE=%year%" -T "TRACKNUMBER=%tracknr%" -T "GENRE=%genre%" -T "COMMENT=%comment%" -T "ALBUMARTIST=%albuminterpret%" -T "COMPOSER=%composer%" -T "DISCNUMBER=%cdnumber%" -T "TOTALDISCS=%totalcds%" -T "TOTALTRACKS=%numtracks%" %source% -o %dest%


TOC of the extracted CD

Track | Start | Length | Start sector | End sector
––––––––––––––––––––––––––––-
1 | 0:00.00 | 3:01.40 | 0 | 13614
2 | 3:01.40 | 0:54.05 | 13615 | 17669
3 | 3:55.45 | 2:13.68 | 17670 | 27712
4 | 6:09.38 | 1:22.23 | 27713 | 33885
5 | 7:31.61 | 3:14.44 | 33886 | 48479
6 | 10:46.30 | 1:18.10 | 48480 | 54339
7 | 12:04.40 | 3:57.50 | 54340 | 72164
8 | 16:02.15 | 4:03.57 | 72165 | 90446
9 | 20:05.72 | 1:00.47 | 90447 | 94993
10 | 21:06.44 | 2:04.07 | 94994 | 104300
11 | 23:10.51 | 1:28.21 | 104301 | 110921
12 | 24:38.72 | 2:02.36 | 110922 | 120107
13 | 26:41.33 | 1:02.63 | 120108 | 124820
14 | 27:44.21 | 2:06.69 | 124821 | 134339
15 | 29:51.15 | 2:58.50 | 134340 | 147739
16 | 32:49.65 | 3:17.60 | 147740 | 162574
17 | 36:07.50 | 3:05.49 | 162575 | 176498
18 | 39:13.24 | 2:53.15 | 176499 | 189488
19 | 42:06.39 | 0:51.58 | 189489 | 193371
20 | 42:58.22 | 2:01.56 | 193372 | 202502
21 | 45:00.03 | 1:21.41 | 202503 | 208618
22 | 46:21.44 | 1:01.69 | 208619 | 213262
23 | 47:23.38 | 2:50.58 | 213263 | 226070
24 | 50:14.21 | 2:42.20 | 226071 | 238240
25 | 52:56.41 | 4:20.42 | 238241 | 257782
26 | 57:17.08 | 2:12.58 | 257783 | 267740
27 | 59:29.66 | 5:13.53 | 267741 | 291268
28 | 64:43.44 | 4:06.57 | 291269 | 309775


Track 1

Filename C:\Ripped by Filex\01 - Main Title- Prolog.wav

Pre-gap length 0:00:02.00

Peak level 97.7 %
Extraction speed 5.4 X
Track quality 100.0 %
Test CRC CB97480A
Copy CRC CB97480A
Track not present in AccurateRip database
Copy OK

Track 2

Filename C:\Ripped by Filex\02 - Belle Meets Gaston.wav

Peak level 52.6 %
Extraction speed 3.2 X
Track quality 99.8 %
Test CRC 0AA88C50
Copy CRC 0AA88C50
Track not present in AccurateRip database
Copy OK

Track 3

Filename C:\Ripped by Filex\03 - Your Mother.wav

Peak level 64.0 %
Extraction speed 5.6 X
Track quality 100.0 %
Test CRC DF46F9E0
Copy CRC DF46F9E0
Track not present in AccurateRip database
Copy OK

Track 4

Filename C:\Ripped by Filex\04 - The Laverie.wav

Peak level 59.4 %
Extraction speed 4.1 X
Track quality 99.8 %
Test CRC 3441171C
Copy CRC 3441171C
Track not present in AccurateRip database
Copy OK

Track 5

Filename C:\Ripped by Filex\05 - Wolf Chase.wav

Peak level 98.8 %
Extraction speed 6.3 X
Track quality 100.0 %
Test CRC 2A86DADD
Copy CRC 2A86DADD
Track not present in AccurateRip database
Copy OK

Track 6

Filename C:\Ripped by Filex\06 - Entering the Castle.wav

Peak level 20.1 %
Extraction speed 5.6 X
Track quality 100.0 %
Test CRC 3580A4FD
Copy CRC 3580A4FD
Track not present in AccurateRip database
Copy OK

Track 7

Filename C:\Ripped by Filex\07 - A White Rose.wav

Peak level 97.7 %
Extraction speed 6.9 X
Track quality 100.0 %
Test CRC 873B1900
Copy CRC 873B1900
Track not present in AccurateRip database
Copy OK

Track 8

Filename C:\Ripped by Filex\08 - The Beast.wav

Peak level 97.7 %
Extraction speed 7.2 X
Track quality 100.0 %
Test CRC 25802206
Copy CRC 25802206
Track not present in AccurateRip database
Copy OK

Track 9

Filename C:\Ripped by Filex\09 - Meet the Staff.wav

Peak level 76.6 %
Extraction speed 5.5 X
Track quality 100.0 %
Test CRC 83CDDA34
Copy CRC 83CDDA34
Track not present in AccurateRip database
Copy OK

Track 10

Filename C:\Ripped by Filex\10 - Home (Extended Mix).wav

Peak level 37.4 %
Extraction speed 6.8 X
Track quality 100.0 %
Test CRC 953A3097
Copy CRC 953A3097
Track not present in AccurateRip database
Copy OK

Track 11

Filename C:\Ripped by Filex\11 - Madame De Garderobe.wav

Peak level 97.7 %
Extraction speed 5.0 X
Track quality 99.8 %
Test CRC 6A20E64C
Copy CRC 6A20E64C
Track not present in AccurateRip database
Copy OK

Track 12

Filename C:\Ripped by Filex\12 - There's a Beast.wav

Peak level 41.8 %
Extraction speed 5.9 X
Track quality 99.9 %
Test CRC 7E10AB6D
Copy CRC 7E10AB6D
Track not present in AccurateRip database
Copy OK

Track 13

Filename C:\Ripped by Filex\13 - A Petal Drops.wav

Peak level 97.7 %
Extraction speed 6.2 X
Track quality 100.0 %
Test CRC 1ED5F0C1
Copy CRC 1ED5F0C1
Track not present in AccurateRip database
Copy OK

Track 14

Filename C:\Ripped by Filex\14 - A Bracing Cup of Tea.wav

Peak level 39.4 %
Extraction speed 7.3 X
Track quality 100.0 %
Test CRC AE9650AC
Copy CRC AE9650AC
Track not present in AccurateRip database
Copy OK

Track 15

Filename C:\Ripped by Filex\15 - The West Wing.wav

Peak level 97.7 %
Extraction speed 7.8 X
Track quality 100.0 %
Test CRC 19464DB5
Copy CRC 19464DB5
Track not present in AccurateRip database
Copy OK

Track 16

Filename C:\Ripped by Filex\16 - Wolves Attack Belle.wav

Peak level 97.7 %
Extraction speed 8.1 X
Track quality 100.0 %
Test CRC E928A969
Copy CRC E928A969
Track not present in AccurateRip database
Copy OK

Track 17

Filename C:\Ripped by Filex\17 - The Library.wav

Peak level 43.4 %
Extraction speed 8.3 X
Track quality 100.0 %
Test CRC A6485C81
Copy CRC A6485C81
Track not present in AccurateRip database
Copy OK

Track 18

Filename C:\Ripped by Filex\18 - Colonnade Chat.wav

Peak level 97.7 %
Extraction speed 8.4 X
Track quality 100.0 %
Test CRC 8808E3EF
Copy CRC 8808E3EF
Track not present in AccurateRip database
Copy OK

Track 19

Filename C:\Ripped by Filex\19 - The Plague.wav

Peak level 34.7 %
Extraction speed 4.6 X
Track quality 99.7 %
Test CRC C9C1BD5B
Copy CRC C9C1BD5B
Track not present in AccurateRip database
Copy OK

Track 20

Filename C:\Ripped by Filex\20 - Maurice Accuses Gaston.wav

Peak level 97.7 %
Extraction speed 8.1 X
Track quality 100.0 %
Test CRC DC988FEA
Copy CRC DC988FEA
Track not present in AccurateRip database
Copy OK

Track 21

Filename C:\Ripped by Filex\21 - Beast Takes a Bath.wav

Peak level 97.7 %
Extraction speed 7.2 X
Track quality 100.0 %
Test CRC C4A381FB
Copy CRC C4A381FB
Track not present in AccurateRip database
Copy OK

Track 22

Filename C:\Ripped by Filex\22 - The Dress.wav

Peak level 75.1 %
Extraction speed 6.8 X
Track quality 100.0 %
Test CRC 80A1A0EA
Copy CRC 80A1A0EA
Track not present in AccurateRip database
Copy OK

Track 23

Filename C:\Ripped by Filex\23 - You Must Go To Him.wav

Peak level 70.3 %
Extraction speed 8.7 X
Track quality 100.0 %
Test CRC 9A5A8AE8
Copy CRC 9A5A8AE8
Track not present in AccurateRip database
Copy OK

Track 24

Filename C:\Ripped by Filex\24 - Belle Stops the Wagon.wav

Peak level 97.7 %
Extraction speed 8.7 X
Track quality 100.0 %
Test CRC 86F06C51
Copy CRC 86F06C51
Track not present in AccurateRip database
Copy OK

Track 25

Filename C:\Ripped by Filex\25 - Castle Under Attack.wav

Peak level 97.7 %
Extraction speed 9.5 X
Track quality 100.0 %
Test CRC 3891E614
Copy CRC 3891E614
Track not present in AccurateRip database
Copy OK

Track 26

Filename C:\Ripped by Filex\26 - Turret Pursuit.wav

Peak level 97.7 %
Extraction speed 7.8 X
Track quality 99.9 %
Test CRC BBF8E816
Copy CRC BBF8E816
Track not present in AccurateRip database
Copy OK

Track 27

Filename C:\Ripped by Filex\27 - You Came Back.wav

Peak level 97.7 %
Extraction speed 9.3 X
Track quality 99.9 %
Test CRC B313B199
Copy CRC B313B199
Track not present in AccurateRip database
Copy OK

Track 28

Filename C:\Ripped by Filex\28 - Transformations.wav

Peak level 97.7 %
Extraction speed 9.8 X
Track quality 100.0 %
Test CRC 16B37FDE
Copy CRC 16B37FDE
Track not present in AccurateRip database
Copy OK


None of the tracks are present in the AccurateRip database

No errors occurred

End of status report

–– CUETools DB Plugin V2.1.6

[CTDB TOCID: 56yB1gzUMHpHFQMJQMsDs3T3liE-] found
Submit result: 56yB1gzUMHpHFQMJQMsDs3T3liE- has been confirmed
Track | CTDB Status
1 | (8/8) Accurately ripped
2 | (8/8) Accurately ripped
3 | (8/8) Accurately ripped
4 | (8/8) Accurately ripped
5 | (8/8) Accurately ripped
6 | (8/8) Accurately ripped
7 | (8/8) Accurately ripped
8 | (8/8) Accurately ripped
9 | (8/8) Accurately ripped
10 | (8/8) Accurately ripped
11 | (8/8) Accurately ripped
12 | (8/8) Accurately ripped
13 | (8/8) Accurately ripped
14 | (8/8) Accurately ripped
15 | (8/8) Accurately ripped
16 | (8/8) Accurately ripped
17 | (8/8) Accurately ripped
18 | (8/8) Accurately ripped
19 | (8/8) Accurately ripped
20 | (8/8) Accurately ripped
21 | (8/8) Accurately ripped
22 | (8/8) Accurately ripped
23 | (8/8) Accurately ripped
24 | (8/8) Accurately ripped
25 | (8/8) Accurately ripped
26 | (8/8) Accurately ripped
27 | (7/8) Accurately ripped
28 | (7/8) Accurately ripped


==== Log checksum 190C059ABAC25686FB1589C61602811035BA8BE3471529E7299FAD4162DCDADB ====


All thanks go to the original releaser