Tags
Language
Tags

V.A. - Best Of Bond... James Bond - 50th Anniversary Collection (2012) [2CD] Re-up

Posted By: Andi_Deris
V.A. - Best Of Bond... James Bond - 50th Anniversary Collection (2012) [2CD] Re-up

V.A. - Best Of Bond… James Bond - 50th Anniversary Collection (2012) [2CD]
EAC Rip | FLAC: Tracks+Cue+Log | 1 Gb | MP3 CBR 320 kbps | 371 Mb | Scans | 02:35:12
EMI/Capitol Records | 509992328182
Soundtrack, Score

Deluxe two CD edition includes a bonus CD containing additional music as heard in the films and featured on the soundtracks. 2012 collection, released to coincide with the 50th anniversary of the iconic James Bond. Features themes from all 22 Bond films including music by the John Barry Orchestra and Shirley Bassey, Paul McCartney & Wings, Tom Jones, A-ha, Carly Simon, Duran Duran, Madonna and many others.

THE BEST OF BOND… JAMES BOND is a compilation of Bond theme songs that automatically evokes images of baccarat tables, vodka martinis, and exotic automobiles. Gathering these familiar titles from 21 movies in the series is bound to excite any lover of film music, and not just Bond fans alone. Exclusive to THE BEST OF BOND… JAMES BOND is the previously unreleased orchestral version of Chris Cornell's "You Know My Name" from the 2006 hit CASINO ROYALE, as well as a new remix of "The James Bond Theme."

V.A. - Best Of Bond... James Bond - 50th Anniversary Collection (2012) [2CD] Re-up




V.A. - Best Of Bond... James Bond - 50th Anniversary Collection (2012) [2CD] Re-up


CD 1

01. John Barry & Orchestra - James Bond Theme (1:47)
02. Matt Monro - From Russia With Love (2:33)
03. Shirley Bassey - Goldfinger (2:48)
04. Tom Jones - Thunderball (3:02)
05. Nancy Sinatra - You Only Live Twice (2:45)
06. John Barry - On Her Majesty's Secret Service (2:35)
07. Louis Armstrong - We Have All The Time In The World (3:13)
08. Shirley Bassey - Diamonds Are Forever (2:41)
09. Paul McCartney & Wings - Live And Let Die (3:13)
10. Lulu - The Man With The Golden Gun (2:34)
11. Carly Simon - Nobody Does It Better (3:28)
12. Shirley Bassey - Moonraker (3:08)
13. Sheena Easton - For Your Eyes Only (3:03)
14. Rita Coolidge - All Time High (3:02)
15. Duran Duran - View To A Kill (3:34)
16. A-ha - The Living Daylights (4:13)
17. Gladys Knight - Licence to Kill (4:11)
18. Tina Turner - Goldeneye (3:29)
19. Sheryl Crow - Tomorrow Never Dies (4:52)
20. Garbage - The World Is Not Enough (3:56)
21. Madonna - Die Another Day (4:36)
22. Chris Cornell - You Know My Name (4:01)
23. Jack White & Alicia Keys - Another Way To Die (4:23)

V.A. - Best Of Bond... James Bond - 50th Anniversary Collection (2012) [2CD] Re-up


CD 2

01. The Monty Norman Orchestra - Dr. No's Fantasy (1:41)
02. Diana Coupland - Under The Mango Tree (2:23)
03. The John Barry Orchestra - 007 (2:45)
04. The John Barry Orchestra - Opening Titles (Medley) (2:28)
05. The John Barry Orchestra - Into Miami (0:57)
06. The John Barry Orchestra - The Laser Beam (2:53)
07. Shirley Bassey - Mr. Kiss Kiss Bang Bang (2:15)
08. The John Barry Orchestra - Switching the Body (2:48)
09. The John Barry Orchestra - Capsule In Space (2:41)
10. Nina - Do You Know How Christmas Trees Are Grown (3:21)
11. The John Barry Orchestra - Bond Smells A Rat (1:53)
12. The George Martin Orchestra (feat. B.J. Arnau) - Fillet Of Soul-New Orleans / Live And Let Die / Fillet Of Soul-Harlem (Medley) (3:21)
13. The John Barry Orchestra - Underground Lair (4:17)
14. The John Barry Orchestra - Hip's Trip (3:19)
15. Marvin Hamlisch - The Pyramids (1:30)
16. The John Barry Orchestra - Cable Car And Snake Fight (3:07)
17. Bill Conti (feat. Rage) - Make It Last All Night (3:30)
18. The John Barry Orchestra - The Chase Bomb Theme (1:57)
19. The John Barry Orchestra - Snow Job (2:29)
20. The Pretenders - Where Has Everybody Gone (3:36)
21. The Pretenders - If There Was A Man (2:50)
22. Eric Serra - The Experience Of Love (5:55)
23. Moby - James Bond Theme (Moby's Re-Version) (3:23)
24. K.D. Lang - Surrender (3:56)
25. Scott Walker - Only Myself To Blame (3:37)
26. David Arnold - Vesper (1:45)
27. David Arnold - Time To Get Out (3:28)

Compilation producers: Paul Atkinson & Cheryl Pawelski

Composer(s): John Barry, George Martin, Marvin Hamlisch, Eric Serra, David Arnold, Bill Conti and Michael Kamen

V.A. - Best Of Bond... James Bond - 50th Anniversary Collection (2012) [2CD] Re-up


Exact Audio Copy V1.0 beta 3 from 29. August 2011

EAC extraction logfile from 30. October 2012, 18:19

Various Artists / Best of Bond - 50 Years - Disc 1

Used drive : TSSTcorpCD/DVDW SH-S182M Adapter: 0 ID: 0

Read mode : Secure
Utilize accurate stream : Yes
Defeat audio cache : Yes
Make use of C2 pointers : No

Read offset correction : 6
Overread into Lead-In and Lead-Out : No
Fill up missing offset samples with silence : Yes
Delete leading and trailing silent blocks : No
Null samples used in CRC calculations : Yes
Used interface : Native Win32 interface for Win NT & 2000
Gap handling : Appended to previous track

Used output format : User Defined Encoder
Selected bitrate : 1024 kBit/s
Quality : High
Add ID3 tag : No
Command line compressor : C:\Program Files\Exact Audio Copy\Flac\flac.exe
Additional command line options : -8 -V -T "ARTIST=%artist%" -T "TITLE=%title%" -T "ALBUM=%albumtitle%" -T "DATE=%year%" -T "TRACKNUMBER=%tracknr%" -T "GENRE=%genre%" -T "PERFORMER=%albuminterpret%" -T "COMPOSER=%composer%" %source% -o %dest%


TOC of the extracted CD

Track | Start | Length | Start sector | End sector
––––––––––––––––––––––––––––-
1 | 0:00.00 | 1:47.22 | 0 | 8046
2 | 1:47.22 | 2:33.40 | 8047 | 19561
3 | 4:20.62 | 2:48.51 | 19562 | 32212
4 | 7:09.38 | 3:02.58 | 32213 | 45920
5 | 10:12.21 | 2:45.19 | 45921 | 58314
6 | 12:57.40 | 2:35.39 | 58315 | 69978
7 | 15:33.04 | 3:13.49 | 69979 | 84502
8 | 18:46.53 | 2:41.35 | 84503 | 96612
9 | 21:28.13 | 3:13.20 | 96613 | 111107
10 | 24:41.33 | 2:34.50 | 111108 | 122707
11 | 27:16.08 | 3:28.25 | 122708 | 138332
12 | 30:44.33 | 3:08.68 | 138333 | 152500
13 | 33:53.26 | 3:03.47 | 152501 | 166272
14 | 36:56.73 | 3:02.46 | 166273 | 179968
15 | 39:59.44 | 3:34.40 | 179969 | 196058
16 | 43:34.09 | 4:13.27 | 196059 | 215060
17 | 47:47.36 | 4:11.28 | 215061 | 233913
18 | 51:58.64 | 3:29.15 | 233914 | 249603
19 | 55:28.04 | 4:52.28 | 249604 | 271531
20 | 60:20.32 | 3:56.72 | 271532 | 289303
21 | 64:17.29 | 4:36.39 | 289304 | 310042
22 | 68:53.68 | 4:01.63 | 310043 | 328180
23 | 72:55.56 | 4:23.38 | 328181 | 347943


Track 1

Filename C:\Music\01 - John Barry & Orchestra - James Bond Theme.wav

Pre-gap length 0:00:02.00

Peak level 95.5 %
Extraction speed 3.7 X
Track quality 100.0 %
Test CRC 79E0353D
Copy CRC 79E0353D
Track not present in AccurateRip database
Copy OK

Track 2

Filename C:\Music\02 - Matt Monro - From Russia With Love.wav

Pre-gap length 0:00:00.36

Peak level 95.5 %
Extraction speed 4.4 X
Track quality 100.0 %
Test CRC B6A22FB7
Copy CRC B6A22FB7
Track not present in AccurateRip database
Copy OK

Track 3

Filename C:\Music\03 - Shirley Bassey - Goldfinger.wav

Pre-gap length 0:00:01.07

Peak level 95.5 %
Extraction speed 4.8 X
Track quality 100.0 %
Test CRC CD8F2647
Copy CRC CD8F2647
Track not present in AccurateRip database
Copy OK

Track 4

Filename C:\Music\04 - Tom Jones - Thunderball.wav

Pre-gap length 0:00:00.73

Peak level 95.5 %
Extraction speed 5.2 X
Track quality 100.0 %
Test CRC 300AF7FC
Copy CRC 300AF7FC
Track not present in AccurateRip database
Copy OK

Track 5

Filename C:\Music\05 - Nancy Sinatra - You Only Live Twice.wav

Pre-gap length 0:00:00.73

Peak level 95.5 %
Extraction speed 5.4 X
Track quality 100.0 %
Test CRC D6CC8933
Copy CRC D6CC8933
Track not present in AccurateRip database
Copy OK

Track 6

Filename C:\Music\06 - John Barry - On Her Majesty's Secret Service.wav

Pre-gap length 0:00:00.35

Peak level 96.6 %
Extraction speed 5.5 X
Track quality 100.0 %
Test CRC 46770505
Copy CRC 46770505
Track not present in AccurateRip database
Copy OK

Track 7

Filename C:\Music\07 - Louis Armstrong - We Have All The Time In The World.wav

Pre-gap length 0:00:01.16

Peak level 95.4 %
Extraction speed 6.0 X
Track quality 100.0 %
Test CRC A7D759C5
Copy CRC A7D759C5
Track not present in AccurateRip database
Copy OK

Track 8

Filename C:\Music\08 - Shirley Bassey - Diamonds Are Forever.wav

Pre-gap length 0:00:00.73

Peak level 95.4 %
Extraction speed 6.0 X
Track quality 100.0 %
Test CRC 509A9164
Copy CRC 509A9164
Track not present in AccurateRip database
Copy OK

Track 9

Filename C:\Music\09 - Paul McCartney & Wings - Live And Let Die.wav

Pre-gap length 0:00:00.73

Peak level 95.5 %
Extraction speed 6.4 X
Track quality 100.0 %
Test CRC 748058D3
Copy CRC 748058D3
Track not present in AccurateRip database
Copy OK

Track 10

Filename C:\Music\10 - Lulu - The Man With The Golden Gun.wav

Pre-gap length 0:00:00.73

Peak level 95.5 %
Extraction speed 5.3 X
Track quality 99.9 %
Test CRC 8DD03401
Copy CRC 8DD03401
Track not present in AccurateRip database
Copy OK

Track 11

Filename C:\Music\11 - Carly Simon - Nobody Does It Better.wav

Pre-gap length 0:00:01.00

Peak level 93.3 %
Extraction speed 6.9 X
Track quality 100.0 %
Test CRC 5226F3F8
Copy CRC 5226F3F8
Track not present in AccurateRip database
Copy OK

Track 12

Filename C:\Music\12 - Shirley Bassey - Moonraker.wav

Peak level 95.4 %
Extraction speed 5.9 X
Track quality 99.9 %
Test CRC C17352D6
Copy CRC C17352D6
Track not present in AccurateRip database
Copy OK

Track 13

Filename C:\Music\13 - Sheena Easton - For Your Eyes Only.wav

Pre-gap length 0:00:01.30

Peak level 95.4 %
Extraction speed 7.1 X
Track quality 100.0 %
Test CRC A0B56955
Copy CRC A0B56955
Track not present in AccurateRip database
Copy OK

Track 14

Filename C:\Music\14 - Rita Coolidge - All Time High.wav

Peak level 93.3 %
Extraction speed 6.3 X
Track quality 99.9 %
Test CRC 79C5F602
Copy CRC 79C5F602
Track not present in AccurateRip database
Copy OK

Track 15

Filename C:\Music\15 - Duran Duran - View To A Kill.wav

Pre-gap length 0:00:01.23

Peak level 93.3 %
Extraction speed 7.7 X
Track quality 100.0 %
Test CRC 7E3A632D
Copy CRC 7E3A632D
Track not present in AccurateRip database
Copy OK

Track 16

Filename C:\Music\16 - A-Ha - The Living Daylights.wav

Peak level 96.6 %
Extraction speed 8.1 X
Track quality 100.0 %
Test CRC 4CE631B7
Copy CRC 4CE631B7
Track not present in AccurateRip database
Copy OK

Track 17

Filename C:\Music\17 - Gladys Knight - Licence to Kill.wav

Peak level 96.1 %
Extraction speed 8.4 X
Track quality 100.0 %
Test CRC BD41949D
Copy CRC BD41949D
Track not present in AccurateRip database
Copy OK

Track 18

Filename C:\Music\18 - Tina Turner - Goldeneye.wav

Pre-gap length 0:00:01.35

Peak level 95.5 %
Extraction speed 8.4 X
Track quality 100.0 %
Test CRC BC6992E4
Copy CRC BC6992E4
Track not present in AccurateRip database
Copy OK

Track 19

Filename C:\Music\19 - Sheryl Crow - Tomorrow Never Dies.wav

Pre-gap length 0:00:00.72

Peak level 96.4 %
Extraction speed 8.9 X
Track quality 100.0 %
Test CRC 543ED5E3
Copy CRC 543ED5E3
Track not present in AccurateRip database
Copy OK

Track 20

Filename C:\Music\20 - Garbage - The World Is Not Enough.wav

Pre-gap length 0:00:00.34

Peak level 96.0 %
Extraction speed 8.9 X
Track quality 100.0 %
Test CRC 2F06DDBF
Copy CRC 2F06DDBF
Track not present in AccurateRip database
Copy OK

Track 21

Filename C:\Music\21 - Madonna - Die Another Day.wav

Peak level 96.6 %
Extraction speed 8.3 X
Track quality 99.9 %
Test CRC 5C1729D9
Copy CRC 5C1729D9
Track not present in AccurateRip database
Copy OK

Track 22

Filename C:\Music\22 - Chris Cornell - You Know My Name.wav

Pre-gap length 0:00:00.18

Peak level 95.3 %
Extraction speed 9.3 X
Track quality 100.0 %
Test CRC 4FE21698
Copy CRC 4FE21698
Track not present in AccurateRip database
Copy OK

Track 23

Filename C:\Music\23 - Jack White & Alicia Keys - Another Way To Die.wav

Pre-gap length 0:00:01.23

Peak level 97.7 %
Extraction speed 9.6 X
Track quality 100.0 %
Test CRC 5F43517E
Copy CRC 5F43517E
Track not present in AccurateRip database
Copy OK


None of the tracks are present in the AccurateRip database

No errors occurred

End of status report

==== Log checksum AE211857C405E3D25B87CB48B6D60F6B939B604003A4D71AB2A8D5483C8FDF60 ====

Exact Audio Copy V1.0 beta 3 from 29. August 2011

EAC extraction logfile from 30. October 2012, 19:20

Various Artists / Best of Bond - 50 Years - Disc 2

Used drive : TSSTcorpCD/DVDW SH-S182M Adapter: 0 ID: 0

Read mode : Secure
Utilize accurate stream : Yes
Defeat audio cache : Yes
Make use of C2 pointers : No

Read offset correction : 6
Overread into Lead-In and Lead-Out : No
Fill up missing offset samples with silence : Yes
Delete leading and trailing silent blocks : No
Null samples used in CRC calculations : Yes
Used interface : Native Win32 interface for Win NT & 2000
Gap handling : Appended to previous track

Used output format : User Defined Encoder
Selected bitrate : 1024 kBit/s
Quality : High
Add ID3 tag : No
Command line compressor : C:\Program Files\Exact Audio Copy\Flac\flac.exe
Additional command line options : -8 -V -T "ARTIST=%artist%" -T "TITLE=%title%" -T "ALBUM=%albumtitle%" -T "DATE=%year%" -T "TRACKNUMBER=%tracknr%" -T "GENRE=%genre%" -T "PERFORMER=%albuminterpret%" -T "COMPOSER=%composer%" %source% -o %dest%


TOC of the extracted CD

Track | Start | Length | Start sector | End sector
––––––––––––––––––––––––––––-
1 | 0:00.00 | 1:41.55 | 0 | 7629
2 | 1:41.55 | 2:23.15 | 7630 | 18369
3 | 4:04.70 | 2:45.64 | 18370 | 30808
4 | 6:50.59 | 2:28.36 | 30809 | 41944
5 | 9:19.20 | 0:57.03 | 41945 | 46222
6 | 10:16.23 | 2:53.67 | 46223 | 59264
7 | 13:10.15 | 2:15.64 | 59265 | 69453
8 | 15:26.04 | 2:48.02 | 69454 | 82055
9 | 18:14.06 | 2:41.14 | 82056 | 94144
10 | 20:55.20 | 3:21.44 | 94145 | 109263
11 | 24:16.64 | 1:53.19 | 109264 | 117757
12 | 26:10.08 | 3:21.06 | 117758 | 132838
13 | 29:31.14 | 4:17.05 | 132839 | 152118
14 | 33:48.19 | 3:19.65 | 152119 | 167108
15 | 37:08.09 | 1:30.39 | 167109 | 173897
16 | 38:38.48 | 3:07.30 | 173898 | 187952
17 | 41:46.03 | 3:30.56 | 187953 | 203758
18 | 45:16.59 | 1:57.56 | 203759 | 212589
19 | 47:14.40 | 2:29.45 | 212590 | 223809
20 | 49:44.10 | 3:36.39 | 223810 | 240048
21 | 53:20.49 | 2:50.58 | 240049 | 252856
22 | 56:11.32 | 5:55.09 | 252857 | 279490
23 | 62:06.41 | 3:23.51 | 279491 | 294766
24 | 65:30.17 | 3:56.24 | 294767 | 312490
25 | 69:26.41 | 3:37.18 | 312491 | 328783
26 | 73:03.59 | 1:45.34 | 328784 | 336692
27 | 74:49.18 | 3:28.44 | 336693 | 352336


Track 1

Filename C:\Music\01 - The Monty Norman Orchestra - Dr. No's Fantasy.wav

Pre-gap length 0:00:02.00

Peak level 94.0 %
Extraction speed 3.9 X
Track quality 100.0 %
Test CRC B7D4699E
Copy CRC B7D4699E
Track not present in AccurateRip database
Copy OK

Track 2

Filename C:\Music\02 - Diana Coupland - Under The Mango Tree.wav

Pre-gap length 0:00:00.67

Peak level 92.5 %
Extraction speed 4.5 X
Track quality 100.0 %
Test CRC 551D49DE
Copy CRC 551D49DE
Track not present in AccurateRip database
Copy OK

Track 3

Filename C:\Music\03 - The John Barry Orchestra - 007.wav

Pre-gap length 0:00:01.02

Peak level 88.2 %
Extraction speed 4.9 X
Track quality 100.0 %
Test CRC D10457BF
Copy CRC D10457BF
Track not present in AccurateRip database
Copy OK

Track 4

Filename C:\Music\04 - The John Barry Orchestra - Opening Titles (Medley).wav

Pre-gap length 0:00:01.12

Peak level 96.2 %
Extraction speed 4.9 X
Track quality 100.0 %
Test CRC FDBC1D7B
Copy CRC FDBC1D7B
Track not present in AccurateRip database
Copy OK

Track 5

Filename C:\Music\05 - The John Barry Orchestra - Into Miami.wav

Pre-gap length 0:00:02.35

Peak level 75.7 %
Extraction speed 3.8 X
Track quality 100.0 %
Test CRC 2BD737AF
Copy CRC 2BD737AF
Track not present in AccurateRip database
Copy OK

Track 6

Filename C:\Music\06 - The John Barry Orchestra - The Laser Beam.wav

Pre-gap length 0:00:02.04

Peak level 72.5 %
Extraction speed 5.4 X
Track quality 100.0 %
Test CRC 2A520DD0
Copy CRC 2A520DD0
Track not present in AccurateRip database
Copy OK

Track 7

Filename C:\Music\07 - Shirley Bassey - Mr. Kiss Kiss Bang Bang.wav

Pre-gap length 0:00:02.01

Peak level 95.1 %
Extraction speed 5.4 X
Track quality 100.0 %
Test CRC F2C29F54
Copy CRC F2C29F54
Track not present in AccurateRip database
Copy OK

Track 8

Filename C:\Music\08 - The John Barry Orchestra - Switching the Body.wav

Pre-gap length 0:00:01.36

Peak level 97.7 %
Extraction speed 5.8 X
Track quality 100.0 %
Test CRC A6294877
Copy CRC A6294877
Track not present in AccurateRip database
Copy OK

Track 9

Filename C:\Music\09 - The John Barry Orchestra - Capsule In Space.wav

Pre-gap length 0:00:01.60

Peak level 91.4 %
Extraction speed 6.0 X
Track quality 100.0 %
Test CRC D348BD31
Copy CRC D348BD31
Track not present in AccurateRip database
Copy OK

Track 10

Filename C:\Music\10 - Nina - Do You Know How Christmas Trees Are Grown.wav

Pre-gap length 0:00:00.74

Peak level 78.2 %
Extraction speed 6.4 X
Track quality 100.0 %
Test CRC AC27582C
Copy CRC AC27582C
Track not present in AccurateRip database
Copy OK

Track 11

Filename C:\Music\11 - The John Barry Orchestra - Bond Smells A Rat.wav

Pre-gap length 0:00:01.11

Peak level 81.4 %
Extraction speed 4.0 X
Track quality 100.0 %
Test CRC 346AF1B0
Copy CRC 346AF1B0
Track not present in AccurateRip database
Copy OK

Track 12

Filename C:\Music\12 - The George Martin Orchestra (featuring B.J. Arnau) - Fillet Of Soul-New Orleans - Live And Let Die - Fillet Of Soul-Harlem (Medley).wav

Pre-gap length 0:00:02.04

Peak level 83.3 %
Extraction speed 6.7 X
Track quality 100.0 %
Test CRC A3A6EFED
Copy CRC A3A6EFED
Track not present in AccurateRip database
Copy OK

Track 13

Filename C:\Music\13 - The John Barry Orchestra - Underground Lair.wav

Pre-gap length 0:00:02.40

Peak level 97.7 %
Extraction speed 7.3 X
Track quality 100.0 %
Test CRC 2CE0F5A0
Copy CRC 2CE0F5A0
Track not present in AccurateRip database
Copy OK

Track 14

Filename C:\Music\14 - The John Barry Orchestra - Hip's Trip.wav

Pre-gap length 0:00:01.70

Peak level 97.7 %
Extraction speed 6.2 X
Track quality 99.9 %
Test CRC 0B5BC47C
Copy CRC 0B5BC47C
Track not present in AccurateRip database
Copy OK

Track 15

Filename C:\Music\15 - Marvin Hamlisch - The Pyramids.wav

Pre-gap length 0:00:02.01

Peak level 97.7 %
Extraction speed 6.2 X
Track quality 100.0 %
Test CRC A77C4D16
Copy CRC A77C4D16
Track not present in AccurateRip database
Copy OK

Track 16

Filename C:\Music\16 - The John Barry Orchestra - Cable Car And Snake Fight.wav

Pre-gap length 0:00:02.16

Peak level 97.7 %
Extraction speed 7.4 X
Track quality 100.0 %
Test CRC 71BB9C4D
Copy CRC 71BB9C4D
Track not present in AccurateRip database
Copy OK

Track 17

Filename C:\Music\17 - Bill Conti (featuring Rage) - Make It Last All Night.wav

Pre-gap length 0:00:01.73

Peak level 97.7 %
Extraction speed 7.8 X
Track quality 100.0 %
Test CRC 708B66F2
Copy CRC 708B66F2
Track not present in AccurateRip database
Copy OK

Track 18

Filename C:\Music\18 - The John Barry Orchestra - The Chase Bomb Theme.wav

Pre-gap length 0:00:01.20

Peak level 94.9 %
Extraction speed 7.0 X
Track quality 100.0 %
Test CRC E5BF5A76
Copy CRC E5BF5A76
Track not present in AccurateRip database
Copy OK

Track 19

Filename C:\Music\19 - The John Barry Orchestra - Snow Job.wav

Pre-gap length 0:00:01.26

Peak level 97.7 %
Extraction speed 7.5 X
Track quality 100.0 %
Test CRC BCE52952
Copy CRC BCE52952
Track not present in AccurateRip database
Copy OK

Track 20

Filename C:\Music\20 - The Pretenders - Where Has Everybody Gone.wav

Pre-gap length 0:00:01.73

Peak level 97.7 %
Extraction speed 8.2 X
Track quality 100.0 %
Test CRC E440C03B
Copy CRC E440C03B
Track not present in AccurateRip database
Copy OK

Track 21

Filename C:\Music\21 - The Pretenders - If There Was A Man.wav

Pre-gap length 0:00:00.65

Peak level 97.7 %
Extraction speed 8.0 X
Track quality 100.0 %
Test CRC FBA48174
Copy CRC FBA48174
Track not present in AccurateRip database
Copy OK

Track 22

Filename C:\Music\22 - Eric Serra - The Experience Of Love.wav

Pre-gap length 0:00:01.30

Peak level 97.7 %
Extraction speed 9.1 X
Track quality 100.0 %
Test CRC 4485D1E7
Copy CRC 4485D1E7
Track not present in AccurateRip database
Copy OK

Track 23

Filename C:\Music\23 - Moby - James Bond Theme (Moby's Re-Version).wav

Pre-gap length 0:00:01.11

Peak level 81.8 %
Extraction speed 8.7 X
Track quality 100.0 %
Test CRC 9137F875
Copy CRC 9137F875
Track not present in AccurateRip database
Copy OK

Track 24

Filename C:\Music\24 - k.d. lang - Surrender.wav

Pre-gap length 0:00:01.42

Peak level 88.0 %
Extraction speed 9.1 X
Track quality 100.0 %
Test CRC 4A039E23
Copy CRC 4A039E23
Track not present in AccurateRip database
Copy OK

Track 25

Filename C:\Music\25 - Scott Walker - Only Myself To Blame.wav

Pre-gap length 0:00:01.17

Peak level 97.7 %
Extraction speed 9.1 X
Track quality 100.0 %
Test CRC F5031A0C
Copy CRC F5031A0C
Track not present in AccurateRip database
Copy OK

Track 26

Filename C:\Music\26 - David Arnold - Vesper.wav

Pre-gap length 0:00:01.39

Peak level 86.5 %
Extraction speed 8.0 X
Track quality 100.0 %
Test CRC 0FC7F4F0
Copy CRC 0FC7F4F0
Track not present in AccurateRip database
Copy OK

Track 27

Filename C:\Music\27 - David Arnold - Time To Get Out.wav

Pre-gap length 0:00:01.64

Peak level 95.8 %
Extraction speed 9.3 X
Track quality 100.0 %
Test CRC D3EED6AF
Copy CRC D3EED6AF
Track not present in AccurateRip database
Copy OK


None of the tracks are present in the AccurateRip database

No errors occurred

End of status report

==== Log checksum D4A406FDF9E02D6062680FADE1C333394BFBDEBE4ADCFB5178FF43D11615163A ====


Many thanks to the original uploader: Filex777

SEE also:
Ennio Morricone 2008 The Complete Edition [15 CD Box-Set]
Ennio Morricone 1992 Spiel Mir... Best Of Ennio Morricone [2CD]

Jerry Goldsmith 2012 The Shadow (OST) [2CD]



Password: pass