Subcategories

Michel De Villers Et Son Orchestre, Claude Bolling Et Son Orchestre - Danse à Saint-Germain-des-Prés [Recorded 1958-1961] (2001

Posted By: gribovar
Michel De Villers Et Son Orchestre, Claude Bolling Et Son Orchestre - Danse à Saint-Germain-des-Prés [Recorded 1958-1961] (2001

Michel De Villers Et Son Orchestre, Claude Bolling Et Son Orchestre - Danse a Saint-Germain-des-Pres [Recorded 1958-1961] (2001)
EAC Rip | FLAC (tracks+.cue+log) - 386 MB | MP3 CBR 320 kbps (LAME 3.93) - 156 MB | Covers - 46 MB
Genre: Jazz, Big Band, Swing | RAR 3% Rec. | Label: Universal Music (016 502-2)

Michel de Villers made the beautiful evenings of La Rose Rouge before attending the Trois Mailletz with his accomplices Guy Lafitte and André Persiani. Attached to the swing, the saxophonist worked to demonstrate that good music and entertainment were perfectly reconcilable. A point of view shared by Boris Vian, artistic director of Philips discs. His clientele demanding dance records, Boris supervised the recordings. Entrusted to Villers, arranged by Persiani, these big band faces from 1958 and 1959 - we ignore the staff - instrumental adaptations of fashionable themes, still retain all their charm. In 1961, Jean-Christophe Averty produced a Claude Bolling Special Show for television. The show featured the pianist's nonette, a medium formation that sounded like great. In the absence of images, the music testifies to it.
Tracklist:

Michel de Villers et son Orchestre
01. Topsy
02. Veal Isn't Good For Leony
03. Mes Frères
04. Fumée Aux Yeux
05. Twilight Time
06. My Prayer
07. Symphonie D'Un Sour
08. Sarah
09. Rock De L'Inauguration
10. Demain
11. Toi Le Venin
12. Vive Aznavour

Claude Bolling Spécial Show
13. En Chantant Cet Air Là
14. Lorraine Blues
15. Présentation Des Musiciens
16. Bowling Green
17. Rock A Bye Bolling
18. Le Piège
19. Bulles De Savon
20. Tranquillement
21. Annonce
22. Bach To Swing

Total time: 01:06:26

Exact Audio Copy V1.0 beta 3 from 29. August 2011

EAC extraction logfile from 3. April 2013, 12:43

Various Artists / Danse a Saint-Germain-des-Pres

Used drive : hp BD RW BD-5750H Adapter: 0 ID: 1

Read mode : Secure
Utilize accurate stream : Yes
Defeat audio cache : Yes
Make use of C2 pointers : No

Read offset correction : 48
Overread into Lead-In and Lead-Out : No
Fill up missing offset samples with silence : Yes
Delete leading and trailing silent blocks : No
Null samples used in CRC calculations : Yes
Used interface : Native Win32 interface for Win NT & 2000
Gap handling : Appended to previous track

Used output format : User Defined Encoder
Selected bitrate : 128 kBit/s
Quality : High
Add ID3 tag : No
Command line compressor : C:\Program Files (x86)\Audio\Exact Audio Copy\Flac\flac.exe
Additional command line options : -8 -V -T "ARTIST=%artist%" -T "TITLE=%title%" -T "ALBUM=%albumtitle%" -T "DATE=%year%" -T "TRACKNUMBER=%tracknr%" -T "TOTALTRACKS=%numtracks%" -T "GENRE=%genre%" -T "ALBUMARTIST=%albumartist%" -T "ALBUM ARTIST=%albumartist%" -T "COMMENT=EAC Secure Mode, Test & Copy, AccurateRip, FLAC -8" %source%


TOC of the extracted CD

Track | Start | Length | Start sector | End sector
––––––––––––––––––––––––––––-
1 | 0:00.00 | 3:14.38 | 0 | 14587
2 | 3:14.38 | 3:21.72 | 14588 | 29734
3 | 6:36.35 | 2:46.02 | 29735 | 42186
4 | 9:22.37 | 4:40.12 | 42187 | 63198
5 | 14:02.49 | 2:55.07 | 63199 | 76330
6 | 16:57.56 | 3:00.49 | 76331 | 89879
7 | 19:58.30 | 3:42.14 | 89880 | 106543
8 | 23:40.44 | 2:54.16 | 106544 | 119609
9 | 26:34.60 | 2:20.51 | 119610 | 130160
10 | 28:55.36 | 3:04.51 | 130161 | 144011
11 | 32:00.12 | 3:11.62 | 144012 | 158398
12 | 35:11.74 | 3:00.02 | 158399 | 171900
13 | 38:12.01 | 0:54.14 | 171901 | 175964
14 | 39:06.15 | 5:09.08 | 175965 | 199147
15 | 44:15.23 | 0:39.28 | 199148 | 202100
16 | 44:54.51 | 2:56.14 | 202101 | 215314
17 | 47:50.65 | 4:48.24 | 215315 | 236938
18 | 52:39.14 | 3:00.55 | 236939 | 250493
19 | 55:39.69 | 2:41.28 | 250494 | 262596
20 | 58:21.22 | 4:24.07 | 262597 | 282403
21 | 62:45.29 | 0:12.46 | 282404 | 283349
22 | 62:58.00 | 3:28.56 | 283350 | 299005


Track 1

Filename C:\AUDIO\JAZZ IN PARIS\Various Artists - Dance a Saint-Germain-des-Pres (1959-1961) [FLAC] {Gitanes 016 502-2}\01 - Michel de Villers et son orchestre - Topsy.wav

Pre-gap length 0:00:02.00

Peak level 69.9 %
Extraction speed 9.3 X
Track quality 99.9 %
Test CRC 5E6001CB
Copy CRC 5E6001CB
Cannot be verified as accurate (confidence 4) [6047551E], AccurateRip returned [F6B68731] (AR v2)
Copy OK

Track 2

Filename C:\AUDIO\JAZZ IN PARIS\Various Artists - Dance a Saint-Germain-des-Pres (1959-1961) [FLAC] {Gitanes 016 502-2}\02 - Michel de Villers et son orchestre - Veal Isn't Good for Leony.wav

Peak level 71.5 %
Extraction speed 10.8 X
Track quality 100.0 %
Test CRC A0E5D690
Copy CRC A0E5D690
Cannot be verified as accurate (confidence 4) [F6CCF2E7], AccurateRip returned [65833755] (AR v2)
Copy OK

Track 3

Filename C:\AUDIO\JAZZ IN PARIS\Various Artists - Dance a Saint-Germain-des-Pres (1959-1961) [FLAC] {Gitanes 016 502-2}\03 - Michel de Villers et son orchestre - Mes freres.wav

Peak level 69.7 %
Extraction speed 11.3 X
Track quality 100.0 %
Test CRC CA715C23
Copy CRC CA715C23
Cannot be verified as accurate (confidence 4) [A5C073B3], AccurateRip returned [D3862436] (AR v2)
Copy OK

Track 4

Filename C:\AUDIO\JAZZ IN PARIS\Various Artists - Dance a Saint-Germain-des-Pres (1959-1961) [FLAC] {Gitanes 016 502-2}\04 - Michel de Villers et son orchestre - Fumee aux yeux.wav

Peak level 61.2 %
Extraction speed 11.7 X
Track quality 99.9 %
Test CRC A33EC1D1
Copy CRC A33EC1D1
Cannot be verified as accurate (confidence 4) [2321C32D], AccurateRip returned [C95FFA21] (AR v2)
Copy OK

Track 5

Filename C:\AUDIO\JAZZ IN PARIS\Various Artists - Dance a Saint-Germain-des-Pres (1959-1961) [FLAC] {Gitanes 016 502-2}\05 - Michel de Villers et son orchestre - Twilight Time.wav

Peak level 72.2 %
Extraction speed 12.8 X
Track quality 100.0 %
Test CRC 99D88CD8
Copy CRC 99D88CD8
Cannot be verified as accurate (confidence 4) [5D15A639], AccurateRip returned [C865E003] (AR v2)
Copy OK

Track 6

Filename C:\AUDIO\JAZZ IN PARIS\Various Artists - Dance a Saint-Germain-des-Pres (1959-1961) [FLAC] {Gitanes 016 502-2}\06 - Michel de Villers et son orchestre - My Prayer.wav

Peak level 70.8 %
Extraction speed 13.3 X
Track quality 100.0 %
Test CRC 065BC034
Copy CRC 065BC034
Cannot be verified as accurate (confidence 4) [2FB9307C], AccurateRip returned [F3535EBC] (AR v2)
Copy OK

Track 7

Filename C:\AUDIO\JAZZ IN PARIS\Various Artists - Dance a Saint-Germain-des-Pres (1959-1961) [FLAC] {Gitanes 016 502-2}\07 - Michel de Villers et son orchestre - Symphonie d'un soir.wav

Peak level 77.2 %
Extraction speed 14.0 X
Track quality 100.0 %
Test CRC A4990C4D
Copy CRC A4990C4D
Cannot be verified as accurate (confidence 4) [E2D600DB], AccurateRip returned [E8DE465B] (AR v2)
Copy OK

Track 8

Filename C:\AUDIO\JAZZ IN PARIS\Various Artists - Dance a Saint-Germain-des-Pres (1959-1961) [FLAC] {Gitanes 016 502-2}\08 - Michel de Villers et son orchestre - Sarah.wav

Peak level 77.2 %
Extraction speed 14.3 X
Track quality 100.0 %
Test CRC E864C027
Copy CRC E864C027
Cannot be verified as accurate (confidence 4) [3CB97A35], AccurateRip returned [323B02D6] (AR v2)
Copy OK

Track 9

Filename C:\AUDIO\JAZZ IN PARIS\Various Artists - Dance a Saint-Germain-des-Pres (1959-1961) [FLAC] {Gitanes 016 502-2}\09 - Michel de Villers et son orchestre - Rock de l'inauguration.wav

Peak level 94.6 %
Extraction speed 14.3 X
Track quality 100.0 %
Test CRC 578760CF
Copy CRC 578760CF
Cannot be verified as accurate (confidence 4) [EA7AFFAB], AccurateRip returned [3E100631] (AR v2)
Copy OK

Track 10

Filename C:\AUDIO\JAZZ IN PARIS\Various Artists - Dance a Saint-Germain-des-Pres (1959-1961) [FLAC] {Gitanes 016 502-2}\10 - Michel de Villers et son orchestre - Demain.wav

Peak level 75.8 %
Extraction speed 15.1 X
Track quality 100.0 %
Test CRC 00C46270
Copy CRC 00C46270
Cannot be verified as accurate (confidence 4) [34D1184A], AccurateRip returned [13B25449] (AR v2)
Copy OK

Track 11

Filename C:\AUDIO\JAZZ IN PARIS\Various Artists - Dance a Saint-Germain-des-Pres (1959-1961) [FLAC] {Gitanes 016 502-2}\11 - Michel de Villers et son orchestre - Toi le venin.wav

Peak level 87.5 %
Extraction speed 15.5 X
Track quality 100.0 %
Test CRC 892A376C
Copy CRC 892A376C
Cannot be verified as accurate (confidence 4) [964DA619], AccurateRip returned [09FE80E2] (AR v2)
Copy OK

Track 12

Filename C:\AUDIO\JAZZ IN PARIS\Various Artists - Dance a Saint-Germain-des-Pres (1959-1961) [FLAC] {Gitanes 016 502-2}\12 - Michel de Villers et son orchestre - Vive Aznavour.wav

Peak level 92.9 %
Extraction speed 15.7 X
Track quality 100.0 %
Test CRC B01F642C
Copy CRC B01F642C
Cannot be verified as accurate (confidence 4) [C3F5DD73], AccurateRip returned [0FA91211] (AR v2)
Copy OK

Track 13

Filename C:\AUDIO\JAZZ IN PARIS\Various Artists - Dance a Saint-Germain-des-Pres (1959-1961) [FLAC] {Gitanes 016 502-2}\13 - Claude Bolling & his Orchestra - En chantant cet air-la.wav

Pre-gap length 0:00:04.45

Peak level 67.7 %
Extraction speed 12.8 X
Track quality 100.0 %
Test CRC 7DA2408F
Copy CRC 7DA2408F
Cannot be verified as accurate (confidence 4) [6217EC66], AccurateRip returned [F2BFB96A] (AR v2)
Copy OK

Track 14

Filename C:\AUDIO\JAZZ IN PARIS\Various Artists - Dance a Saint-Germain-des-Pres (1959-1961) [FLAC] {Gitanes 016 502-2}\14 - Claude Bolling & his Orchestra - Lorraine Blues.wav

Peak level 69.7 %
Extraction speed 15.8 X
Track quality 99.9 %
Test CRC 541A5472
Copy CRC 541A5472
Cannot be verified as accurate (confidence 4) [EA0F2441], AccurateRip returned [769B273D] (AR v2)
Copy OK

Track 15

Filename C:\AUDIO\JAZZ IN PARIS\Various Artists - Dance a Saint-Germain-des-Pres (1959-1961) [FLAC] {Gitanes 016 502-2}\15 - Claude Bolling & his Orchestra - Presentation des musiciens.wav

Peak level 52.8 %
Extraction speed 12.4 X
Track quality 100.0 %
Test CRC C6E04F7B
Copy CRC C6E04F7B
Cannot be verified as accurate (confidence 4) [CF5AC1DD], AccurateRip returned [E1530DA5] (AR v2)
Copy OK

Track 16

Filename C:\AUDIO\JAZZ IN PARIS\Various Artists - Dance a Saint-Germain-des-Pres (1959-1961) [FLAC] {Gitanes 016 502-2}\16 - Claude Bolling & his Orchestra - Bowling Green.wav

Peak level 66.2 %
Extraction speed 16.6 X
Track quality 100.0 %
Test CRC C8D12A06
Copy CRC C8D12A06
Cannot be verified as accurate (confidence 4) [B661BAFE], AccurateRip returned [5E2DA0EB] (AR v2)
Copy OK

Track 17

Filename C:\AUDIO\JAZZ IN PARIS\Various Artists - Dance a Saint-Germain-des-Pres (1959-1961) [FLAC] {Gitanes 016 502-2}\17 - Claude Bolling & his Orchestra - Rock A Bye Bolling.wav

Peak level 70.3 %
Extraction speed 17.8 X
Track quality 100.0 %
Test CRC 821EE9FE
Copy CRC 821EE9FE
Cannot be verified as accurate (confidence 4) [EC1E5B90], AccurateRip returned [6B511C3A] (AR v2)
Copy OK

Track 18

Filename C:\AUDIO\JAZZ IN PARIS\Various Artists - Dance a Saint-Germain-des-Pres (1959-1961) [FLAC] {Gitanes 016 502-2}\18 - Claude Bolling & his Orchestra - Le Piege.wav

Peak level 63.0 %
Extraction speed 17.5 X
Track quality 100.0 %
Test CRC E5BEF887
Copy CRC E5BEF887
Cannot be verified as accurate (confidence 4) [33B9A235], AccurateRip returned [9D034726] (AR v2)
Copy OK

Track 19

Filename C:\AUDIO\JAZZ IN PARIS\Various Artists - Dance a Saint-Germain-des-Pres (1959-1961) [FLAC] {Gitanes 016 502-2}\19 - Claude Bolling & his Orchestra - Bulles de savon.wav

Peak level 75.4 %
Extraction speed 17.4 X
Track quality 100.0 %
Test CRC EE3E3CD8
Copy CRC EE3E3CD8
Cannot be verified as accurate (confidence 4) [7472EB58], AccurateRip returned [909BD7FD] (AR v2)
Copy OK

Track 20

Filename C:\AUDIO\JAZZ IN PARIS\Various Artists - Dance a Saint-Germain-des-Pres (1959-1961) [FLAC] {Gitanes 016 502-2}\20 - Claude Bolling & his Orchestra - Tranquillement.wav

Peak level 73.4 %
Extraction speed 18.8 X
Track quality 100.0 %
Test CRC E0D56D12
Copy CRC E0D56D12
Cannot be verified as accurate (confidence 4) [2C158C40], AccurateRip returned [DD666B8E] (AR v2)
Copy OK

Track 21

Filename C:\AUDIO\JAZZ IN PARIS\Various Artists - Dance a Saint-Germain-des-Pres (1959-1961) [FLAC] {Gitanes 016 502-2}\21 - Claude Bolling & his Orchestra - Annonce.wav

Peak level 59.1 %
Extraction speed 3.6 X
Track quality 99.1 %
Test CRC E6B536DB
Copy CRC E6B536DB
Cannot be verified as accurate (confidence 4) [7AF88BAB], AccurateRip returned [43C232FA] (AR v2)
Copy OK

Track 22

Filename C:\AUDIO\JAZZ IN PARIS\Various Artists - Dance a Saint-Germain-des-Pres (1959-1961) [FLAC] {Gitanes 016 502-2}\22 - Claude Bolling & his Orchestra - Bach to Swing.wav

Peak level 66.8 %
Extraction speed 18.9 X
Track quality 100.0 %
Test CRC 8C14047C
Copy CRC 8C14047C
Cannot be verified as accurate (confidence 4) [57D74AF2], AccurateRip returned [0678387D] (AR v2)
Copy OK


No tracks could be verified as accurate
You may have a different pressing from the one(s) in the database

No errors occurred

End of status report

==== Log checksum E58474558B55DAE0C074B1CDCAEF067A9651062EE85AC362721EF9D699ADDC36 ====

[CUETools log; Date: 01.04.2020 2:37:34; Version: 2.1.4]
[CTDB TOCID: ZBR0u3ivBuoBewegFFG7ePWBO2M-] found.
Track | CTDB Status
1 | (19/19) Accurately ripped
2 | (19/19) Accurately ripped
3 | (19/19) Accurately ripped
4 | (19/19) Accurately ripped
5 | (19/19) Accurately ripped
6 | (19/19) Accurately ripped
7 | (19/19) Accurately ripped
8 | (19/19) Accurately ripped
9 | (19/19) Accurately ripped
10 | (19/19) Accurately ripped
11 | (19/19) Accurately ripped
12 | (19/19) Accurately ripped
13 | (19/19) Accurately ripped
14 | (19/19) Accurately ripped
15 | (19/19) Accurately ripped
16 | (19/19) Accurately ripped
17 | (19/19) Accurately ripped
18 | (19/19) Accurately ripped
19 | (19/19) Accurately ripped
20 | (19/19) Accurately ripped
21 | (19/19) Accurately ripped
22 | (19/19) Accurately ripped
[AccurateRip ID: 00363a4a-035b1c0f-430f9216] found.
Track [ CRC | V2 ] Status
01 [f528df75|6047551e] (00+02/15) Accurately ripped
02 [8f62430f|f6ccf2e7] (00+02/15) Accurately ripped
03 [9bbedc4a|a5c073b3] (00+02/15) Accurately ripped
04 [3fc39691|2321c32d] (00+02/15) Accurately ripped
05 [879907f5|5d15a639] (00+02/15) Accurately ripped
06 [897b0df0|2fb9307c] (00+02/15) Accurately ripped
07 [b6b3428f|e2d600db] (00+02/15) Accurately ripped
08 [26e25652|3cb97a35] (00+02/15) Accurately ripped
09 [bbcc67d3|ea7affab] (00+02/15) Accurately ripped
10 [83e37b0f|34d1184a] (00+02/15) Accurately ripped
11 [5194e174|964da619] (00+02/15) Accurately ripped
12 [aff30e17|c3f5dd73] (00+02/15) Accurately ripped
13 [1b9aa40a|6217ec66] (00+02/15) Accurately ripped
14 [9745f409|ea0f2441] (00+02/15) Accurately ripped
15 [5514df56|cf5ac1dd] (00+02/15) Accurately ripped
16 [12780845|b661bafe] (00+02/15) Accurately ripped
17 [d1587ad4|ec1e5b90] (00+02/15) Accurately ripped
18 [ef1abf97|33b9a235] (00+02/15) Accurately ripped
19 [6cd3cd36|7472eb58] (00+02/15) Accurately ripped
20 [d9026fe0|2c158c40] (00+02/15) Accurately ripped
21 [0f5249bd|7af88bab] (00+02/15) Accurately ripped
22 [3caa3b49|57d74af2] (00+02/15) Accurately ripped
Offsetted by 670:
01 [f6b68731] (04/15) Accurately ripped
02 [65833755] (04/15) Accurately ripped
03 [d3862436] (04/15) Accurately ripped
04 [c95ffa21] (04/15) Accurately ripped
05 [c865e003] (04/15) Accurately ripped
06 [f3535ebc] (04/15) Accurately ripped
07 [e8de465b] (04/15) Accurately ripped
08 [323b02d6] (04/15) Accurately ripped
09 [3e100631] (04/15) Accurately ripped
10 [13b25449] (04/15) Accurately ripped
11 [09fe80e2] (04/15) Accurately ripped
12 [0fa91211] (04/15) Accurately ripped
13 [f2bfb96a] (04/15) Accurately ripped
14 [769b273d] (04/15) Accurately ripped
15 [e1530da5] (04/15) Accurately ripped
16 [5e2da0eb] (04/15) Accurately ripped
17 [6b511c3a] (04/15) Accurately ripped
18 [9d034726] (04/15) Accurately ripped
19 [909bd7fd] (04/15) Accurately ripped
20 [dd666b8e] (04/15) Accurately ripped
21 [43c232fa] (04/15) Accurately ripped
22 [0678387d] (04/15) Accurately ripped

Track Peak [ CRC32 ] [W/O NULL] [ LOG ]
– 94,6 [365AFEFC] [8E823573]
01 69,9 [5E6001CB] [608D00DF] CRC32
02 71,5 [A0E5D690] [6F3B9DA6] CRC32
03 69,7 [CA715C23] [939DC949] CRC32
04 61,2 [A33EC1D1] [7D6E3D44] CRC32
05 72,2 [99D88CD8] [3B583040] CRC32
06 70,8 [065BC034] [3F895771] CRC32
07 77,2 [A4990C4D] [984D3412] CRC32
08 77,2 [E864C027] [B6045685] CRC32
09 94,6 [578760CF] [69D9FAE6] CRC32
10 75,8 [00C46270] [B849EB97] CRC32
11 87,5 [892A376C] [E4B5B2C5] CRC32
12 92,9 [B01F642C] [0070469C] CRC32
13 67,7 [7DA2408F] [215E0705] CRC32
14 69,7 [541A5472] [59F0212C] CRC32
15 52,8 [C6E04F7B] [9AA233E4] CRC32
16 66,2 [C8D12A06] [8175506C] CRC32
17 70,3 [821EE9FE] [FC00DC5E] CRC32
18 63,0 [E5BEF887] [1A925519] CRC32
19 75,4 [EE3E3CD8] [ECBCB3FF] CRC32
20 73,4 [E0D56D12] [CD894B1D] CRC32
21 59,1 [E6B536DB] [CA11330F] CRC32
22 66,8 [8C14047C] [86D552A7] CRC32

Thanks to the original releaser

See also:
Hubert Rostaing, Maurice Meuni...és [Recorded 1956-1957] (2001)
V.A. - Saxophones à Saint-Germain des Prés [Recorded 1954-1963] (2001)
Bernard Peiffer, Bernard Zacha...es-Prés [Recorded 1954] (2000)
Albert Nicholas, Jimmy Archey ...és [Recorded 1954-1955] (2000)