Subcategories
Tags
Language
Tags

VA - Light Mellow - One Day [3CD Box Set] (2016)

Posted By: JET 1
VA - Light Mellow - One Day [3CD Box Set] (2016)

VA - Light Mellow - One Day [3CD Box Set] (2016)
EAC Rip | FLAC (Tracks) +CUE, LOG | 1.5 GB
Genre: AOR, Pop Rock, Soft Rock, Soul | Label: Sony Records Int'l | Catalog Number: SICP 4791~3

It has been 40 years since the release of Boz Scaggs "Silk Degrees", which is said to be the original AOR! It is a 3-disc set that can be said to be the decisive board of the AOR compilation, and the song selection and supervision is by Mr. Toshikazu Kanazawa, a leading expert in AOR criticism. It covers everything from AOR classics such as Boz Scaggs, TOTO, and AirPlay to maniac songs unique to this compilation.

Exact Audio Copy V1.5 from 20. February 2020

EAC extraction logfile from 27. June 2020, 10:23

Various Artists / Light Mellow: One Day

Used drive : Optiarc BD ROM BC-5500S Adapter: 1 ID: 0

Read mode : Secure
Utilize accurate stream : Yes
Defeat audio cache : Yes
Make use of C2 pointers : No

Read offset correction : 48
Overread into Lead-In and Lead-Out : No
Fill up missing offset samples with silence : Yes
Delete leading and trailing silent blocks : No
Null samples used in CRC calculations : Yes
Used interface : Native Win32 interface for Win NT & 2000
Gap handling : Appended to previous track

Used output format : User Defined Encoder
Selected bitrate : 768 kBit/s
Quality : High
Add ID3 tag : No
Command line compressor : C:\Program Files (x86)\Exact Audio Copy\FLAC\FLAC.EXE
Additional command line options : -8 -e -p -V -T "ARTIST=%artist%" -T "TITLE=%title%" -T "ALBUM=%albumtitle%" -T "DATE=%year%" -T "TRACKNUMBER=%tracknr%" -T "GENRE=%genre%" -T "PERFORMER=%albuminterpret%" -T "COMPOSER=%composer%" %haslyrics%–tag-from-file=LYRICS="%lyricsfile%"%haslyrics% -T "ALBUMARTIST=%albumartist%" -T "DISCNUMBER=%cdnumber%" -T "TOTALDISCS=%totalcds%" -T "TOTALTRACKS=%numtracks%" -T "COMMENT=%comment%" %source% -o %dest%


TOC of the extracted CD

Track | Start | Length | Start sector | End sector
––––––––––––––––––––––––––––-
1 | 0:00.00 | 5:00.47 | 0 | 22546
2 | 5:00.47 | 3:58.10 | 22547 | 40406
3 | 8:58.57 | 3:41.67 | 40407 | 57048
4 | 12:40.49 | 4:45.64 | 57049 | 78487
5 | 17:26.38 | 3:53.56 | 78488 | 96018
6 | 21:20.19 | 3:02.69 | 96019 | 109737
7 | 24:23.13 | 3:56.63 | 109738 | 127500
8 | 28:20.01 | 3:40.42 | 127501 | 144042
9 | 32:00.43 | 3:51.20 | 144043 | 161387
10 | 35:51.63 | 3:36.66 | 161388 | 177653
11 | 39:28.54 | 3:31.36 | 177654 | 193514
12 | 43:00.15 | 3:28.73 | 193515 | 209187
13 | 46:29.13 | 3:24.44 | 209188 | 224531
14 | 49:53.57 | 3:15.60 | 224532 | 239216
15 | 53:09.42 | 3:25.01 | 239217 | 254592
16 | 56:34.43 | 4:38.62 | 254593 | 275504
17 | 61:13.30 | 3:23.01 | 275505 | 290730
18 | 64:36.31 | 3:50.00 | 290731 | 307980
19 | 68:26.31 | 4:18.30 | 307981 | 327360
20 | 72:44.61 | 4:14.09 | 327361 | 346419


Track 1

Filename C:\CD Rips\Various Artists - Light Mellow-One Day (2016) {SICP 4791~3} [FLAC]\Disc 1 - Morning Glory\01 - For You.wav

Pre-gap length 0:00:02.00

Peak level 100.0 %
Extraction speed 2.6 X
Track quality 100.0 %
Test CRC 90984245
Copy CRC 90984245
Accurately ripped (confidence 9) [0A99E1B1] (AR v2)
Copy OK

Track 2

Filename C:\CD Rips\Various Artists - Light Mellow-One Day (2016) {SICP 4791~3} [FLAC]\Disc 1 - Morning Glory\02 - Wait a Little While.wav

Peak level 100.0 %
Extraction speed 2.8 X
Track quality 100.0 %
Test CRC E02EA4B8
Copy CRC E02EA4B8
Accurately ripped (confidence 9) [DF71D48E] (AR v2)
Copy OK

Track 3

Filename C:\CD Rips\Various Artists - Light Mellow-One Day (2016) {SICP 4791~3} [FLAC]\Disc 1 - Morning Glory\03 - So, So, Happy.wav

Peak level 94.1 %
Extraction speed 3.0 X
Track quality 100.0 %
Test CRC 5CB1CBDF
Copy CRC 5CB1CBDF
Accurately ripped (confidence 9) [D8D92322] (AR v2)
Copy OK

Track 4

Filename C:\CD Rips\Various Artists - Light Mellow-One Day (2016) {SICP 4791~3} [FLAC]\Disc 1 - Morning Glory\04 - Nothin’ You Can Do About It.wav

Peak level 100.0 %
Extraction speed 2.8 X
Track quality 99.9 %
Test CRC 57668792
Copy CRC 57668792
Accurately ripped (confidence 9) [23BE0DC0] (AR v2)
Copy OK

Track 5

Filename C:\CD Rips\Various Artists - Light Mellow-One Day (2016) {SICP 4791~3} [FLAC]\Disc 1 - Morning Glory\05 - I Go Crazy.wav

Peak level 93.5 %
Extraction speed 3.4 X
Track quality 100.0 %
Test CRC BF312666
Copy CRC BF312666
Accurately ripped (confidence 9) [A3AA552D] (AR v2)
Copy OK

Track 6

Filename C:\CD Rips\Various Artists - Light Mellow-One Day (2016) {SICP 4791~3} [FLAC]\Disc 1 - Morning Glory\06 - On and On.wav

Peak level 100.0 %
Extraction speed 2.7 X
Track quality 99.9 %
Test CRC 24EC9519
Copy CRC 24EC9519
Accurately ripped (confidence 9) [5118E096] (AR v2)
Copy OK

Track 7

Filename C:\CD Rips\Various Artists - Light Mellow-One Day (2016) {SICP 4791~3} [FLAC]\Disc 1 - Morning Glory\07 - Stephanie.wav

Peak level 100.0 %
Extraction speed 3.7 X
Track quality 100.0 %
Test CRC 2B829B4C
Copy CRC 2B829B4C
Accurately ripped (confidence 10) [BB2E7560] (AR v2)
Copy OK

Track 8

Filename C:\CD Rips\Various Artists - Light Mellow-One Day (2016) {SICP 4791~3} [FLAC]\Disc 1 - Morning Glory\08 - What Good Is Love.wav

Peak level 96.8 %
Extraction speed 3.8 X
Track quality 100.0 %
Test CRC C8F0C865
Copy CRC C8F0C865
Accurately ripped (confidence 10) [562B3FA9] (AR v2)
Copy OK

Track 9

Filename C:\CD Rips\Various Artists - Light Mellow-One Day (2016) {SICP 4791~3} [FLAC]\Disc 1 - Morning Glory\09 - Only a Lonely Heart Sees.wav

Peak level 100.0 %
Extraction speed 3.9 X
Track quality 100.0 %
Test CRC FA1F2A71
Copy CRC FA1F2A71
Accurately ripped (confidence 10) [3D9A3230] (AR v2)
Copy OK

Track 10

Filename C:\CD Rips\Various Artists - Light Mellow-One Day (2016) {SICP 4791~3} [FLAC]\Disc 1 - Morning Glory\10 - Personally.wav

Peak level 100.0 %
Extraction speed 4.1 X
Track quality 100.0 %
Test CRC E848AED8
Copy CRC E848AED8
Accurately ripped (confidence 10) [B05EC51C] (AR v2)
Copy OK

Track 11

Filename C:\CD Rips\Various Artists - Light Mellow-One Day (2016) {SICP 4791~3} [FLAC]\Disc 1 - Morning Glory\11 - Next to You.wav

Peak level 90.6 %
Extraction speed 3.4 X
Track quality 99.9 %
Test CRC 91E8F2D6
Copy CRC 91E8F2D6
Accurately ripped (confidence 10) [4A27D918] (AR v2)
Copy OK

Track 12

Filename C:\CD Rips\Various Artists - Light Mellow-One Day (2016) {SICP 4791~3} [FLAC]\Disc 1 - Morning Glory\12 - I Don’t Break Easily.wav

Peak level 100.0 %
Extraction speed 4.4 X
Track quality 100.0 %
Test CRC 385BD578
Copy CRC 385BD578
Accurately ripped (confidence 10) [82371FF9] (AR v2)
Copy OK

Track 13

Filename C:\CD Rips\Various Artists - Light Mellow-One Day (2016) {SICP 4791~3} [FLAC]\Disc 1 - Morning Glory\13 - Angel Heart.wav

Peak level 100.0 %
Extraction speed 4.5 X
Track quality 100.0 %
Test CRC 968B0D1F
Copy CRC 968B0D1F
Accurately ripped (confidence 10) [73BB0AE2] (AR v2)
Copy OK

Track 14

Filename C:\CD Rips\Various Artists - Light Mellow-One Day (2016) {SICP 4791~3} [FLAC]\Disc 1 - Morning Glory\14 - Breaking Away.wav

Peak level 98.0 %
Extraction speed 4.5 X
Track quality 100.0 %
Test CRC BA7AED39
Copy CRC BA7AED39
Accurately ripped (confidence 10) [25551D65] (AR v2)
Copy OK

Track 15

Filename C:\CD Rips\Various Artists - Light Mellow-One Day (2016) {SICP 4791~3} [FLAC]\Disc 1 - Morning Glory\15 - Never Gonna Let You Go.wav

Peak level 100.0 %
Extraction speed 4.7 X
Track quality 100.0 %
Test CRC 705AF162
Copy CRC 705AF162
Accurately ripped (confidence 10) [10494119] (AR v2)
Copy OK

Track 16

Filename C:\CD Rips\Various Artists - Light Mellow-One Day (2016) {SICP 4791~3} [FLAC]\Disc 1 - Morning Glory\16 - Stop Me From Starting This Feeling.wav

Peak level 100.0 %
Extraction speed 4.9 X
Track quality 100.0 %
Test CRC 4BCE7E8E
Copy CRC 4BCE7E8E
Accurately ripped (confidence 10) [8D884BE3] (AR v2)
Copy OK

Track 17

Filename C:\CD Rips\Various Artists - Light Mellow-One Day (2016) {SICP 4791~3} [FLAC]\Disc 1 - Morning Glory\17 - Reckless.wav

Peak level 99.9 %
Extraction speed 4.9 X
Track quality 100.0 %
Test CRC 2B43099D
Copy CRC 2B43099D
Accurately ripped (confidence 9) [D36C112A] (AR v2)
Copy OK

Track 18

Filename C:\CD Rips\Various Artists - Light Mellow-One Day (2016) {SICP 4791~3} [FLAC]\Disc 1 - Morning Glory\18 - Runnin’ and Hidin’.wav

Peak level 99.7 %
Extraction speed 5.0 X
Track quality 100.0 %
Test CRC A1663C78
Copy CRC A1663C78
Accurately ripped (confidence 9) [8A80F8D2] (AR v2)
Copy OK

Track 19

Filename C:\CD Rips\Various Artists - Light Mellow-One Day (2016) {SICP 4791~3} [FLAC]\Disc 1 - Morning Glory\19 - All Right.wav

Peak level 100.0 %
Extraction speed 5.3 X
Track quality 100.0 %
Test CRC E2D78712
Copy CRC E2D78712
Accurately ripped (confidence 9) [772F0A8A] (AR v2)
Copy OK

Track 20

Filename C:\CD Rips\Various Artists - Light Mellow-One Day (2016) {SICP 4791~3} [FLAC]\Disc 1 - Morning Glory\20 - The Crime That Pays.wav

Peak level 100.0 %
Extraction speed 5.3 X
Track quality 100.0 %
Test CRC 9DF41EDE
Copy CRC 9DF41EDE
Accurately ripped (confidence 9) [8CE055BD] (AR v2)
Copy OK


All tracks accurately ripped

No errors occurred

End of status report

–– CUETools DB Plugin V2.1.6

[CTDB TOCID: kT_legNvbru0hYRVzfD9HGNhv6Y-] found
Submit result: kT_legNvbru0hYRVzfD9HGNhv6Y- has been confirmed
Track | CTDB Status
1 | (63/63) Accurately ripped
2 | (63/63) Accurately ripped
3 | (63/63) Accurately ripped
4 | (63/63) Accurately ripped
5 | (63/63) Accurately ripped
6 | (63/63) Accurately ripped
7 | (63/63) Accurately ripped
8 | (63/63) Accurately ripped
9 | (63/63) Accurately ripped
10 | (63/63) Accurately ripped
11 | (63/63) Accurately ripped
12 | (63/63) Accurately ripped
13 | (63/63) Accurately ripped
14 | (63/63) Accurately ripped
15 | (63/63) Accurately ripped
16 | (63/63) Accurately ripped
17 | (57/63) Accurately ripped
18 | (52/63) Accurately ripped
19 | (56/63) Accurately ripped
20 | (54/63) Accurately ripped


==== Log checksum D091712189F54BB943713AC9E9B9D5906E435D460B7E3B7DEF8EBBFACB328915 ====

Exact Audio Copy V1.5 from 20. February 2020

EAC extraction logfile from 27. June 2020, 12:55

Various Artists / Light Mellow: One Day

Used drive : Optiarc BD ROM BC-5500S Adapter: 1 ID: 0

Read mode : Secure
Utilize accurate stream : Yes
Defeat audio cache : Yes
Make use of C2 pointers : No

Read offset correction : 48
Overread into Lead-In and Lead-Out : No
Fill up missing offset samples with silence : Yes
Delete leading and trailing silent blocks : No
Null samples used in CRC calculations : Yes
Used interface : Native Win32 interface for Win NT & 2000
Gap handling : Appended to previous track

Used output format : User Defined Encoder
Selected bitrate : 768 kBit/s
Quality : High
Add ID3 tag : No
Command line compressor : C:\Program Files (x86)\Exact Audio Copy\FLAC\FLAC.EXE
Additional command line options : -8 -e -p -V -T "ARTIST=%artist%" -T "TITLE=%title%" -T "ALBUM=%albumtitle%" -T "DATE=%year%" -T "TRACKNUMBER=%tracknr%" -T "GENRE=%genre%" -T "PERFORMER=%albuminterpret%" -T "COMPOSER=%composer%" %haslyrics%–tag-from-file=LYRICS="%lyricsfile%"%haslyrics% -T "ALBUMARTIST=%albumartist%" -T "DISCNUMBER=%cdnumber%" -T "TOTALDISCS=%totalcds%" -T "TOTALTRACKS=%numtracks%" -T "COMMENT=%comment%" %source% -o %dest%


TOC of the extracted CD

Track | Start | Length | Start sector | End sector
––––––––––––––––––––––––––––-
1 | 0:00.00 | 5:29.39 | 0 | 24713
2 | 5:29.39 | 2:44.53 | 24714 | 37066
3 | 8:14.17 | 3:19.66 | 37067 | 52057
4 | 11:34.08 | 3:36.15 | 52058 | 68272
5 | 15:10.23 | 5:56.05 | 68273 | 94977
6 | 21:06.28 | 4:18.38 | 94978 | 114365
7 | 25:24.66 | 4:11.40 | 114366 | 133230
8 | 29:36.31 | 4:30.43 | 133231 | 153523
9 | 34:06.74 | 4:03.01 | 153524 | 171749
10 | 38:10.00 | 4:35.31 | 171750 | 192405
11 | 42:45.31 | 4:14.66 | 192406 | 211521
12 | 47:00.22 | 5:25.66 | 211522 | 235962
13 | 52:26.13 | 4:22.44 | 235963 | 255656
14 | 56:48.57 | 4:07.24 | 255657 | 274205
15 | 60:56.06 | 3:49.00 | 274206 | 291380
16 | 64:45.06 | 3:26.42 | 291381 | 306872
17 | 68:11.48 | 4:45.39 | 306873 | 328286
18 | 72:57.12 | 4:50.32 | 328287 | 350068


Track 1

Filename C:\CD Rips\Various Artists - Light Mellow-One Day (2016) {SICP 4791~3} [FLAC]\Disc 2 - Afternoon Breeze\01 - City Magic.wav

Pre-gap length 0:00:02.00

Peak level 99.9 %
Extraction speed 2.6 X
Track quality 100.0 %
Test CRC C1DAFC8C
Copy CRC C1DAFC8C
Accurately ripped (confidence 11) [74C22138] (AR v2)
Copy OK

Track 2

Filename C:\CD Rips\Various Artists - Light Mellow-One Day (2016) {SICP 4791~3} [FLAC]\Disc 2 - Afternoon Breeze\02 - Hearts on Fire.wav

Peak level 97.9 %
Extraction speed 2.6 X
Track quality 100.0 %
Test CRC 0B9CE307
Copy CRC 0B9CE307
Accurately ripped (confidence 11) [0E7664E1] (AR v2)
Copy OK

Track 3

Filename C:\CD Rips\Various Artists - Light Mellow-One Day (2016) {SICP 4791~3} [FLAC]\Disc 2 - Afternoon Breeze\03 - Don’t Talk.wav

Peak level 97.6 %
Extraction speed 2.8 X
Track quality 100.0 %
Test CRC 5B0436EF
Copy CRC 5B0436EF
Accurately ripped (confidence 11) [06A6A5DD] (AR v2)
Copy OK

Track 4

Filename C:\CD Rips\Various Artists - Light Mellow-One Day (2016) {SICP 4791~3} [FLAC]\Disc 2 - Afternoon Breeze\04 - Sing to Me.wav

Peak level 100.0 %
Extraction speed 3.1 X
Track quality 100.0 %
Test CRC AD280564
Copy CRC AD280564
Accurately ripped (confidence 11) [6AFDF3EF] (AR v2)
Copy OK

Track 5

Filename C:\CD Rips\Various Artists - Light Mellow-One Day (2016) {SICP 4791~3} [FLAC]\Disc 2 - Afternoon Breeze\05 - Seeing You (for the First Time).wav

Peak level 99.2 %
Extraction speed 3.5 X
Track quality 100.0 %
Test CRC 8AE08354
Copy CRC 8AE08354
Accurately ripped (confidence 11) [12EE5049] (AR v2)
Copy OK

Track 6

Filename C:\CD Rips\Various Artists - Light Mellow-One Day (2016) {SICP 4791~3} [FLAC]\Disc 2 - Afternoon Breeze\06 - Who’s Right, Who’s Wrong.wav

Peak level 100.0 %
Extraction speed 3.6 X
Track quality 100.0 %
Test CRC B2848DF0
Copy CRC B2848DF0
Accurately ripped (confidence 11) [65C96EC2] (AR v2)
Copy OK

Track 7

Filename C:\CD Rips\Various Artists - Light Mellow-One Day (2016) {SICP 4791~3} [FLAC]\Disc 2 - Afternoon Breeze\07 - Him.wav

Peak level 100.0 %
Extraction speed 3.7 X
Track quality 100.0 %
Test CRC 3FEB33BD
Copy CRC 3FEB33BD
Accurately ripped (confidence 11) [F748234B] (AR v2)
Copy OK

Track 8

Filename C:\CD Rips\Various Artists - Light Mellow-One Day (2016) {SICP 4791~3} [FLAC]\Disc 2 - Afternoon Breeze\08 - Paradise.wav

Peak level 100.0 %
Extraction speed 3.3 X
Track quality 99.9 %
Test CRC 41B0D80B
Copy CRC 41B0D80B
Accurately ripped (confidence 11) [243D0C97] (AR v2)
Copy OK

Track 9

Filename C:\CD Rips\Various Artists - Light Mellow-One Day (2016) {SICP 4791~3} [FLAC]\Disc 2 - Afternoon Breeze\09 - Casablanca.wav

Peak level 100.0 %
Extraction speed 3.4 X
Track quality 99.9 %
Test CRC DFF9CEF8
Copy CRC DFF9CEF8
Accurately ripped (confidence 11) [A7838698] (AR v2)
Copy OK

Track 10

Filename C:\CD Rips\Various Artists - Light Mellow-One Day (2016) {SICP 4791~3} [FLAC]\Disc 2 - Afternoon Breeze\10 - Hold On.wav

Peak level 95.8 %
Extraction speed 4.3 X
Track quality 100.0 %
Test CRC C1D69947
Copy CRC C1D69947
Accurately ripped (confidence 11) [F0FD125F] (AR v2)
Copy OK

Track 11

Filename C:\CD Rips\Various Artists - Light Mellow-One Day (2016) {SICP 4791~3} [FLAC]\Disc 2 - Afternoon Breeze\11 - You Should Hear How She Talks About You.wav

Peak level 99.6 %
Extraction speed 4.4 X
Track quality 100.0 %
Test CRC 5087ED26
Copy CRC 5087ED26
Accurately ripped (confidence 11) [011391F4] (AR v2)
Copy OK

Track 12

Filename C:\CD Rips\Various Artists - Light Mellow-One Day (2016) {SICP 4791~3} [FLAC]\Disc 2 - Afternoon Breeze\12 - Lazy Nina.wav

Peak level 93.3 %
Extraction speed 4.7 X
Track quality 100.0 %
Test CRC 1759992B
Copy CRC 1759992B
Accurately ripped (confidence 11) [F9DD46D4] (AR v2)
Copy OK

Track 13

Filename C:\CD Rips\Various Artists - Light Mellow-One Day (2016) {SICP 4791~3} [FLAC]\Disc 2 - Afternoon Breeze\13 - Song for a Sucker Like You.wav

Peak level 95.4 %
Extraction speed 4.0 X
Track quality 99.9 %
Test CRC 2442B528
Copy CRC 2442B528
Accurately ripped (confidence 11) [75685BC3] (AR v2)
Copy OK

Track 14

Filename C:\CD Rips\Various Artists - Light Mellow-One Day (2016) {SICP 4791~3} [FLAC]\Disc 2 - Afternoon Breeze\14 - Wait for Me.wav

Peak level 100.0 %
Extraction speed 4.0 X
Track quality 99.9 %
Test CRC 45F18B5E
Copy CRC 45F18B5E
Accurately ripped (confidence 11) [D08CB314] (AR v2)
Copy OK

Track 15

Filename C:\CD Rips\Various Artists - Light Mellow-One Day (2016) {SICP 4791~3} [FLAC]\Disc 2 - Afternoon Breeze\15 - You’re Only Lonely.wav

Peak level 100.0 %
Extraction speed 4.9 X
Track quality 100.0 %
Test CRC C34159CC
Copy CRC C34159CC
Accurately ripped (confidence 10) [72A749C8] (AR v2)
Copy OK

Track 16

Filename C:\CD Rips\Various Artists - Light Mellow-One Day (2016) {SICP 4791~3} [FLAC]\Disc 2 - Afternoon Breeze\16 - If I Were You.wav

Peak level 100.0 %
Extraction speed 4.9 X
Track quality 100.0 %
Test CRC 72079870
Copy CRC 72079870
Accurately ripped (confidence 11) [5C13248C] (AR v2)
Copy OK

Track 17

Filename C:\CD Rips\Various Artists - Light Mellow-One Day (2016) {SICP 4791~3} [FLAC]\Disc 2 - Afternoon Breeze\17 - What You Won’t Do for Love.wav

Peak level 97.7 %
Extraction speed 4.5 X
Track quality 99.9 %
Test CRC 33389D41
Copy CRC 33389D41
Accurately ripped (confidence 11) [40A82F86] (AR v2)
Copy OK

Track 18

Filename C:\CD Rips\Various Artists - Light Mellow-One Day (2016) {SICP 4791~3} [FLAC]\Disc 2 - Afternoon Breeze\18 - Musician (It’s Not an Easy Life).wav

Peak level 96.6 %
Extraction speed 5.4 X
Track quality 100.0 %
Test CRC E265945C
Copy CRC E265945C
Accurately ripped (confidence 9) [65BD01FC] (AR v2)
Copy OK


All tracks accurately ripped

No errors occurred

End of status report

–– CUETools DB Plugin V2.1.6

[CTDB TOCID: rb.3.xDxWe9pLyspdja07IjL6AA-] found
Submit result: rb.3.xDxWe9pLyspdja07IjL6AA- has been confirmed
Track | CTDB Status
1 | (68/68) Accurately ripped
2 | (68/68) Accurately ripped
3 | (68/68) Accurately ripped
4 | (68/68) Accurately ripped
5 | (68/68) Accurately ripped
6 | (68/68) Accurately ripped
7 | (68/68) Accurately ripped
8 | (68/68) Accurately ripped
9 | (67/68) Accurately ripped
10 | (68/68) Accurately ripped
11 | (68/68) Accurately ripped
12 | (67/68) Accurately ripped
13 | (68/68) Accurately ripped
14 | (68/68) Accurately ripped
15 | (64/68) Accurately ripped
16 | (66/68) Accurately ripped
17 | (62/68) Accurately ripped
18 | (58/68) Accurately ripped, or (2/68) differs in 46 samples @03:14:69-03:14:70


==== Log checksum E93B7A9C3511919976110D0BDC07A4E98772208EE98150D536E30EBF129F16C4 ====

Exact Audio Copy V1.5 from 20. February 2020

EAC extraction logfile from 27. June 2020, 14:45

Various Artists / Light Mellow: One Day

Used drive : Optiarc BD ROM BC-5500S Adapter: 1 ID: 0

Read mode : Secure
Utilize accurate stream : Yes
Defeat audio cache : Yes
Make use of C2 pointers : No

Read offset correction : 48
Overread into Lead-In and Lead-Out : No
Fill up missing offset samples with silence : Yes
Delete leading and trailing silent blocks : No
Null samples used in CRC calculations : Yes
Used interface : Native Win32 interface for Win NT & 2000
Gap handling : Appended to previous track

Used output format : User Defined Encoder
Selected bitrate : 768 kBit/s
Quality : High
Add ID3 tag : No
Command line compressor : C:\Program Files (x86)\Exact Audio Copy\FLAC\FLAC.EXE
Additional command line options : -8 -e -p -V -T "ARTIST=%artist%" -T "TITLE=%title%" -T "ALBUM=%albumtitle%" -T "DATE=%year%" -T "TRACKNUMBER=%tracknr%" -T "GENRE=%genre%" -T "PERFORMER=%albuminterpret%" -T "COMPOSER=%composer%" %haslyrics%–tag-from-file=LYRICS="%lyricsfile%"%haslyrics% -T "ALBUMARTIST=%albumartist%" -T "DISCNUMBER=%cdnumber%" -T "TOTALDISCS=%totalcds%" -T "TOTALTRACKS=%numtracks%" -T "COMMENT=%comment%" %source% -o %dest%


TOC of the extracted CD

Track | Start | Length | Start sector | End sector
––––––––––––––––––––––––––––-
1 | 0:00.00 | 5:10.43 | 0 | 23292
2 | 5:10.43 | 4:30.59 | 23293 | 43601
3 | 9:41.27 | 3:28.74 | 43602 | 59275
4 | 13:10.26 | 4:23.30 | 59276 | 79030
5 | 17:33.56 | 3:51.72 | 79031 | 96427
6 | 21:25.53 | 3:27.62 | 96428 | 112014
7 | 24:53.40 | 4:16.59 | 112015 | 131273
8 | 29:10.24 | 4:35.32 | 131274 | 151930
9 | 33:45.56 | 4:03.21 | 151931 | 170176
10 | 37:49.02 | 4:38.29 | 170177 | 191055
11 | 42:27.31 | 4:09.53 | 191056 | 209783
12 | 46:37.09 | 3:49.43 | 209784 | 227001
13 | 50:26.52 | 5:16.20 | 227002 | 250721
14 | 55:42.72 | 3:26.52 | 250722 | 266223
15 | 59:09.49 | 4:06.63 | 266224 | 284736
16 | 63:16.37 | 4:03.20 | 284737 | 302981
17 | 67:19.57 | 3:28.34 | 302982 | 318615
18 | 70:48.16 | 4:28.47 | 318616 | 338762
19 | 75:16.63 | 4:24.58 | 338763 | 358620


Track 1

Filename C:\CD Rips\Various Artists - Light Mellow-One Day (2016) {SICP 4791~3} [FLAC]\Disc 3 - Dive Into the Night\01 - Nightwalker.wav

Pre-gap length 0:00:02.00

Peak level 100.0 %
Extraction speed 2.6 X
Track quality 100.0 %
Test CRC 51A07EA2
Copy CRC 51A07EA2
Accurately ripped (confidence 10) [3772B5C1] (AR v2)
Copy OK

Track 2

Filename C:\CD Rips\Various Artists - Light Mellow-One Day (2016) {SICP 4791~3} [FLAC]\Disc 3 - Dive Into the Night\02 - Waiting for a Star to Fall.wav

Peak level 100.0 %
Extraction speed 2.8 X
Track quality 100.0 %
Test CRC 45BA4135
Copy CRC 45BA4135
Accurately ripped (confidence 10) [72E8CED3] (AR v2)
Copy OK

Track 3

Filename C:\CD Rips\Various Artists - Light Mellow-One Day (2016) {SICP 4791~3} [FLAC]\Disc 3 - Dive Into the Night\03 - Steal Away.wav

Peak level 97.0 %
Extraction speed 2.9 X
Track quality 100.0 %
Test CRC F3A965D6
Copy CRC F3A965D6
Accurately ripped (confidence 10) [4EE70883] (AR v2)
Copy OK

Track 4

Filename C:\CD Rips\Various Artists - Light Mellow-One Day (2016) {SICP 4791~3} [FLAC]\Disc 3 - Dive Into the Night\04 - That Old Song.wav

Peak level 100.0 %
Extraction speed 3.2 X
Track quality 100.0 %
Test CRC 355AD2CF
Copy CRC 355AD2CF
Accurately ripped (confidence 10) [D9B8F79C] (AR v2)
Copy OK

Track 5

Filename C:\CD Rips\Various Artists - Light Mellow-One Day (2016) {SICP 4791~3} [FLAC]\Disc 3 - Dive Into the Night\05 - Slow Hand.wav

Peak level 99.9 %
Extraction speed 3.4 X
Track quality 100.0 %
Test CRC DB7A7272
Copy CRC DB7A7272
Accurately ripped (confidence 10) [31C0478D] (AR v2)
Copy OK

Track 6

Filename C:\CD Rips\Various Artists - Light Mellow-One Day (2016) {SICP 4791~3} [FLAC]\Disc 3 - Dive Into the Night\06 - You’re Blue Too.wav

Peak level 97.6 %
Extraction speed 2.8 X
Track quality 99.9 %
Test CRC EFB31C18
Copy CRC EFB31C18
Accurately ripped (confidence 10) [0993248B] (AR v2)
Copy OK

Track 7

Filename C:\CD Rips\Various Artists - Light Mellow-One Day (2016) {SICP 4791~3} [FLAC]\Disc 3 - Dive Into the Night\07 - Baby Come Back.wav

Peak level 100.0 %
Extraction speed 3.8 X
Track quality 100.0 %
Test CRC F28CECEC
Copy CRC F28CECEC
Accurately ripped (confidence 10) [1BF7269D] (AR v2)
Copy OK

Track 8

Filename C:\CD Rips\Various Artists - Light Mellow-One Day (2016) {SICP 4791~3} [FLAC]\Disc 3 - Dive Into the Night\08 - I Need You.wav

Peak level 93.6 %
Extraction speed 3.9 X
Track quality 100.0 %
Test CRC 664CF6C7
Copy CRC 664CF6C7
Accurately ripped (confidence 10) [5B89F33A] (AR v2)
Copy OK

Track 9

Filename C:\CD Rips\Various Artists - Light Mellow-One Day (2016) {SICP 4791~3} [FLAC]\Disc 3 - Dive Into the Night\09 - Oh Yeah!.wav

Peak level 100.0 %
Extraction speed 4.0 X
Track quality 100.0 %
Test CRC D90283DA
Copy CRC D90283DA
Accurately ripped (confidence 10) [9D102B5B] (AR v2)
Copy OK

Track 10

Filename C:\CD Rips\Various Artists - Light Mellow-One Day (2016) {SICP 4791~3} [FLAC]\Disc 3 - Dive Into the Night\10 - Lies.wav

Peak level 100.0 %
Extraction speed 4.3 X
Track quality 100.0 %
Test CRC 841E927D
Copy CRC 841E927D
Accurately ripped (confidence 10) [14015085] (AR v2)
Copy OK

Track 11

Filename C:\CD Rips\Various Artists - Light Mellow-One Day (2016) {SICP 4791~3} [FLAC]\Disc 3 - Dive Into the Night\11 - Georgy Porgy.wav

Peak level 100.0 %
Extraction speed 4.4 X
Track quality 100.0 %
Test CRC 1D456CFB
Copy CRC 1D456CFB
Accurately ripped (confidence 10) [857C664F] (AR v2)
Copy OK

Track 12

Filename C:\CD Rips\Various Artists - Light Mellow-One Day (2016) {SICP 4791~3} [FLAC]\Disc 3 - Dive Into the Night\12 - You Are.wav

Peak level 100.0 %
Extraction speed 4.5 X
Track quality 100.0 %
Test CRC 35FF04A4
Copy CRC 35FF04A4
Accurately ripped (confidence 10) [09F87A8B] (AR v2)
Copy OK

Track 13

Filename C:\CD Rips\Various Artists - Light Mellow-One Day (2016) {SICP 4791~3} [FLAC]\Disc 3 - Dive Into the Night\13 - Lowdown.wav

Peak level 100.0 %
Extraction speed 4.8 X
Track quality 100.0 %
Test CRC A3A154D8
Copy CRC A3A154D8
Accurately ripped (confidence 10) [9C76C9FC] (AR v2)
Copy OK

Track 14

Filename C:\CD Rips\Various Artists - Light Mellow-One Day (2016) {SICP 4791~3} [FLAC]\Disc 3 - Dive Into the Night\14 - Lovin’ and Losin’ You.wav

Peak level 100.0 %
Extraction speed 4.7 X
Track quality 100.0 %
Test CRC C3BD8300
Copy CRC C3BD8300
Accurately ripped (confidence 10) [F35D1616] (AR v2)
Copy OK

Track 15

Filename C:\CD Rips\Various Artists - Light Mellow-One Day (2016) {SICP 4791~3} [FLAC]\Disc 3 - Dive Into the Night\15 - Eldorado Escape.wav

Peak level 100.0 %
Extraction speed 4.9 X
Track quality 100.0 %
Test CRC 7E960F9C
Copy CRC 7E960F9C
Accurately ripped (confidence 10) [7572871A] (AR v2)
Copy OK

Track 16

Filename C:\CD Rips\Various Artists - Light Mellow-One Day (2016) {SICP 4791~3} [FLAC]\Disc 3 - Dive Into the Night\16 - Time to Say Goodbye.wav

Peak level 100.0 %
Extraction speed 5.0 X
Track quality 100.0 %
Test CRC 3756D5FB
Copy CRC 3756D5FB
Accurately ripped (confidence 10) [CDEB2CA3] (AR v2)
Copy OK

Track 17

Filename C:\CD Rips\Various Artists - Light Mellow-One Day (2016) {SICP 4791~3} [FLAC]\Disc 3 - Dive Into the Night\17 - When Love Comes Calling.wav

Peak level 100.0 %
Extraction speed 4.0 X
Track quality 99.9 %
Test CRC 7F1A44FC
Copy CRC 7F1A44FC
Accurately ripped (confidence 10) [D09CC789] (AR v2)
Copy OK

Track 18

Filename C:\CD Rips\Various Artists - Light Mellow-One Day (2016) {SICP 4791~3} [FLAC]\Disc 3 - Dive Into the Night\18 - Hold Me ’til the Mornin’ Comes.wav

Peak level 100.0 %
Extraction speed 5.3 X
Track quality 100.0 %
Test CRC 64C49AC7
Copy CRC 64C49AC7
Accurately ripped (confidence 10) [DC6EB4BC] (AR v2)
Copy OK

Track 19

Filename C:\CD Rips\Various Artists - Light Mellow-One Day (2016) {SICP 4791~3} [FLAC]\Disc 3 - Dive Into the Night\19 - This Night Won’t Last Forever.wav

Peak level 100.0 %
Extraction speed 5.4 X
Track quality 100.0 %
Test CRC FAFD6FD4
Copy CRC FAFD6FD4
Accurately ripped (confidence 10) [2093F2B3] (AR v2)
Copy OK


All tracks accurately ripped

No errors occurred

End of status report

–– CUETools DB Plugin V2.1.6

[CTDB TOCID: fcIEtJPXIKKlsbnrtiClvkYnEfY-] found
Submit result: fcIEtJPXIKKlsbnrtiClvkYnEfY- has been confirmed
Track | CTDB Status
1 | (55/55) Accurately ripped
2 | (55/55) Accurately ripped
3 | (55/55) Accurately ripped
4 | (55/55) Accurately ripped
5 | (55/55) Accurately ripped
6 | (55/55) Accurately ripped
7 | (55/55) Accurately ripped
8 | (55/55) Accurately ripped
9 | (55/55) Accurately ripped
10 | (55/55) Accurately ripped
11 | (55/55) Accurately ripped
12 | (55/55) Accurately ripped
13 | (55/55) Accurately ripped
14 | (55/55) Accurately ripped
15 | (55/55) Accurately ripped
16 | (55/55) Accurately ripped
17 | (55/55) Accurately ripped
18 | (55/55) Accurately ripped
19 | (55/55) Accurately ripped


==== Log checksum 1D9153882A61DA743179EE508AF0DEAE02B72EBE183A3B9230128556A3527427 ====

Tracklist :::
Disc 1 - Morning Glory
1. Dionne Warwick – For You
2. Kenny Loggins – With A Little While
3. Valerie Carter – So, So, Happy
4. Airplay – Nothin’ You Can Do About It
5. Paul Davis – I Go Crazy
6. Stephen Bishop – On And On
7. John Valenti – Stephanie
8. Bill Champlin – What Good Is Love
9. Felix Cavaliere – Only A Lonely Heart Sees
10. Karla Bonoff – Personally
11. Dan Siegel & Kenny Rankin – Next To You
12. Engelbert Humperdinck – I Don’t Break Easily
13. Jimmy Webb – Angel Heart
14. Balance – Breaking Away
15. China – Never Gonna Let You Go
16. Lou Rawls – Stop Me From Starting The Feeling
17. John Farrar – Reckless
18. Fools Gold – Runnin’ And Hidin’
19. Christopher Cross – All Right
20. Gerard Kenny – The Crime That Pays

Disc 2 - Afternoon Breeze
1. Les Dudek – City Magic
2. Randy Meisner – Hearts On Fire
3. Larry Lee – Don't Talk
4. Ned Doheny – Sing To Me
5. Jimmy Messina – Seeing You (For The First Time)
6. Pages – Who's Right, Who's Wrong
7. Rupert Holmes – Him
8. Herbie Hancock – Paradise
9. Dane Donohue – Casablanca
10. Santana – Hold On
11. Melissa Manchester – You Should Hear How She Talks About You
12. Greg Phillinganes – Lazy Nina
13. Ben Sidran – Song For A Sucker Like You
14. Daryl Hall & John Oates – Wait For Me
15. J.D. Souther – You're Only Lonely
16. Toby Beau – If I Were You
17. Bobby Caldwell – What You Won't Do For Love
18. Silver – Musician (It's Not An Easy Life)

Disc 3 - Dive Into The Night
1. Gino Vannelli – Nightwalker
2. Boy Meets Girl – Waiting For A Star To Fall
3. Robbie Dupree – Steal Away
4. Ray Parker Jr. & Raydio – That Old Song
5. Pointer Sisters – Slow Hand
6. Robert Kraft & Janice Siegel – You're Blue Too
7. Player – Baby Come Back
8. Maurice White – I Need You
9. Bill Withers – Oh Yeah!
10. Jonathan Butler – Lies
11. Toto – Georgy Porgy
12. Niteflyte – You Are
13. Boz Scaggs – Lowdown
14. Dwayne Ford – Lovin' And Losin' You
15. Far Cry – Eldorado Escape
16. i-Ten – Time To Say Goodbye
17. Deniece Williams – When Love Comes Calling
18. Paul Anka & Peter Cetera – Hold Me 'Til Mornin' Comes
19. Bill LaBounty – This Night Won't Last Forever

Thanks to Original Re-leaser.