Subcategories

VA - Psychedelic Jazz (2008)

Posted By: JET 1
VA - Psychedelic Jazz (2008)

VA - Psychedelic Jazz (2008)
EAC Rip | FLAC (Image) +CUE, LOG | 509 MB | Covers Included
Genre: Jazz-Rock, Psychedelic Rock | Label: Universal Music Group | Catalog Number: 06007 5307428

The Best Mindblowing Spaced-Out Jazz Grooves.

Exact Audio Copy V0.99 prebeta 4 from 23. January 2008

EAC extraction logfile from 3. March 2010, 11:06

Various / Psychedelic Jazz-Smoking Tunes 16

Used drive : ASUS DRW-2014S1 Adapter: 1 ID: 0

Read mode : Secure
Utilize accurate stream : Yes
Defeat audio cache : Yes
Make use of C2 pointers : No

Read offset correction : 6
Overread into Lead-In and Lead-Out : No
Fill up missing offset samples with silence : Yes
Delete leading and trailing silent blocks : No
Null samples used in CRC calculations : Yes
Used interface : Installed external ASPI interface
Gap handling : Appended to previous track

Used output format : User Defined Encoder
Selected bitrate : 768 kBit/s
Quality : High
Add ID3 tag : No
Command line compressor : C:\Program Files\Exact Audio Copy\FLAC\FLAC.EXE
Additional command line options : -6 -V -T "ARTIST=%a" -T "TITLE=%t" -T "ALBUM=%g" -T "DATE=%y" -T "TRACKNUMBER=%n" -T "GENRE=%m" -T "COMMENT=%e" %s -o %d


TOC of the extracted CD

Track | Start | Length | Start sector | End sector
––––––––––––––––––––––––––––-
1 | 0:00.00 | 4:11.19 | 0 | 18843
2 | 4:11.19 | 3:43.71 | 18844 | 35639
3 | 7:55.15 | 2:49.67 | 35640 | 48381
4 | 10:45.07 | 5:40.11 | 48382 | 73892
5 | 16:25.18 | 2:59.51 | 73893 | 87368
6 | 19:24.69 | 6:58.32 | 87369 | 118750
7 | 26:23.26 | 4:35.55 | 118751 | 139430
8 | 30:59.06 | 3:56.26 | 139431 | 157156
9 | 34:55.32 | 2:30.22 | 157157 | 168428
10 | 37:25.54 | 5:19.56 | 168429 | 192409
11 | 42:45.35 | 3:15.49 | 192410 | 207083
12 | 46:01.09 | 6:20.49 | 207084 | 235632
13 | 52:21.58 | 4:10.03 | 235633 | 254385
14 | 56:31.61 | 5:30.05 | 254386 | 279140
15 | 62:01.66 | 7:57.49 | 279141 | 314964
16 | 69:59.40 | 3:31.48 | 314965 | 330837


Track 1

Filename C:\byPr0gger\V.A. - Psychedelic Jazz - 16 Smoking Tunes (2008, Verve)[FLAC]\01 - Roy Ayers - The Fuzz.wav

Pre-gap length 0:00:02.00

Peak level 97.0 %
Track quality 100.0 %
Test CRC CA98F896
Copy CRC CA98F896
Accurately ripped (confidence 7) [41067EEF]
Copy OK

Track 2

Filename C:\byPr0gger\V.A. - Psychedelic Jazz - 16 Smoking Tunes (2008, Verve)[FLAC]\02 - Dave Pike Set - Mathar.wav

Pre-gap length 0:00:02.00

Peak level 97.0 %
Track quality 100.0 %
Test CRC E8FF7B87
Copy CRC E8FF7B87
Accurately ripped (confidence 7) [9CCD8BE1]
Copy OK

Track 3

Filename C:\byPr0gger\V.A. - Psychedelic Jazz - 16 Smoking Tunes (2008, Verve)[FLAC]\03 - Pierre Henry - Psyche Rock.wav

Pre-gap length 0:00:02.00

Peak level 87.5 %
Track quality 100.0 %
Test CRC 55732221
Copy CRC 55732221
Accurately ripped (confidence 7) [38B3A7C1]
Copy OK

Track 4

Filename C:\byPr0gger\V.A. - Psychedelic Jazz - 16 Smoking Tunes (2008, Verve)[FLAC]\04 - Dorothy Ashby - The moving finger.wav

Pre-gap length 0:00:02.00

Peak level 97.0 %
Track quality 100.0 %
Test CRC EDF7BD5C
Copy CRC EDF7BD5C
Accurately ripped (confidence 7) [9A1C3272]
Copy OK

Track 5

Filename C:\byPr0gger\V.A. - Psychedelic Jazz - 16 Smoking Tunes (2008, Verve)[FLAC]\05 - Wolfgang Dauner Quintett - Uwiii.wav

Pre-gap length 0:00:02.00

Peak level 90.8 %
Track quality 100.0 %
Test CRC 02DFD225
Copy CRC 02DFD225
Accurately ripped (confidence 7) [5BBA1567]
Copy OK

Track 6

Filename C:\byPr0gger\V.A. - Psychedelic Jazz - 16 Smoking Tunes (2008, Verve)[FLAC]\06 - Volker Kriegel - Zoom.wav

Pre-gap length 0:00:02.00

Peak level 97.0 %
Track quality 100.0 %
Test CRC 5E91F0F8
Copy CRC 5E91F0F8
Accurately ripped (confidence 7) [1F486390]
Copy OK

Track 7

Filename C:\byPr0gger\V.A. - Psychedelic Jazz - 16 Smoking Tunes (2008, Verve)[FLAC]\07 - Don Sebesky - Guru-Vin.wav

Pre-gap length 0:00:02.00

Peak level 97.0 %
Track quality 100.0 %
Test CRC 5DE9CF49
Copy CRC 5DE9CF49
Accurately ripped (confidence 7) [0E3879F2]
Copy OK

Track 8

Filename C:\byPr0gger\V.A. - Psychedelic Jazz - 16 Smoking Tunes (2008, Verve)[FLAC]\08 - Jimmy Smith - Burning spear.wav

Pre-gap length 0:00:02.00

Peak level 97.0 %
Track quality 100.0 %
Test CRC B290D177
Copy CRC B290D177
Accurately ripped (confidence 7) [FD00AB1A]
Copy OK

Track 9

Filename C:\byPr0gger\V.A. - Psychedelic Jazz - 16 Smoking Tunes (2008, Verve)[FLAC]\09 - Gabor Szabo - Summertime.wav

Pre-gap length 0:00:02.00

Peak level 97.0 %
Track quality 100.0 %
Test CRC 03F32EF4
Copy CRC 03F32EF4
Accurately ripped (confidence 7) [B1A1FC9D]
Copy OK

Track 10

Filename C:\byPr0gger\V.A. - Psychedelic Jazz - 16 Smoking Tunes (2008, Verve)[FLAC]\10 - The Kühn Brothers &The Mad Rockers - Misty Purple.wav

Pre-gap length 0:00:02.00

Peak level 97.0 %
Track quality 100.0 %
Test CRC 6F7216F5
Copy CRC 6F7216F5
Accurately ripped (confidence 7) [FE1E7DDD]
Copy OK

Track 11

Filename C:\byPr0gger\V.A. - Psychedelic Jazz - 16 Smoking Tunes (2008, Verve)[FLAC]\11 - Okko - Ganges Delta.wav

Pre-gap length 0:00:02.00

Peak level 95.8 %
Track quality 100.0 %
Test CRC 5C52DA19
Copy CRC 5C52DA19
Accurately ripped (confidence 7) [CD795812]
Copy OK

Track 12

Filename C:\byPr0gger\V.A. - Psychedelic Jazz - 16 Smoking Tunes (2008, Verve)[FLAC]\12 - Jonny Teupen - Love me.wav

Pre-gap length 0:00:02.00

Peak level 95.9 %
Track quality 100.0 %
Test CRC 57B2C34C
Copy CRC 57B2C34C
Accurately ripped (confidence 7) [FA60E75B]
Copy OK

Track 13

Filename C:\byPr0gger\V.A. - Psychedelic Jazz - 16 Smoking Tunes (2008, Verve)[FLAC]\13 - Free Orbit (Lyndon Berg) - Big family.wav

Pre-gap length 0:00:02.00

Peak level 95.9 %
Track quality 99.9 %
Test CRC 028009B2
Copy CRC 028009B2
Accurately ripped (confidence 7) [72FC96E9]
Copy OK

Track 14

Filename C:\byPr0gger\V.A. - Psychedelic Jazz - 16 Smoking Tunes (2008, Verve)[FLAC]\14 - The Mick Nock Underground - The squire.wav

Pre-gap length 0:00:02.00

Peak level 95.9 %
Track quality 99.9 %
Test CRC 6923B703
Copy CRC 6923B703
Accurately ripped (confidence 7) [C5DBABA3]
Copy OK

Track 15

Filename C:\byPr0gger\V.A. - Psychedelic Jazz - 16 Smoking Tunes (2008, Verve)[FLAC]\15 - Julie Driscoll, Brian Auger & The Trinity - Season of the Witch.wav

Pre-gap length 0:00:02.00

Peak level 95.9 %
Track quality 100.0 %
Test CRC 5C1673FC
Copy CRC 5C1673FC
Accurately ripped (confidence 7) [937463EF]
Copy OK

Track 16

Filename C:\byPr0gger\V.A. - Psychedelic Jazz - 16 Smoking Tunes (2008, Verve)[FLAC]\16 - Gabor Szabo - Mizrab.wav

Pre-gap length 0:00:01.98

Peak level 95.9 %
Track quality 100.0 %
Test CRC F7FEA71A
Copy CRC F7FEA71A
Accurately ripped (confidence 7) [07788BC0]
Copy OK


All tracks accurately ripped

No errors occurred

End of status report


Tracklist:
01. The Fuzz (Roy Ayers) (4:11)
02. Mathar (The Dave Pike Set) (3:44)
03. Psyche Rock (Pierre Henry) (2:50)
04. The Moving Finger (Dorothy Ashby) (5:40)
05. Uwiii (Wolfgang Dauner Quintet) (3:00)
06. Zoom (Volker Kriegel) (6:58)
07. Guru-Vin (Don Sebesky) (4:36)
08. Burning Spear (Jimmy Smith) (3:56)
09. Summertime (Gabor Szabo) (2:30)
10. Misty Purple (The Kühn Brothers & The Mad Rockers) (5:20)
11. Ganges Delta (Okko) (3:16)
12. Love Me (Jonny Teupen) (6:21)
13. Big Family (Free Orbit) (4:10)
14. The Squire (The Mick Nock Underground) (5:30)
15. Season Of The Witch (Julie Driscoll, Brian Auger & The Trinity) (7:58)
16. Mizrab (Gabor Szabo) (3:32)

Info:
Track 1 recorded 1971, New York City. Original: LP "Ubiquity" (Polydor 2425 047)
Track 2 recorded January 21, 1969, Villingen. Original: LP "Noisy Silence - Gentle Noise" (MPS 15 215)
Track 3 recorded 1968, Paris. Original: LP "Messe pour le temps present" (Philips 836 893)
Track 4 recorded November 2, 1969, Chicago. Original: LP "The Rubaiyat of Dorothy Ashby" (Cadet LPS-841)
Track 5 recorded July 1969, Villingen. Original: LP "The Oimels" (MPS 15 248)
Track 6 recorded February 1 & 2, 1971, Villingen. Original: LP "Spectrum" (MPS 15 301)
Track 7 recorded March 28, 1968, New York City. Original: LP "The Distant Galaxy" (Verve V6-5063)
Track 8 recorded May 13, 1968, Los Angeles. Original: LP "Livin' It Up" (Verve V6-8750)
Track 9 recorded August 4, 1966, New Jersey. Original: LP "Jazz Raga" (Impulse AS-9128)
Track 10 recorded February 17 & 18, 1969, Hamburg. Original: LP "The Kühn Brothers & The Mad Rockers" (Metronome MLP 15340)
Track 11 recorded 1971, Hamburg. Original: LP "Sitar & Electronics" (BASF 20 21117-7)
Track 12 recorded October 1969, Cologne. Original: LP "Harpadelic" (MPS 15 247)
Track 13 recorded 1970, Hamburg. Original: LP "Free Jazz Goes Underground" (MPS 14 006)
Track 14 recorded June 29, 1970, Villingen. Original: LP "Between Or Beyond" (MPS 15 261)
Track 15 recorded 1967, London. Original: LP "Julie Driscoll & Brian Auger" (Polydor 847 859-2)
Track 16 recorded August 4, 1966, New Jersey. Original: LP "Jazz Raga" (Impulse AS-9128)