Subcategories
Tags
Language
Tags

V.A. - Rave on Buddy Holly (2011)

Posted By: gribovar
V.A. - Rave on Buddy Holly (2011)

V.A. - Rave on Buddy Holly (2011)
EAC Rip | WavPack (image+.cue+log) - 322 MB | MP3 CBR 320 kbps (LAME 3.93) - 122 MB | Covers - 37 MB
Genre: Classic Rock, Pop Rock, Rock 'n' Roll | RAR 3% Rec. | Label: Fantasy (0888072326705)

This fun collection features 19 Buddy Holly's classics songs interpreted by an impressive variety of artists, including Paul McCartney, Kid Rock, Graham Nash, Lou Reed, The Black Keys, Cee Lo Green and others. Rave On Buddy Holly does more than just throw big names against the wall over the course of a generous 19 tracks. It also adds up to an impressively diverse collection of takes on the innocence of another era. Buddy Holly, who was only 22 when he died in a 1959 plane crash, churned out a formidable collection of pop/rock classics in just a few years, and his catalog offers many unforgettable odes to wide-eyed, open-hearted youth.
Tracklist:
01. The Black Keys - Dearest
02. Jon Brion - Everyday
03. Paul McCartney - It's So Easy
04. Florence + the Machine - Not Fade Away
05. Cee Lo Green - (You're So Square) Baby, I Don't Care
06. Karen Elson - Crying, Waiting, Hoping
07. Julian Casablancas - Rave On
08. Jenny O - I'm Gonna Love You Too
09. Justin Townes Earle - Maybe Bayb
10. She & Him - Oh Boy!
11. Nick Lowe - Changing All Those Changes
12. Patti Smith - Words of Love
13. My Morning Jacket - True Love Ways
14. Modest Mouse - That'll Be the Day
15. Kid Rock - Well All Right
16. The Detroit Cobras - Heartbeat
17. Lou Reed - Peggy Sue
18. John Doe - Peggy Sue Got Married
19. Graham Nash - Raining In My Heart

Total time: 51:44

Exact Audio Copy V1.0 beta 3 from 29. August 2011

EAC extraction logfile from 27. December 2011, 8:53

Various Artists / Rave on Buddy Holly

Used drive : Optiarc DVD RW AD-7200S Adapter: 2 ID: 1

Read mode : Secure
Utilize accurate stream : Yes
Defeat audio cache : Yes
Make use of C2 pointers : No

Read offset correction : 48
Overread into Lead-In and Lead-Out : No
Fill up missing offset samples with silence : Yes
Delete leading and trailing silent blocks : No
Null samples used in CRC calculations : Yes
Used interface : Installed external ASPI interface

Used output format : User Defined Encoder
Selected bitrate : 1024 kBit/s
Quality : High
Add ID3 tag : No
Command line compressor : C:\Program Files\Exact Audio Copy\wavpack.exe
Additional command line options : -hlmx2 %source% %dest%


TOC of the extracted CD

Track | Start | Length | Start sector | End sector
––––––––––––––––––––––––––––-
1 | 0:00.00 | 2:04.69 | 0 | 9368
2 | 2:04.69 | 2:19.21 | 9369 | 19814
3 | 4:24.15 | 4:34.51 | 19815 | 40415
4 | 8:58.66 | 4:02.35 | 40416 | 58600
5 | 13:01.26 | 1:32.45 | 58601 | 65545
6 | 14:33.71 | 2:26.44 | 65546 | 76539
7 | 17:00.40 | 1:58.45 | 76540 | 85434
8 | 18:59.10 | 2:12.73 | 85435 | 95407
9 | 21:12.08 | 2:08.64 | 95408 | 105071
10 | 23:20.72 | 2:18.11 | 105072 | 115432
11 | 25:39.08 | 1:41.54 | 115433 | 123061
12 | 27:20.62 | 3:22.15 | 123062 | 138226
13 | 30:43.02 | 3:24.49 | 138227 | 153575
14 | 34:07.51 | 2:16.14 | 153576 | 163789
15 | 36:23.65 | 2:10.22 | 163790 | 173561
16 | 38:34.12 | 2:20.31 | 173562 | 184092
17 | 40:54.43 | 3:19.11 | 184093 | 199028
18 | 44:13.54 | 3:59.29 | 199029 | 216982
19 | 48:13.08 | 3:30.32 | 216983 | 232764


Range status and errors

Selected range

Filename C:\lossless\Rave on Buddy Holly\Various Artists - Rave on Buddy Holly.wav

Peak level 100.0 %
Extraction speed 3.7 X
Range quality 99.9 %
Test CRC 5299D525
Copy CRC 5299D525
Copy OK

No errors occurred


AccurateRip summary

Track 1 not present in database
Track 2 not present in database
Track 3 not present in database
Track 4 not present in database
Track 5 not present in database
Track 6 not present in database
Track 7 not present in database
Track 8 not present in database
Track 9 not present in database
Track 10 not present in database
Track 11 not present in database
Track 12 not present in database
Track 13 not present in database
Track 14 not present in database
Track 15 not present in database
Track 16 not present in database
Track 17 not present in database
Track 18 not present in database
Track 19 not present in database

None of the tracks are present in the AccurateRip database

End of status report

–– CUETools DB Plugin V2.1.3

[CTDB TOCID: NvbNSYu2jKAqSXapqz1.IkNZLtc-] disk not present in database, Submit result: NvbNSYu2jKAqSXapqz1.IkNZLtc- has been uploaded


==== Log checksum CF4671E84ABE0290BC45CBC982851C66440D6DF28D7041E98E93B490E3725FCA ====

[CUETools log; Date: 15.03.2020 0:20:01; Version: 2.1.4]
[CTDB TOCID: NvbNSYu2jKAqSXapqz1.IkNZLtc-] found.
Track | CTDB Status
1 | (28/29) Accurately ripped
2 | (29/29) Accurately ripped
3 | (29/29) Accurately ripped
4 | (29/29) Accurately ripped
5 | (29/29) Accurately ripped
6 | (29/29) Accurately ripped
7 | (29/29) Accurately ripped
8 | (29/29) Accurately ripped
9 | (29/29) Accurately ripped
10 | (29/29) Accurately ripped
11 | (29/29) Accurately ripped
12 | (29/29) Accurately ripped
13 | (29/29) Accurately ripped
14 | (29/29) Accurately ripped
15 | (29/29) Accurately ripped
16 | (29/29) Accurately ripped
17 | (29/29) Accurately ripped
18 | (29/29) Accurately ripped
19 | (29/29) Accurately ripped
[AccurateRip ID: 00226f52-01e03a61-f90c1f13] found.
Track [ CRC | V2 ] Status
01 [3b5127e2|fe2a6780] (04+18/22) Accurately ripped
02 [25ab2dac|27debb35] (04+18/22) Accurately ripped
03 [866611db|cca17595] (04+19/23) Accurately ripped
04 [5323dbc0|0a624b18] (04+19/23) Accurately ripped
05 [e94f9d1f|723fa1cf] (04+19/23) Accurately ripped
06 [8f6c2686|9d754235] (04+18/22) Accurately ripped
07 [11bd2e2f|7277ccfb] (04+17/21) Accurately ripped
08 [aa632fc7|2f199b44] (04+18/22) Accurately ripped
09 [42cd1b47|87c130ae] (04+18/22) Accurately ripped
10 [bac5401a|ce42e553] (04+19/23) Accurately ripped
11 [88ca5f27|a3da6e6b] (04+19/23) Accurately ripped
12 [76645279|b4ef2a53] (04+19/23) Accurately ripped
13 [33c47f47|1d8c0084] (04+19/23) Accurately ripped
14 [7184f2a0|8409fe87] (04+18/22) Accurately ripped
15 [be8c8413|64a47e6a] (04+19/23) Accurately ripped
16 [55ece2eb|4197e3f7] (04+18/22) Accurately ripped
17 [93808b85|4185509e] (04+18/22) Accurately ripped
18 [491872d5|b8c1ed99] (04+18/22) Accurately ripped
19 [32d0bc23|30460faa] (04+19/23) Accurately ripped

Track Peak [ CRC32 ] [W/O NULL] [ LOG ]
– 100,0 [5299D525] [1AD9246E] CRC32
01 94,8 [787C4784] [2B6B028C]
02 96,4 [B2936CAB] [7FD6F1FA]
03 100,0 [A2C0A0BB] [18B5A9C1]
04 97,7 [47D3EF67] [F09EF907]
05 93,2 [90972AFA] [BEB51094]
06 99,2 [4396E031] [298E11A6]
07 94,9 [FBA758DB] [11D5E61B]
08 99,7 [C08DC998] [F91A9F2B]
09 99,8 [C8DFDF1A] [66B566FE]
10 98,4 [D2978197] [E962CB20]
11 99,8 [B60142D2] [A4130B6F]
12 93,7 [233A5EA5] [527ABFAD]
13 93,2 [3CA20FA9] [F091DDB7]
14 97,3 [589574CF] [AA0524CD]
15 100,0 [14337F40] [09AF2A47]
16 97,3 [A8049FA6] [CE7FA683]
17 98,2 [C75FF325] [3EAA8000]
18 95,9 [79A68CB6] [3BFD0652]
19 93,2 [CC9A75C1] [4D0A5051]

Thanks to taurus66