Subcategories

V.A. - Tommy Castro Presents The Legendary Rhythm & Blues Revue Live! (2011)

Posted By: gribovar
V.A. - Tommy Castro Presents The Legendary Rhythm & Blues Revue Live! (2011)

V.A. - Tommy Castro Presents The Legendary Rhythm & Blues Revue Live! (2011)
EAC Rip | FLAC (tracks+.cue+log) - 496 MB | MP3 CBR 320 kbps (LAME 3.93) - 169 MB | Covers - 44 MB
Genre: Blues, Blues Rock | RAR 3% Rec. | Label: Alligator Records (ALCD 4943)

A direct descendant from the traveling bundled artist packages of the '60s right down to its retro "hatch show"-styled cover art, Tommy Castro and his band play host to a relatively diverse assortment of high-energy blues and soul acts. The concept originated on the yearly Legendary Rhythm & Blues Cruise where such musical collaborations are typical. Castro's concept was to take that concept on the road, resulting in this dozen-track live album cherrypicked from various tour stops. It's a rollicking, very plugged-in affair, perhaps not surprisingly geared toward some of Castro's current crop of Alligator labelmates such as Janiva Magness, guitarist Michael Burks, and ex-Little Charlie & the Nightcats frontman-gone-solo Rick Estrin. Still, a handful of non-Alligator names like Debbie Davies, Joe Louis Walker, and "Sista" Monica Parker also appear. The varied collective features youngsters Trampled Underfoot as well as lesser-known veteran Theodis Ealey, both of whom handily hold their own next to the more popular participants. Castro takes lead vocals on four tracks, and he, along with his horn-enhanced band, provide backup for the majority of the other artists. Everyone is at the top of their game with an electricity and vein-popping excitement that can only be generated when musicians feed off each other live. Castro in particular seems to relish his master of ceremonies role, charging through a soulful version of Bob Dylan's "Gotta Serve Somebody" and a sizzling "Serves Me Right to Suffer." The latter suddenly shifts tempos from a cracking slow blues to a driving "Radar Love" boogie beat and displays his sometimes underappreciated guitar skills. Most impressive, and rather unexpected, is the number of females in the lineup, a refreshing change from the typically male-dominated blues field. Not only do guitarist Davies and vocalist Magness turn in some thrilling performances (Magness on a tough, horn-punched, swampily rearranged version of James Brown's "Think"), but Monica Parker's slow blues boils, and Trampled Underfoot's bass-playing lead singer Danielle Schnebelen's sexy/angry vocals will have you checking the liner notes to see who this newcomer is. Estrin adds both humor and harp to the generally guitar-oriented lineup with "My Next Ex-Wife," and Michael Burks' ten-minute grinding blues "Voodoo Spell" will make an instant believer of anyone who might not be familiar with his slashing guitar attack.
Tracklist:
01. Tommy Castro - Wake Up Call
02. Tommy Castro - Gotta Right To Serve Somebody
03. Michael Burks - Voodoo Spell
04. Joe Louis Walker - It's A Shame
05. Sista Monica Parker - Never Say Never
06. Rick Estrin - My Next Ex-Wife
07. Trampled Under Foot - FOG
08. Tommy Castro - Painkiller
09. Janiva Magness - Think
10. Theodis Ealey - This Time I Know
11. Debbie Davis - All I Found
12. Tommy Castro - Serves Me Right To Suffer

Total time: 01:12:01

Exact Audio Copy V1.1 from 23. June 2015

EAC extraction logfile from 18. October 2019, 21:10

Tommy Castro Presents / The Legendary Rhythm & Blues Revue Live!

Used drive : HL-DT-STDVD-RAM GH22NP20 Adapter: 1 ID: 0

Read mode : Secure
Utilize accurate stream : Yes
Defeat audio cache : Yes
Make use of C2 pointers : No

Read offset correction : 102
Overread into Lead-In and Lead-Out : No
Fill up missing offset samples with silence : Yes
Delete leading and trailing silent blocks : No
Null samples used in CRC calculations : Yes
Used interface : Native Win32 interface for Win NT & 2000
Gap handling : Appended to previous track

Used output format : User Defined Encoder
Selected bitrate : 128 kBit/s
Quality : High
Add ID3 tag : No
Command line compressor : C:\Program Files\Exact Audio Copy\Flac\flac.exe
Additional command line options : -V -8 -T "Genre=%genre%" -T "Artist=%artist%" -T "Title=%title%" -T "Album=%albumtitle%" -T "Date=%year%" -T "Tracknumber=%tracknr%" -T "Comment=%comment%" %source%


TOC of the extracted CD

Track | Start | Length | Start sector | End sector
––––––––––––––––––––––––––––-
1 | 0:00.00 | 5:27.71 | 0 | 24595
2 | 5:27.71 | 7:11.02 | 24596 | 56922
3 | 12:38.73 | 10:02.46 | 56923 | 102118
4 | 22:41.44 | 4:21.03 | 102119 | 121696
5 | 27:02.47 | 5:51.28 | 121697 | 148049
6 | 32:54.00 | 5:56.31 | 148050 | 174780
7 | 38:50.31 | 6:24.29 | 174781 | 203609
8 | 45:14.60 | 5:14.13 | 203610 | 227172
9 | 50:28.73 | 4:30.42 | 227173 | 247464
10 | 54:59.40 | 3:35.18 | 247465 | 263607
11 | 58:34.58 | 6:41.18 | 263608 | 293700
12 | 65:16.01 | 6:45.11 | 293701 | 324086


Track 1

Filename E:\alexbras\2011 Tommy Castro Presents - The Legendary Rhythm & Blues Revue Live\01 Wake Up Call.wav

Pre-gap length 0:00:02.00

Peak level 100.0 %
Extraction speed 1.7 X
Track quality 100.0 %
Test CRC 84A8F7B2
Copy CRC 84A8F7B2
Accurately ripped (confidence 22) [119568CF] (AR v2)
Copy OK

Track 2

Filename E:\alexbras\2011 Tommy Castro Presents - The Legendary Rhythm & Blues Revue Live\02 Gotta Serve Somebody.wav

Peak level 97.7 %
Extraction speed 2.0 X
Track quality 100.0 %
Test CRC C2B4311F
Copy CRC C2B4311F
Accurately ripped (confidence 23) [1A60B6A7] (AR v2)
Copy OK

Track 3

Filename E:\alexbras\2011 Tommy Castro Presents - The Legendary Rhythm & Blues Revue Live\03 Voodoo Spell.wav

Pre-gap length 0:00:01.01

Peak level 95.5 %
Extraction speed 2.4 X
Track quality 100.0 %
Test CRC F53C7E8F
Copy CRC F53C7E8F
Accurately ripped (confidence 23) [7CCA2CB8] (AR v2)
Copy OK

Track 4

Filename E:\alexbras\2011 Tommy Castro Presents - The Legendary Rhythm & Blues Revue Live\04 It's A Shame.wav

Pre-gap length 0:00:01.43

Peak level 97.7 %
Extraction speed 2.4 X
Track quality 100.0 %
Test CRC 981A098B
Copy CRC 981A098B
Accurately ripped (confidence 23) [78DB2911] (AR v2)
Copy OK

Track 5

Filename E:\alexbras\2011 Tommy Castro Presents - The Legendary Rhythm & Blues Revue Live\05 Never Say Never.wav

Pre-gap length 0:00:01.28

Peak level 100.0 %
Extraction speed 2.6 X
Track quality 100.0 %
Test CRC 0156545E
Copy CRC 0156545E
Accurately ripped (confidence 24) [DC7F1F0D] (AR v2)
Copy OK

Track 6

Filename E:\alexbras\2011 Tommy Castro Presents - The Legendary Rhythm & Blues Revue Live\06 My Next Ex-Wife.wav

Peak level 90.1 %
Extraction speed 2.7 X
Track quality 100.0 %
Test CRC 4B55A87A
Copy CRC 4B55A87A
Accurately ripped (confidence 24) [6BD936C6] (AR v2)
Copy OK

Track 7

Filename E:\alexbras\2011 Tommy Castro Presents - The Legendary Rhythm & Blues Revue Live\07 Fog.wav

Peak level 97.7 %
Extraction speed 2.9 X
Track quality 100.0 %
Test CRC 800FA891
Copy CRC 800FA891
Accurately ripped (confidence 23) [177BC3AF] (AR v2)
Copy OK

Track 8

Filename E:\alexbras\2011 Tommy Castro Presents - The Legendary Rhythm & Blues Revue Live\08 Painkiller.wav

Pre-gap length 0:00:01.05

Peak level 100.0 %
Extraction speed 2.9 X
Track quality 100.0 %
Test CRC B30B98B9
Copy CRC B30B98B9
Accurately ripped (confidence 23) [E1D6DECA] (AR v2)
Copy OK

Track 9

Filename E:\alexbras\2011 Tommy Castro Presents - The Legendary Rhythm & Blues Revue Live\09 Think.wav

Peak level 97.0 %
Extraction speed 2.7 X
Track quality 99.9 %
Test CRC 2923084C
Copy CRC 2923084C
Accurately ripped (confidence 23) [94A1F6EF] (AR v2)
Copy OK

Track 10

Filename E:\alexbras\2011 Tommy Castro Presents - The Legendary Rhythm & Blues Revue Live\10 This Time I Know.wav

Peak level 95.7 %
Extraction speed 3.0 X
Track quality 100.0 %
Test CRC 66867B4D
Copy CRC 66867B4D
Accurately ripped (confidence 23) [729815DA] (AR v2)
Copy OK

Track 11

Filename E:\alexbras\2011 Tommy Castro Presents - The Legendary Rhythm & Blues Revue Live\11 All I Found.wav

Peak level 98.7 %
Extraction speed 3.3 X
Track quality 100.0 %
Test CRC 2E918917
Copy CRC 2E918917
Accurately ripped (confidence 24) [D8B47575] (AR v2)
Copy OK

Track 12

Filename E:\alexbras\2011 Tommy Castro Presents - The Legendary Rhythm & Blues Revue Live\12 Serves Me Right To Suffer.wav

Pre-gap length 0:00:01.04

Peak level 100.0 %
Extraction speed 3.5 X
Track quality 100.0 %
Test CRC 6EF31D0E
Copy CRC 6EF31D0E
Accurately ripped (confidence 23) [8F6C4F96] (AR v2)
Copy OK


All tracks accurately ripped

No errors occurred

End of status report

==== Log checksum 9C15FC468D8756CF832AB3057E966432F746C015CC6812010B6639DC894C7DFB ====

[CUETools log; Date: 15.11.2019 2:35:51; Version: 2.1.4]
[CTDB TOCID: 7B_ByviYUP5usZfLUNq5wUhzE.8-] found.
Track | CTDB Status
1 | (24/24) Accurately ripped
2 | (24/24) Accurately ripped
3 | (24/24) Accurately ripped
4 | (24/24) Accurately ripped
5 | (24/24) Accurately ripped
6 | (24/24) Accurately ripped
7 | (24/24) Accurately ripped
8 | (24/24) Accurately ripped
9 | (24/24) Accurately ripped
10 | (24/24) Accurately ripped
11 | (24/24) Accurately ripped
12 | (24/24) Accurately ripped
[AccurateRip ID: 00216222-01333878-9910e10c] found.
Track [ CRC | V2 ] Status
01 [99a319a9|119568cf] (07+22/29) Accurately ripped
02 [942d421a|1a60b6a7] (07+23/30) Accurately ripped
03 [8c590760|7cca2cb8] (07+23/30) Accurately ripped
04 [1aaf3acb|78db2911] (07+23/30) Accurately ripped
05 [7a4e42a3|dc7f1f0d] (07+24/31) Accurately ripped
06 [b4f945d3|6bd936c6] (07+24/31) Accurately ripped
07 [e298dea5|177bc3af] (07+23/30) Accurately ripped
08 [be28f83e|e1d6deca] (07+23/30) Accurately ripped
09 [dca7904a|94a1f6ef] (07+23/30) Accurately ripped
10 [ccbfc7f1|729815da] (07+23/30) Accurately ripped
11 [7c7b0069|d8b47575] (07+24/31) Accurately ripped
12 [956d6bf9|8f6c4f96] (07+23/30) Accurately ripped

Track Peak [ CRC32 ] [W/O NULL] [ LOG ]
– 100,0 [AE636BAA] [F06690B9]
01 100,0 [84A8F7B2] [FD0ACB13] CRC32
02 97,7 [C2B4311F] [37A4DC6E] CRC32
03 95,5 [F53C7E8F] [86308F31] CRC32
04 97,7 [981A098B] [00B52BA5] CRC32
05 100,0 [0156545E] [1797C16A] CRC32
06 90,1 [4B55A87A] [88DCBD28] CRC32
07 97,7 [800FA891] [82ABA392] CRC32
08 100,0 [B30B98B9] [F426B801] CRC32
09 97,0 [2923084C] [02830EAE] CRC32
10 95,7 [66867B4D] [5338F805] CRC32
11 98,7 [2E918917] [637C20CC] CRC32
12 100,0 [6EF31D0E] [98976D5F] CRC32

Thanks to Badeny