Tags
Language
Tags
April 2024
Su Mo Tu We Th Fr Sa
31 1 2 3 4 5 6
7 8 9 10 11 12 13
14 15 16 17 18 19 20
21 22 23 24 25 26 27
28 29 30 1 2 3 4

V.A. - Tribute to Aerosmith: Not the Same Old Song and Dance (1999)

Posted By: gribovar
V.A. - Tribute to Aerosmith: Not the Same Old Song and Dance (1999)

V.A. - Tribute to Aerosmith: Not the Same Old Song and Dance (1999)
EAC Rip | FLAC (image+.cue+log) - 347 MB | MP3 CBR 320 kbps (LAME 3.93) - 109 MB | Covers - 22 MB
Genre: Hard Rock | RAR 3% Rec. | Label: Cleopatra/Eagle Records (EAGCD112)

Cleopatra's Not the Same Old Song and Dance: Aerosmith Tribute assembles a number of hard-rock and heavy metal veterans, most with their heyday in the '80s, to perform new versions of Aerosmith classics. Most of the performers are faithful to the originals, which isn't necessarily a problem - the material is well-chosen and represents some of Aerosmith's best. The main problem is that many of the performances are too mannered, the production too slick to recapture the down-and-dirty grit of the originals; plus, when some selections call for keeping pace with Steven Tyler's manic, fast-paced jive, the vocalists tend to come up short. Still, there are some individual highlights - Vince Neil does a pretty good job on "Chip Away the Stone," and Ronnie James Dio captures the essence of "Dream On," to name the most obvious. Other performers include former members of Warrant, Tesla, Damn Yankees, Ratt, and Great White.
Tracklist:
01. Mark Slaughter, Albert Lee, Rudy Sarzo, Frankie Banali - Back In The Saddle
02. Ted Nugent, Tony Franklin, Vinnie Colaiuta, Derek Sherinian - Rag Doll
03. Vince Neil, Blues Saraceno, Ricky Phillips, Pat Torpey, Paul Taylor - Chip Away The Stone
04. Mickey Thomas, Earl Slick, Nathan East, Steve Ferrone - Last Child
05. Jack Blades, Tommy Shaw, Mike Inez, Randy Castillo - Sweet Emotion
06. Ronnie James Dio, Yngwie Malmsteen, Stu Hamm, Gregg Bissonette, Paul Taylor - Dream On
07. Fee Waybill, Steve Lukather, Tim Bogert, Tommy Aldridge - Walk This Way
08. Jeff Keith, Tommy Skeoch, Tony Levin, Eric Singer - Draw The Line
09. Jack Russell, Jeff Baxter, Jeff Pilson, Bobby Blotzer, Edgar Winter - Same Old Song And Dance
10. Jani Lane, Chris Holmes, Adrian Perry, Stephen Riley - No Surprize
11. Stephen Pearcy, Tracii Guns, Phil Soussan, Aynsley Dunbar - Toys In The Attic

Total time: 46:13

Exact Audio Copy V1.3 from 2. September 2016

EAC extraction logfile from 25. April 2020, 17:34

Tribute to Aerosmith / Not the Same Old Song and Dance

Used drive : ASUS DVDRAM GHC1N Adapter: 1 ID: 0

Read mode : Secure
Utilize accurate stream : Yes
Defeat audio cache : Yes
Make use of C2 pointers : No

Read offset correction : 6
Overread into Lead-In and Lead-Out : No
Fill up missing offset samples with silence : Yes
Delete leading and trailing silent blocks : No
Null samples used in CRC calculations : Yes
Used interface : Native Win32 interface for Win NT & 2000

Used output format : User Defined Encoder
Selected bitrate : 1024 kBit/s
Quality : High
Add ID3 tag : No
Command line compressor : C:\Program Files (x86)\FLAC Frontend\tools\flac.exe
Additional command line options : -6 -V %source%


TOC of the extracted CD

Track | Start | Length | Start sector | End sector
––––––––––––––––––––––––––––-
1 | 0:00.00 | 4:29.28 | 0 | 20202
2 | 4:29.28 | 4:50.10 | 20203 | 41962
3 | 9:19.38 | 4:19.20 | 41963 | 61407
4 | 13:38.58 | 3:57.36 | 61408 | 79218
5 | 17:36.19 | 4:13.54 | 79219 | 98247
6 | 21:49.73 | 4:28.29 | 98248 | 118376
7 | 26:18.27 | 3:47.70 | 118377 | 135471
8 | 30:06.22 | 4:02.27 | 135472 | 153648
9 | 34:08.49 | 4:08.54 | 153649 | 172302
10 | 38:17.28 | 4:26.49 | 172303 | 192301
11 | 42:44.02 | 3:29.03 | 192302 | 207979


Range status and errors

Selected range

Filename D:\Tribute to Aerosmith - Not the Same Old Song and Dance\Tribute to Aerosmith - Not the Same Old Song and Dance.wav

Peak level 98.8 %
Extraction speed 4.1 X
Range quality 100.0 %
Test CRC 82D19D84
Copy CRC 82D19D84
Copy OK

No errors occurred


AccurateRip summary

Track 1 accurately ripped (confidence 9) [2B4B5BB6] (AR v2)
Track 2 accurately ripped (confidence 9) [44D538AC] (AR v2)
Track 3 accurately ripped (confidence 9) [98F015C9] (AR v2)
Track 4 accurately ripped (confidence 9) [EB14FAF8] (AR v2)
Track 5 accurately ripped (confidence 9) [072CE211] (AR v2)
Track 6 accurately ripped (confidence 9) [FE029A8A] (AR v2)
Track 7 accurately ripped (confidence 9) [6E0FE36B] (AR v2)
Track 8 accurately ripped (confidence 9) [CA5672D2] (AR v2)
Track 9 accurately ripped (confidence 9) [F281641B] (AR v2)
Track 10 accurately ripped (confidence 9) [B9FB5CD0] (AR v2)
Track 11 accurately ripped (confidence 9) [6E772AB2] (AR v2)

All tracks accurately ripped

End of status report

–– CUETools DB Plugin V2.1.6

[CTDB TOCID: 9vOT_fk3qe008YE04mpMGqmjqEk-] found
Submit result: 9vOT_fk3qe008YE04mpMGqmjqEk- has been confirmed
Track | CTDB Status
1 | (24/24) Accurately ripped
2 | (24/24) Accurately ripped
3 | (24/24) Accurately ripped
4 | (24/24) Accurately ripped
5 | (24/24) Accurately ripped
6 | (24/24) Accurately ripped
7 | (24/24) Accurately ripped
8 | (24/24) Accurately ripped
9 | (24/24) Accurately ripped
10 | (24/24) Accurately ripped
11 | (24/24) Accurately ripped


==== Log checksum 677F8AAF248C903E59E5DCCB5525A46BCD2FBED9AD09E8089401AD7F7963B4D7 ====

[CUETools log; Date: 27.04.2020 2:46:15; Version: 2.1.4]
HDCD: peak extend: none, transient filter: none, gain: none
[CTDB TOCID: 9vOT_fk3qe008YE04mpMGqmjqEk-] found.
Track | CTDB Status
1 | (25/25) Accurately ripped
2 | (25/25) Accurately ripped
3 | (25/25) Accurately ripped
4 | (25/25) Accurately ripped
5 | (25/25) Accurately ripped
6 | (25/25) Accurately ripped
7 | (25/25) Accurately ripped
8 | (25/25) Accurately ripped
9 | (25/25) Accurately ripped
10 | (25/25) Accurately ripped
11 | (25/25) Accurately ripped
[AccurateRip ID: 00138c64-00a841bf-850ad50b] found.
Track [ CRC | V2 ] Status
01 [e47b9e88|2b4b5bb6] (05+09/14) Accurately ripped
02 [cc4d6e7f|44d538ac] (05+09/14) Accurately ripped
03 [a57fd713|98f015c9] (06+09/15) Accurately ripped
04 [24aad668|eb14faf8] (05+09/14) Accurately ripped
05 [e9fae91d|072ce211] (05+09/14) Accurately ripped
06 [abaa9296|fe029a8a] (05+09/14) Accurately ripped
07 [6cf3b182|6e0fe36b] (05+09/14) Accurately ripped
08 [ffac6f4a|ca5672d2] (05+09/14) Accurately ripped
09 [6c7a578a|f281641b] (05+09/14) Accurately ripped
10 [246d6f65|b9fb5cd0] (05+09/14) Accurately ripped
11 [05cf4923|6e772ab2] (05+09/14) Accurately ripped

Track Peak [ CRC32 ] [W/O NULL] [ LOG ]
– 98,8 [82D19D84] [0EC42A46] CRC32
01 97,7 [723E43FF] [07506B10]
02 97,7 [00886F1A] [42B57010]
03 97,7 [355F33D6] [54591615]
04 97,7 [977A1D58] [7C889C24]
05 97,7 [A1618872] [A2AAAE3B]
06 97,7 [2DA79D2F] [6A7D75B6]
07 98,8 [AA478279] [C5B4DC4B]
08 97,7 [697C470C] [DEAF9987]
09 97,7 [663C001B] [E4E30128]
10 97,7 [89184DFB] [50C9FF14]
11 97,7 [9D53345A] [74223E96]

Thanks to BadM..F..er

See also:
Aerosmith - Tough Love: Best Of The Ballads (2011)