Tags
Language
Tags

V.A. - Ocean Media - Series: Buddha Spa Music (5CDs, 2007)

Posted By: Discograf_man
V.A. - Ocean Media - Series: Buddha Spa Music (5CDs, 2007)

V.A. - Ocean Media - Series: Buddha Spa Music (5CDs, 2007)
EAC Rip | FLAC (*image+.cue+log,scans) | Run Time: 4:23:48 | 1.71 Gb
Genre: New Age, Meditative | Label: Ocean Media

This album features an innovative musical intrument, which resembles a xylophone and has a set of bars especially made from natural crystal. The "Shui-jing qin" produces usually clear sounds that are influenced by the energy released from natural crystal. This music is light and gentle refreshing and relaxing, like gentle mind.

Tracklist:

Ocean Media - Buddha Spa Music Vol.1

01. นะโมโพธิสัตว์กวมอิม [0:15:04.21]
Na Mo Phothisat Kuam Im
02. น้ำบริสุทธิ์แห่งเจ้าแม่กวนอิม [0:15:31.59]
Nam Borisut Haeng Chaomae Kuan Im
03. เจ้าแม่กวนอิมถือดอกไม้ [0:15:30.50]
Chaomae Kuan Im Thue Dokmai
04. เจ้าแม่กวนอิมแก้วเจียระไน [0:15:23.46]
Chaomae Kuan Im Kaeo Chiaranai

Ocean Media - Buddha Spa Music Vol.2

01. มนต์มหากรุณาธารณีสูตร [0:13:06.65]
Mon Maha Karuna Than Ni Sut
02. โอม มณีปัทเม ฮุม [0:07:20.52]
Om Mani Padme Hum
03. กิ่งหยางพรมน้ำบริสุทธิ์ทั่วหล้า [0:10:37.20]
King Yang Phrom Nam Borisut Thua La
04. บทสวดสิริมงคล [0:10:53.22]
Bot Suat Siri Mongkhon

Ocean Media - Buddha Spa Music Vol.3

01. ปรัชญาปารมิตาหฤทัยสูตร [0:14:19.51]
Pratya Para Mi Ta Haruethai Sut
02. บทเพลงเจ้าแม่กวนอิมดลใจ [0:14:50.60]
Botphleng Chaomae Kuan Im Donchai
03. กายประสานเอ่ยนามพระพุทธ (一声佛号一声心) [0:05:37.45]
Kai Prasan Oei Nam Phra Phut
04. จุดธูปถือดอกไม้สรรเสริญคุญ [0:05:58.32]
Chut Thup Thue Dokmai Sansoen Khun

Ocean Media - Buddha Spa Music Vol.4

01. บทเพลงสวดสรรเสริญพระพุทธ [0:14:35.06]
Botphleng Suat Sansoen Phra Phut
02. พระธรรมกายอันบริสุทธิ์ [0:14:44.23]
Phra Thammakai An Borisut
03. บทเพลงแห่งน้ำอมฤต [0:15:35.29]
Botphleng Haeng Nam Amarit
04. ชาวประมงลอยเรือขับร้องยามค่ำ [0:14:15.10]
Chao Pramong Loi Ruea Khaprong Yam Kham

Ocean Media - Buddha Spa Music Vol.5

01. เจ้าแม่กวนอิมผู้เปี่ยมด้วยมหากรุณาธิคุณ [0:15:19.92]
Chaomae Kuan Im Phu Piam Duai Maha Karuna Thi Khun
02. เจ้าแม่กวนอิมแห่งภูเขาใต้ [0:14:21.37]
Chaomae Kuan Im Haeng Phukhao Tai
03. บทสรรเสริญแห่งผู่เหมิน [0:15:01.49]
Bot Sansoen Haeng Phu He Min
04. สัทธรรมปุณฑรีกสูตร [0:15:41.24]
Sattham Pun Tharik Sut

Exact Audio Copy V1.0 beta 1 from 15. November 2010

EAC extraction logfile from 6. December 2011, 6:15

Ocean Media / Buddha Spa Music Vol.1

Used drive : PIONEER DVD-RW DVR-118L Adapter: 4 ID: 0

Read mode : Secure
Utilize accurate stream : Yes
Defeat audio cache : Yes
Make use of C2 pointers : No

Read offset correction : 6
Overread into Lead-In and Lead-Out : No
Fill up missing offset samples with silence : Yes
Delete leading and trailing silent blocks : No
Null samples used in CRC calculations : Yes
Used interface : Native Win32 interface for Win NT & 2000

Used output format : Internal WAV Routines
Sample format : 44.100 Hz; 16 Bit; Stereo


TOC of the extracted CD

Track | Start | Length | Start sector | End sector
––––––––––––––––––––––––––––-
1 | 0:00.00 | 15:04.21 | 0 | 67820
2 | 15:04.21 | 15:31.59 | 67821 | 137704
3 | 30:36.05 | 15:30.50 | 137705 | 207504
4 | 46:06.55 | 15:23.46 | 207505 | 276775


Range status and errors

Selected range

Filename E:\YES ! We Speak Lossless @ ThailandTorrent\Ocean Media - Buddha Spa Music Vol.1.wav

Peak level 99.5 %
Extraction speed 0.4 X
Range quality 100.0 %
Test CRC 33BDCC29
Copy CRC 33BDCC29
Copy OK

No errors occurred


AccurateRip summary

Track 1 accurately ripped (confidence 1) [78D999BD]
Track 2 accurately ripped (confidence 1) [92A8A98E]
Track 3 accurately ripped (confidence 1) [7CC57CFF]
Track 4 accurately ripped (confidence 1) [88239577]

All tracks accurately ripped

End of status report

==== Log checksum E66D5CDCC444D68EB51F37C5176A3C40C5DD69CF05381142D91DCA5E1D40F5D1 ====
======================================
Exact Audio Copy V1.0 beta 1 from 15. November 2010

EAC extraction logfile from 19. January 2011, 11:44

Ocean Media / Buddha Spa Music Vol.2

Used drive : PIONEER DVD-RW DVR-118L Adapter: 4 ID: 0

Read mode : Secure
Utilize accurate stream : Yes
Defeat audio cache : Yes
Make use of C2 pointers : No

Read offset correction : 6
Overread into Lead-In and Lead-Out : No
Fill up missing offset samples with silence : Yes
Delete leading and trailing silent blocks : No
Null samples used in CRC calculations : Yes
Used interface : Native Win32 interface for Win NT & 2000

Used output format : Internal WAV Routines
Sample format : 44.100 Hz; 16 Bit; Stereo


TOC of the extracted CD

Track | Start | Length | Start sector | End sector
––––––––––––––––––––––––––––-
1 | 0:00.00 | 13:06.65 | 0 | 59014
2 | 13:06.65 | 7:20.52 | 59015 | 92066
3 | 20:27.42 | 10:37.20 | 92067 | 139861
4 | 31:04.62 | 10:53.22 | 139862 | 188858


Range status and errors

Selected range

Filename D:\Audio Creator Music Library\Ocean Media - Buddha Spa Music Vol.2.wav

Peak level 99.5 %
Extraction speed 0.4 X
Range quality 100.0 %
Copy CRC 871BFCC4
Copy OK

No errors occurred


AccurateRip summary

Track 1 accurately ripped (confidence 1) [0542E0C8]
Track 2 accurately ripped (confidence 1) [018B7D67]
Track 3 accurately ripped (confidence 1) [5057B0A5]
Track 4 accurately ripped (confidence 1) [8DF65B66]

All tracks accurately ripped

End of status report

==== Log checksum 4C47CBBA63562B7DFEA23585133925D8262A7D9114FC8370B03CFEE1458D9518 ====
======================================
Exact Audio Copy V1.0 beta 1 from 15. November 2010

EAC extraction logfile from 6. December 2011, 4:39

Ocean Media / Buddha Spa Music Vol.3

Used drive : PIONEER DVD-RW DVR-118L Adapter: 4 ID: 0

Read mode : Secure
Utilize accurate stream : Yes
Defeat audio cache : Yes
Make use of C2 pointers : No

Read offset correction : 6
Overread into Lead-In and Lead-Out : No
Fill up missing offset samples with silence : Yes
Delete leading and trailing silent blocks : No
Null samples used in CRC calculations : Yes
Used interface : Native Win32 interface for Win NT & 2000

Used output format : Internal WAV Routines
Sample format : 44.100 Hz; 16 Bit; Stereo


TOC of the extracted CD

Track | Start | Length | Start sector | End sector
––––––––––––––––––––––––––––-
1 | 0:00.00 | 14:19.51 | 0 | 64475
2 | 14:19.51 | 14:50.60 | 64476 | 131285
3 | 29:10.36 | 5:37.45 | 131286 | 156605
4 | 34:48.06 | 5:58.32 | 156606 | 183487


Range status and errors

Selected range

Filename E:\YES ! We Speak Lossless @ ThailandTorrent\Ocean Media - Buddha Spa Music Vol.3.wav

Peak level 99.5 %
Extraction speed 0.2 X
Range quality 100.0 %
Test CRC 95A8A77F
Copy CRC 95A8A77F
Copy OK

No errors occurred


AccurateRip summary

Track 1 not present in database
Track 2 not present in database
Track 3 not present in database
Track 4 not present in database

None of the tracks are present in the AccurateRip database

End of status report

==== Log checksum 133BDC7FA649D8D86816245D4AE3B4527826302F59CC6D6EF10F8BA3DB2403DB ====
=====================================
Exact Audio Copy V1.0 beta 1 from 15. November 2010

EAC extraction logfile from 20. February 2011, 7:03

Ocean Media / Buddha Spa Music Vol.4

Used drive : PIONEER DVD-RW DVR-118L Adapter: 4 ID: 0

Read mode : Secure
Utilize accurate stream : Yes
Defeat audio cache : Yes
Make use of C2 pointers : No

Read offset correction : 6
Overread into Lead-In and Lead-Out : No
Fill up missing offset samples with silence : Yes
Delete leading and trailing silent blocks : No
Null samples used in CRC calculations : Yes
Used interface : Native Win32 interface for Win NT & 2000

Used output format : Internal WAV Routines
Sample format : 44.100 Hz; 16 Bit; Stereo


TOC of the extracted CD

Track | Start | Length | Start sector | End sector
––––––––––––––––––––––––––––-
1 | 0:00.00 | 14:35.06 | 0 | 65630
2 | 14:35.06 | 14:44.23 | 65631 | 131953
3 | 29:19.29 | 15:35.29 | 131954 | 202107
4 | 44:54.58 | 14:15.10 | 202108 | 266242


Range status and errors

Selected range

Filename D:\Audio Creator Music Library\Ocean Media - Buddha Spa Music Vol.4.wav

Peak level 100.0 %
Extraction speed 0.4 X
Range quality 100.0 %
Copy CRC E094F8F1
Copy OK

No errors occurred


AccurateRip summary

Track 1 accurately ripped (confidence 1) [B04F3D38]
Track 2 accurately ripped (confidence 1) [958C5E93]
Track 3 accurately ripped (confidence 1) [BBF2358C]
Track 4 cannot be verified as accurate (confidence 1) [1643A26B], AccurateRip returned [91053731]

3 track(s) accurately ripped
1 track(s) could not be verified as accurate

Some tracks could not be verified as accurate

End of status report

==== Log checksum AE4D60D0FE4A414DA447B8060F70ACFB015E0AF21731D938DEAE39B9DECC232E ====
==============================
Exact Audio Copy V1.0 beta 1 from 15. November 2010

EAC extraction logfile from 6. June 2011, 19:35

Ocean Media / Buddha Spa Music Vol.5

Used drive : PIONEER DVD-RW DVR-219L Adapter: 0 ID: 1

Read mode : Secure
Utilize accurate stream : Yes
Defeat audio cache : Yes
Make use of C2 pointers : No

Read offset correction : 6
Overread into Lead-In and Lead-Out : No
Fill up missing offset samples with silence : Yes
Delete leading and trailing silent blocks : No
Null samples used in CRC calculations : Yes
Used interface : Native Win32 interface for Win NT & 2000

Used output format : Internal WAV Routines
Sample format : 44.100 Hz; 16 Bit; Stereo


TOC of the extracted CD

Track | Start | Length | Start sector | End sector
––––––––––––––––––––––––––––-
1 | 0:00.00 | 15:19.69 | 0 | 68993
2 | 15:19.69 | 14:21.28 | 68994 | 133596
3 | 29:41.22 | 15:01.37 | 133597 | 201208
4 | 44:42.59 | 15:41.18 | 201209 | 271801


Range status and errors

Selected range

Filename D:\Audio Creator Music Library\Ocean Media - Buddha Spa Music Vol.5.wav

Peak level 100.0 %
Extraction speed 0.4 X
Range quality 100.0 %
Test CRC 56CCA6F3
Copy CRC 56CCA6F3
Copy OK

No errors occurred


AccurateRip summary

Track 1 not present in database
Track 2 not present in database
Track 3 not present in database
Track 4 not present in database

None of the tracks are present in the AccurateRip database

End of status report