Subcategories
Tags
Language
Tags

V.A. - One Shot '80 Collection, Vol.1-Vol.19 (1998-2009)

Posted By: Discograf_man
V.A. - One Shot '80 Collection, Vol.1-Vol.19 (1998-2009)

V.A. - One Shot '80 Collection, Vol.1-Vol.19 (1998-2009)
FLAC (*tracks+.cue+log ,scans) | Run Time: 01d:11h:44m | 14.77 Gb
Genre: Synth-pop, Funk, Soul, Pop, Disco | Label: Universal

One Shot 80: Da oltre di 10 anni è la collana più completa dedicata ai successi Pop e Dance della decade che va dal 1980 al 1989. Dopo il successo ottenuto con la prima serie arrivata al 20° volume, anche grazie agli innumerevoli Fans che con e-mail e cartoline contenute all'interno del CD hanno collaborato alla riuscita con le loro segnalazioni, ecco che la Universal Music Italia, propone quello che viene considerato il completamento dell'opera. La Nuova One Shot, come forse avete già capito, oltre ad essere rinnovata nel look, è rinnovata anche nei contenuti, 2 CD per volume che raccolgono anno per anno tutto quello che gli anni 80 hanno offerto. Brani rigorosamente originali, note storiche dell'anno, nuovo packaiging e tanta tanta musica,.. sono solo alcuni dei potenziamenti della nuova serie. Pur avendo alle spalle una pesante eredità (20 volumi ufficiali e 5 speciali esclusivamente dedicati agli anni 80) la scelta di organizzare i volumi anno per anno permette di approfondire quel periodo ricchissimo, e di non avere troppe sovrapposizioni con la vecchia serie. In pratica il contenuto di queste 10 raccolte, ha più del 70% di brani mai apparsi, nella prima edizione. Una vera manna per gli appassionati della musica anni 80. Per avere maggiori informazioni sul contenuto del CD basterà cliccare sul bottone More Info sottostante alla cover.
Contents:

Various Artists - One Shot '80 - Volume 01 (1998)
Various Artists - One Shot '80 - Volume 02 (1998)
Various Artists - One Shot '80 - Volume 03 (1999)
Various Artists - One Shot '80 - Volume 04 (1999)
Various Artists - One Shot '80 - Volume 05 (1999)
Various Artists - One Shot '80 - Volume 06 (1999)
Various Artists - One Shot '80 - Volume 07 (1999)
Various Artists - One Shot '80 - Volume 08 (2000)
Various Artists - One Shot '80 - Volume 09 (2000)
Various Artists - One Shot '80 - Volume 10 (2000)
Various Artists - One Shot '80 - Volume 11 (2001)
Various Artists - One Shot '80 - Volume 12 (2001)
Various Artists - One Shot '80 - Volume 13 (2002)
Various Artists - One Shot '80 - Volume 14 (2002)
Various Artists - One Shot '80 - Volume 15 (2003)
Various Artists - One Shot '80 - Volume 16 (2003)
Various Artists - One Shot '80 - Volume 17 (2004)
Various Artists - One Shot '80 - Volume 18 (2006)
Various Artists - One Shot '80 - Volume 19 (2007)
Various Artists - One Shot '80 - Volume 20 (2009)
Various Artists - One Shot '80 - 80! (1999)
Various Artists - One Shot '80 - 80!! (2002)
Various Artists - One Shot '80 - Black '80 (2004)

Various Artists - One Shot '80 - Volume 01 (1998)
01. The Buggles - Video Killed The Radio Star [03:21]
02. Kajagoogoo - Too Shy [03:39]
03. Haven 17 - Let Me Go [04:15]
04. Industry - State Of The Nation [03:39]
05. Wang Chung - Dance Hall Days [03:59]
06. Belouis Some - Imagination [03:05]
07. Freur - Doot Doot [03:59]
08. Abc - The Look Of Love [03:29]
09. Mr. Mister - Broken Wings [05:42]
10. PhD - I Won't Let You Down [04:11]
11. Indeep - Last Night A D.J. Saved My Life [04:42]
12. Quarterflash - Harden My Heart [03:51]
13. Alphaville - Big In Japan [04:45]
14. Fox The Fox - Precious Little Diamond [03:58]
15. Russ Ballard - Voices [05:18]
16. Nena - 99 Luftballons [03:52]
17. Johnny Hates Jazz - Shattered Dreams [03:27]
18. Nik Kershaw - Wouldn't It Be Good [04:31]
19. Nikka Costa - (Out Here) On My Own [03:34]

Various Artists - One Shot '80 - Volume 02 (1998)
01. Propaganda - Duel [04:48]
02. Talk Talk - It's My Life [03:52]
03. Kissing The Pink - One Step [04:29]
04. The Twins - Face To Face, Heart To Heart [04:41]
05. Rockwell - Somebody's Watching Me [03:58]
06. Hipsway - The Honey Thief [03:11]
07. The Blow Monkeys - It Doesn't Have To Be This Way [04:03]
08. Dead Or Alive - You Spin Me Round (Like A Record) [03:19]
09. Kim Wilde - You Came [03:30]
10. T.X.T. - Girl's Got A Brand New Toy [03:51]
11. Greg Kihn Band - Jeopardy [03:48]
12. Breakfast Club - Right On Track [04:17]
13. Go West - We Close Our Eyes [03:45]
14. King - Love And Pride [03:21]
15. Love And Money - Halleluiah Man [04:36]
16. J. Geils Band - Centerfold [03:37]
17. Picnic At The White House - We Need Protection [06:23]
18. Nik Kershaw - The Riddle [03:53]
19. M - Pop Muzic [04:55]

Various Artists - One Shot '80 - Volume 03 (1999)
01. Modern Talking - You're My Heart, You're My Soul [03:22]
02. F.R. David - Words [03:26]
03. The Alan Parson Project - Eye In The Sky [04:32]
04. William Pitt - City Lights [03:46]
05. Lotus Eaters - The First Picture Of You [05:27]
06. The Korgis - Everybody's Got To Learn Sometime [04:12]
07. Robert Palmer - Johnny And Mary [03:57]
08. Boston - Amanda [04:14]
09. Trio - Da Da Da [03:21]
10. Thompson Twins - Doctor! Doctor! [04:22]
11. Double - The Captain Of Her Heart [04:29]
12. The Adventures - Broken Land [05:00]
13. Mike Oldfield - Moonlight Shadow [03:35]
14. Rupert Holmes - Him [04:06]
15. Glenn Frey - You Belong To The City [05:50]
16. Mike Francis - Survivor [04:17]
17. Kim Carnes - Bette Davis Eyes [03:41]
18. Lio - Amoureux Solitaires [03:36]

Various Artists - One Shot '80 - Volume 04 (1999)
01. Falco - Der Kommissar [03:44]
02. A-Ha - Take On Me [03:44]
03. Captain Sensible - Wot! [03:16]
04. Orchestral Manoeuvres In The Dark - Enola Gay [03:30]
05. Murray Head - One Night In Bangkok [03:53]
06. Nick Kamen - Each Time You Break My Heart [04:27]
07. Visage - Fade To Grey [03:57]
08. Al Corley - Square Rooms [03:40]
09. Opus - Live Is Life [04:12]
10. Fiction Factory - Feels Like Heaven [03:28]
11. Soft Cell - Tainted Love [02:56]
12. Village People - 5 O'Clock In The Morning [05:01]
13. Re-Flex - The Politics Of Dancing [04:16]
14. The Romantics - Talking In Your Sleep [03:55]
15. Eight Wonder - Stay With Me [03:17]
16. Imagination - Body Talk [05:56]
17. Yazoo - Don't Go [03:03]
18. Drum Theatre - Eldorado [03:59]
19. Richard Sanderson - Reality [04:48]

Various Artists - One Shot '80 - Volume 05 (1999)
CD 1
01. Sandy Marton - People From Ibiza [03:06]
02. Spagna - Easy Lady [04:50]
03. Ryan Paris - Dolce Vita [03:53]
04. Gazebo - Masterpiece [04:10]
05. P. Lion - Happy Children [05:52]
06. Baltimora - Tarzan Boy [03:51]
07. Fake - Donna Rouge [03:42]
08. Den Harrow - Future Brain [04:08]
09. Ronnie Jones - Video Games [04:16]
10. Righeira - No Tengo Dinero [03:20]
11. Valerie Dore - Lancelot [04:29]
12. Moon Ray - Comanchero [03:56]
13. Jimmy Ross - First True Love Affair [03:35]
14. Scotch - Disco Band [04:28]
15. Atelier Folie - No Rhyme, No Reason [03:56]
16. Silver Pozzoli - Around My Dream [04:19]
17. Riccardo Cioni - In America [05:28]
18. Savage - Don't Cry Tonight [04:07]
CD 2
01. Righeira - Vamos A La Playa [03:36]
02. Den Harrow - Mad Desire [04:05]
03. Cube - Two Heads Are Better Than One [03:36]
04. Gazebo - I Like Chopin [04:07]
05. Tom Hooker - Looking For Love [03:46]
06. B.B. And Band - All Night Long [03:40]
07. Sandy Marton - Camel By Camel [03:22]
08. Gary Low - You Are A Danger [04:07]
09. Krisma - Many Kisses [03:33]
10. Kano - Another Life [03:52]
11. Ago - For You [05:51]
12. Tony Esposito - Kalimba De Luna [05:07]
13. Koxo - Step By Step [04:10]
14. Valerie Dore - The Night [04:04]
15. Martinelli - Cenerentola [03:54]
16. Carrara - Shine On Dance [03:43]
17. Band Of Jocks - Let's All Dance [04:54]
18. The Creatures - Maybe One Day [05:28]

Various Artists - One Shot '80 - Volume 06 (1999)
01. Don't You Want Me - The Human Legue [03:57]
02. Sandra - Maria Magdalena [03:56]
03. Rick Astley - Never Gonna Give You Up [03:31]
04. Samantha Fox - Touch Me (I Want Your Body) [03:43]
05. Ad Visser & Daniel Sahuleka - Giddyap A Gogo [03:49]
06. Living In A Box - Living In A Box [03:02]
07. Richenel - Dance Around The World [04:44]
08. Real Life - Send Me An Angel [03:51]
09. Level 42 - Running In The Family [03:56]
10. Black - Wonderful Life [04:47]
11. Bruce & Bongo - Geil [04:00]
12. Daryl Hall & John Oates - Private Eyes [03:24]
13. Desireless - Voyage Voyage [04:20]
14. Robin Gibb - Juliet [03:41]
15. Nu Shooz - I Can't Wait [03:39]
16. Spargo - You And Me [04:11]
17. Howard Jones - What Is Love [03:40]
18. Stephanie - Ouragan [04:37]
19. Guardian Angel - Masquerade [04:35]

Various Artists - One Shot '80 - Volume 07 (1999)
01. Joan Jett & The Blackhearts - I Love Rock'n'roll [02:55]
02. The Knack - My Sharona [04:49]
03. Blondie - Call Me [03:25]
04. Yes - Owner Of A Lonely Heart [03:48]
05. Survivor - Eye Of The Tiger [04:05]
06. Huey Lewis & The News - I Want A New Drug [04:45]
07. Frida - I Know There's Something Going On [05:26]
08. Toto - Hold The Line [03:55]
09. Johnny Wakelin - In Zaire [03:19]
10. Men At Work - Who Can It Be Now? [03:20]
11. Glenn Frey - The Heat Is On [03:45]
12. Foreigner - Urgent [04:23]
13. Asia - Heat Of The Moment [03:49]
14. Joan Armatrading - Drop The Pilot [03:36]
15. Belinda Carlisle - Heaven Is A Place On Heart [04:03]
16. Cameo - Word Up [04:14]
17. Bonnie Tyler - Holding Out For A Hero [05:47]
18. Status Quo - Whatever You Want [04:00]
19. Cutting Crew - (I Just) Died In Your Arms [04:39]

Various Artists - One Shot '80 - Volume 08 (2000)
01. Boys Town Gang - Can't Take My Eyes Off You [05:38]
02. Modern Talking - Cheri Cheri Lady [03:46]
03. Imagination - Just An Illusion [06:25]
04. Gilbert Montagne' - Just For Tonight [04:14]
05. Cock Robin - The Promise You Made [03:54]
06. Sandra - Everlasting Love [03:39]
07. Level 42 - Lessons In Love [04:02]
08. Alphaville - Forever Young [03:47]
09. Starship - Nothing's Gonna Stop Us Now [04:23]
10. King - The Taste Of Your Tears [04:00]
11. John Waite - Missing You [03:29]
12. Kim Wilde - You Keep Me Mangin' On [04:15]
13. Frankies Goes To Hollywood - The Power Of Love [05:28]
14. Taylor Dayne - Tell It To My Heart [03:38]
15. Secret Service - Flash In The Night [03:47]
16. The Lotus Eaters - It Hurts [05:49]
17. Pepsi & Shirlie - Heartache [03:35]
18. Jennifer Rush - The Power Of Love [04:26]

Various Artists - One Shot '80 - Volume 09 (2000)
01. Billy Idol - Eyes Without A Face [04:57]
02. Falco - Rock Me Amadeus [03:21]
03. Climie Fisher - Love Changes (Everything) [04:27]
04. Men Without Hats - The Safety Dance [04:29]
05. Caroline Loeb - C'est La Ouate [03:49]
06. Giorgio Moroder - From Here To Eternity [05:50]
07. My Mine - Hypnotic Tango [04:30]
08. Aneka - Japanese Boy [03:55]
09. The Blow Monkeys - Digging Your Scene [04:05]
10. Timex Social Club - Rumors [05:47]
11. Flash And The Pan - Midnight Man [04:54]
12. Paul Hardcastle - 19 [03:31]
13. Ivan - Fotonovela [04:31]
14. Curiosity Killed The Cat - Name And Number [04:01]
15. Godley & Creme - Cry [03:56]
16. Holly Johnson - Americanos [03:37]
17. Off - Electrica Salsa (Baba Baba) [03:39]
18. Cook Da Books - Your Eyes [04:44]

Various Artists - One Shot '80 - Volume 10 (2000
CD 1:
01. Raf - Self Control [03:59]
02. Tracy Spencer - Run To Me [03:42]
03. Gazebo - Lunatic [03:56]
04. Spagna - Call Me [04:05]
05. Den Harrow - Catch The Fox [03:58]
06. Novecento - Movin 'on [03:56]
07. Cuba - Prince Of The Moment [04:07]
08. Via Verdi - Diamond [03:52]
09. Fun Fun - Colour My Love [03:56]
10. Gary Low - I Want You [03:37]
11. La Bionda - I Wanna Be Your Lover [03:13]
12. Kano - I'm Ready [03:36]
13. Sabrina - Boys [03:39]
14. Gaz Nevada - I.C. Love Affair [03:31]
15. Taffy - Once More [03:59]
16. Scotch - Take Me Up [03:30]
17. Valerie Dore - Get Closer [04:10]
18. Moses - We Just [03:02]
19. Savage - Only You [03:52]
CD 2:
01. Taffy - I Love My Radio [04:09]
02. Den Harrow - To Meet Me [03:51]
03. Eddie Huntington - U.S.S.R. [03:25]
04. P. Lion - Dream [04:03]
05. Sandy Marton - Modern Lover [04:11]
06. Albert One - Turbo Diesel [04:02]
07. Baby's Gang - Happy Song [03:21]
08. Gazebo - Telephone Mama [05:42]
09. Max Him - Lady Fantasy [04:07]
10. Diana Est - Tenax [03:57]
11. Miko Mission - How Old Are You? [04:13]
12. Betty Villani - De Nuevo Tu [03:46]
13. Radiorama - Chance To Desire [04:03]
14. Moonbase - Waiting For A Train [04:11]
15. Ken Laszlo - Hey Hey Guy [03:22]
16. Finzi Contini - Cha Cha Cha [03:06]
17. Styloo - Pretty Face [03:43]
18. Gino Latino - Yo [02:46]
19. Steve Allen - Letter From My Heart [05:26]

Various Artists - One Shot '80 - Volume 11 (2001)
01. Micheal Cretu - Samurai (Did You Ever Dream?) [05:13]
02. Yazoo - Situation [05:44]
03. The Twins - Ballet Dancer [03:27]
04. A Caus' Des Garcons - A Caus' Des Garcons [04:09]
05. Michael Sembello - Maniac [04:03]
06. Erasure - Sometimes [03:37]
07. Howard Jones - New Song [04:15]
08. Swing Out Sister - Surrender [03:55]
09. Gino Vannelli - Black Cars [03:10]
10. Talk Talk - Such A Shame [05:35]
11. Fra Lippo Lippi - Shouldn't Have To Be Like That [03:52]
12. Chris De Burgh - High On Emotion [04:26]
13. Men At Work - Down Under [03:44]
14. China Crisis - Wishful Thinking [04:08]
15. Dexy's Midnight Runners - Come On Eileen [04:06]
16. King - Alone Without You [03:36]
17. Arcadia - Election Day [04:28]
18. Bonnie Tyler - Total Eclipse Of The Heart [07:00]

Various Artists - One Shot '80 - Volume 12 (2001)
01. Harold Faltermeyer - Axel F [03:01]
02. Irene Cara - Flashdance… What A Feeling [03:53]
03. Giorgio Moroder & Philip Oakey - Together In Electric Dreams [03:52]
04. Kenny Loggins - Footloose [03:47]
05. Eurythmics - Sexcrime (Nineteen Eighty-Four) [03:57]
06. Limahl - Never Ending Story [03:30]
07. Wham! - Wham Rap! (Enjoy What You Do?) [06:42]
08. Joe Cocker - You Can Leave Your Hat On [04:14]
09. El Debarge - Who's Johnny [04:09]
10. Huey Lewis & The News - Power Of Love [03:53]
11. Bonnie Bianco & Pierre Cosso - Stay [03:52]
12. B.B. King - Into The Night [04:11]
13. Al Jarreau - L Is For Lover [05:25]
14. Ollie & Jerry - Breakin'… There's No Stopping Us [04:28]
15. Sheena Easton - For Your Eyes Only [03:04]
16. Chic - Soup For One [03:06]
17. Claudio Simonetti - College [04:32]
18. Joe Cocker & Jennifer Warnes - Up Where We Belong [03:54]

Various Artists - One Shot '80 - Volume 13 (2002)
01. Rick Astley - Together Forever [03:26]
02. Propaganda - P-Machinery [03:48]
03. The Psychedelic Furs - Heaven [03:24]
04. Bangles - Manic Monday [03:04]
05. Pete Wylie - Sinful [03:55]
06. Heaven 17 - Temptation [04:38]
07. Eight Wonder - I'm Not Scared [04:30]
08. Rock Steady Crew - (Hey You) The Rock Steady Crew [03:40]
09. Curiosity Killed The Cat - Misfit [04:03]
10. A Flock Of Seagulls - Wishing (If I Had A Photograph Of You) [05:30]
11. The Cars - Shake It Up [03:33]
12. Kim Wilde - Cambodia [03:57]
13. Abc - Poison Arrow [03:23]
14. Wendy & Lisa - Waterfall [05:00]
15. It's Immaterial - Driving Away From Home [04:11]
16. Miami Sound Machine - Dr. Beat [04:24]
17. Captain Sensible - Brenda [07:28]
18. Glenn Medeiros - Nothing's Gonna Change My Love For You [03:51]

Various Artists - One Shot '80 - Volume 14 (2002)
01. Terence Trent D'Arby - If You Let Me Stay [03:15]
02. Matt Bianco - Whose Side Are You On [03:24]
03. Hong Kong Syndikat - Too Much [05:30]
04. Fairground Attraction - Perfect [03:35]
05. Sade - Smooth Operator [04:58]
06. Joe Jackson - You Can't Get What You Want [04:52]
07. Fine Young Cannibals - Johnny Come Home [03:35]
08. Prefab Sprout - Appetite [03:55]
09. Everything But The Girl - Each And Every One [02:46]
10. Basia - Prime Time TV [05:21]
11. Deacon Blue - Rain Town [03:50]
12. Style Council - My Ever Changing Moods [03:38]
13. Curiosity Killed The Cat - Down To Earth [04:21]
14. Christians - Harvest For The World [03:59]
15. Julia Fordham - Happy Ever After [03:44]
16. Swing Out Sister - Breakout [03:47]
17. Housemartins - Caravan Of Love [03:40]
18. Love And Money - Strange Kind Of Love [04:17]
19. Simply Red - Holding Back The Years [04:31]

Various Artists - One Shot '80 - Volume 15 (2003)
CD 1
01. Toto Cutugno - L'Italiano [03:56]
02. Alan Sorrenti - Figli Delle Stelle [04:31]
03. Ivan Cattaneo - Polisex [04:33]
04. Ricchi e Poveri - Sara' Perche' Ti Amo [03:10]
05. Pino D'Angio' - Ma Quale Idea [04:25]
06. Pupo - Su Di Noi [03:18]
07. Donatella Rettore - Splendido Splendente [03:26]
08. Albano e Romina Power - Felicita' [03:12]
09. Alberto Camerini - Rock 'N' Roll Robot [03:11]
10. Giuni Russo - Un'Estate Al Mare [03:15]
11. Luis Miguel - Noi Ragazzi Di Oggi [03:49]
12. Heater Parisi - Cicale [03:52]
13. Umberto Balsamo - Balla [03:10]
14. Lorella Cuccarini - La Notte Vola [03:29]
15. Fiordaliso - Non Voglio Mica La Luna [04:01]
16. Claudio Cecchetto - Gioca Jouer [03:50]
17. Gruppo Italiano - Tropicana [03:28]
18. Ciao Fellini - La Mia Banda Suona Il Rock [02:54]
19. Le Ragazze Cin Cin - Cin Cin [04:45]
20. Stefania Rotolo & Sammi Barbot - Toccami [03:19]
CD 2
01. Sabrina - Sexy Girl [03:22]
02. Sandy Marton - Exotic And Erotic [04:22]
03. Diana East - Le Louvre [04:29]
04. Club House - Do It Again [05:19]
05. Novecento - I Need Love [04:17]
06. Vivien Vee - Higher [03:54]
07. Den Arrow - Charleston [05:52]
08. Gary Low - La Colegiala [04:28]
09. Linda Wesley - Wild On The Isle [03:49]
10. Tom Hooker - Help Me [04:31]
11. Jock Hattle - Yes No Family [04:21]
12. Fun Fun - Happy Station [03:39]
13. Valerie Dore - King Arthur [03:50]
14. Albert One - Heart On Fire [05:33]
15. Topo E Roby - Under The Ice [03:55]
16. Eddie Huntington - Up And Down [03:31]
17. Scotch - Mirage [03:50]
18. Tony Esposito - Papa Chico [03:58]

Various Artists - One Shot '80 - Volume 16 (2003)
01. Olivia Newton-John - Physical [03:44]
02. Tears For Fears - Change [04:16]
03. Kylie Minogue - I Should Be So Lucky [03:24]
04. Johnny Hates Jazz - I Don't Want To Be A Hero [03:35]
05. Bananarama - Venus [03:41]
06. Daryl Hall & John Oates - I Can't Go For That [05:10]
07. Mel & Kim - Respectable [03:23]
08. Robbie Nevil - C'est La Vie [03:05]
09. Mr. Mister - Kyrie [04:27]
10. The Power Station - Some Like It Hot [05:07]
11. Kool & The Gang - Fresh [04:25]
12. Bangles - Walk Like An Egyptian [03:25]
13. Nick Camen - Tell Me [03:37]
14. Alison Moyet - Love Resurrection [03:53]
15. Ready For The World - Oh Sheila [04:02]
16. Icehouse - Hey Little Girl [04:22]
17. Joe Dolce Music Theatre - Shaddap You Face [03:14]
18. Hue And Cry - Labour Of Love [06:30]
19. Jim Diamond - I Should Have Know Better [04:06]

Various Artists - One Shot '80 - Volume 17 (2004)
01. Frank Stallone - Far From Over [03:57]
02. Modern Talking - Brother Louie [03:38]
03. Christopher Cross - Ride Like The Wind [03:58]
04. Gino Vannelli - Wild Horses [04:42]
05. Dan Hartman - I Can Dream About You [04:12]
06. New Order - True Faith [05:54]
07. Mandy Smith - I (Just) Can't Wait [03:25]
08. Howard Jones - Like To Get To Know You Well [04:01]
09. Bruce Hornsby - The Way It Is [05:00]
10. Matthew Wilder - Break My Stride [03:02]
11. Philip Bailey - Walking On The Chinese Wall [03:41]
12. Level 42 - The Sun Goes Down (Living It Up) [04:18]
13. Corey Hart - Eurasian Eyes [05:31]
14. Chas Jankel - Glad To Know You [06:45]
15. Taco - Puttin' On The Ritz [04:36]
16. Tears For Fears - Sowing In The Seeds Of Love [06:19]
17. Europe - Carrie [04:32]

Various Artists - One Shot '80 - Volume 18 (2006)
01. Jermaine Jackson & Pia Zadora - When The Rain Begins To Fall [04:08]
02. A-Ha - The Sun Always Shines On Tv [05:08]
03. Tears For Fears - Mad World [03:38]
04. Tiffany - I Think We're Alone Now [03:47]
05. Inxs - Need You Tonight [03:05]
06. Fine Young Cannibals - She Drives Me Crazy [03:38]
07. Marillion - Kayleigh [03:35]
08. The Pretenders - Brass In Pocket [03:06]
09. Kiss - I Was Made For Lovin' You Baby [04:32]
10. Deborah Harry - French Kissin' In The Usa [05:09]
11. Secret Sevice - Oh Susie [03:42]
12. Alphaville - Sounds Like A Melody [04:47]
13. Martika - Toy Soldier [04:47]
14. The Boomtown Rats - I Don't Like Mondays [04:21]
15. Tanita Tikaram - Twist In My Sobriety [04:53]
16. Starship - We Built This City [04:53]
17. Terence Trent D'Arby - Wishing Well [03:33]
18. Alannah Myles - Black Velvet [04:49]
19. Cyndi Lauper - True Colors [03:46]

Various Artists - One Shot '80 - Volume 19 (2007)
01. Bandolero - Paris Latino [04:14]
02. Mike Oldfield - Foreign Affair [03:56]
03. Doctor & The Medics - Spirit In The Sky [03:31]
04. The Belle Stars - Iko Iko [03:00]
05. Chaka Khan - I Feel For You [05:49]
06. Corey Hart - Sunglasses At Night [03:57]
07. Samantha Fox - Nothing's Gonna Stop Me Now [03:47]
08. Keith Marshall - Only Crying [04:16]
09. Animotion - Obsession [03:56]
10. Jody Watley - Looking For A New Love [04:03]
11. E.G. Daily - Say It, Say It [04:39]
12. Yello - Vicious Games [04:23]
13. Mel & Kim - Showing Out (Get Fresh At The Weekend) [03:36]
14. ABC - Be Near Me [03:41]
15. Ashford & Simpson - Solid [05:11]
16. Act - Snobbery & Decay [05:05]
17. 'Til Tuesday - What About Love [04:00]
18. Art Of Noise - Moments In Love [04:37]

Various Artists - One Shot '80 - Volume 20 (2009)
CD 1
01. Ricchi & Poveri - Voulez Vous Danser [03:45]
02. Loretta Goggi - Maledetta Primavera [04:13]
03. Donatella Rettore - Lamette [02:50]
04. Franco Battiato - Centro Di Gravita' Permanente [03:57]
05. Matia Bazar - Ti Sento [04:15]
06. Amedeo Minghi E Mietta - Vattene Amore [04:03]
07. Gruppo Italiano - Anni Ruggenti [03:16]
08. Fabio Vanni - Lei Balla Sola [03:35]
09. Umberto Tozzi - Nell'Aria C'e' [04:09]
10. Tiziana Rivale - Sara' Quel Che Sara' [03:28]
11. Donatella Milani - Volevo Dirti [03:06]
12. Raf - Ti Pretendo [04:27]
13. Edoardo Bennato e Gianna Nannini - Un'Estate Italiana [04:12]
14. Antonello Venditti - Buona Domenica [05:40]
15. Alice - Per Elisa [03:41]
16. Ivano Fossati - La Mia Banda Suona Il Rock [03:53]
17. Enrico Ruggeri - Nuovo Swing [04:15]
18. Mango - Lei Verra' [04:09]
19. Loredana Berte' - Acqua [04:15]
20. Alberto Fortis - Marylin [03:10]
CD 2
01. Alberto Camerini - Tanz Bambolina [03:33]
02. Scialpi - Rockin'n'Rollin' [04:17]
03. Miguel Bose' - Bravi Ragazzi [04:08]
04. Nada - Dimmi Che Mi Ami, Che Mi Ami, Che Tu Ami Solo Me [03:10]
05. Stadio - Acqua E Sapone [04:33]
06. Luca Barbarossa - Yuppies [04:12]
07. Lu Colombo - Maracaibo [03:50]
08. Christian - Cara [03:43]
09. Viola Valentino - Comprami [03:57]
10. Laura Luca - Inutilmente Tu [04:31]
11. Enzo Malepasso - Ti Voglio Bene [03:41]
12. Sergio Caputo - Italiani Mambo! [04:29]
13. Rossana Casale - Brividi [03:30]
14. Teresa De Sio - Voglia 'e Turna' [04:23]
15. Fabio Concato - Sexy Tango [04:14]
16. Lucio Dalla - Washington [04:40]
17. Garbo - Il Fiume [04:39]
18. Anna Oxa - A Lei [03:57]
19. Marcella Bella - Rio De Janeiro [03:55]

Various Artists - One Shot '80 - 80! (1999)
01. Simple Minds - Don't you (forget about me) [04:20]
02. Frankie Goes to Hollywood - Relax [03:54]
03. Duran Duran - Wild boys [04:16]
04. Tears for Fears - Shout [06:30]
05. Culture Club - Karma chameleon [04:00]
06. Bronski Beat - Smalltown boy [05:02]
07. Spandau Ballet - Gold [03:50]
08. Daryl Hall & John Oates - Out of touch [04:20]
09. Wham! - Wake me up before you go-go [03:45]
10. Thompson Twins - Love on your side [03:49]
11. Peter Gabriel - Shock the monkey [03:57]
12. Lionel Richie - All night long [06:23]
13. Cindy Lauper - Girls just want to hanve fun [03:46]
14. Ultravox - Dancing with tears in my eyes [04:04]
15. New Order - Blue monday [07:28]
16. Dire Straits - Tunnel of love [08:11]

Various Artists - One Shot '80 - 80!! (2002)
01. The Cure - Lullaby [04:09]
02. Supertramp - The Logical Song [04:05]
03. Depeche Mode - Just Can't Get Enough [03:42]
04. Immagination - Musica And Lights [03:36]
05. Stevie Wonder - Master Blaster (Jammin') [05:09]
06. Duran Duran - Skin Trade [04:06]
07. Paul Young - Love Of The Common People [05:50]
08. Tina Turner - We Don't Need Another Hero [04:16]
09. Toto - Rosanna [05:30]
10. Eurythmics - Sweet Dreams [04:52]
11. Bryan Ferry - Slave To Love [04:18]
12. Wham! - I'm Your Man [04:04]
13. Donna Summer - She Works Hard For The Money [05:20]
14. Tears For Fears - Everybody Wants To Rule The World [04:12]
15. Kate Bush - Babooshka [03:29]
16. Frankie Goes To Hollywood - Two Tribes [03:23]
17. Level 42 - Something About You [04:25]
18. Europe - The Final Countdown [05:09]

Various Artists - One Shot '80 - Black '80 (2004)
CD 1
01. Marvin Gaye - Sexual healing [04:11]
02. Freddie Jackson - Rock me tonight (for old times sake) [07:12]
03. Gregory Abbott - Shake you down [04:06]
04. Al B. Sure! - Nite and day [04:01]
05. Anita Baker - Sweet love [04:26]
06. Luther Vandross - Any love [05:03]
07. Bobby Brown - Rock wit'cha [04:47]
08. Brenda Russel - Piano in the dark [05:21]
09. Isley Jasper Isley - Caravan of love [05:47]
10. Lionel Richie - You are [05:03]
11. Cameo - Candy [05:42]
12. Loose Ends - Hangin' on a string [05:59]
13. Dennis Edwards (ft. Siedah Garret) - Don' t look any further [04:05]
14. Quicy Jones (ft. Barry White…) - The secret garden (Sweet seduction suite) [06:41]
15. Jennifer Holliday - And I am telling you I'm not going [04:08]
CD 2
01. Rufus And Chaka Khan - Ain't Nobody [04:43]
02. The Isley Brothers - Between The Sheets [05:42]
03. Commodores - Nightshift [05:06]
04. Jonathan Butler - Lies [05:20]
05. Smokey Robinson - Being With You [04:03]
06. Teddy Pendergrass - Joy [06:20]
07. Keith Sweat (ft. Jacci McGhee) - Make It Last Forever [04:15]
08. Jeffrey Osborne - Stay With Me Tonight [05:56]
09. Mtume - Juicy Fruit [05:57]
10. Bobby Womack - I wish He Didn't Trust Me So Much [04:19]
11. Phyllis Hyman - You Just Don't Know [04:17]
12. New Edition - Mr. Telephone Man [04:01]
13. Tashan - You've Got The Right Attitude [06:09]
14. Frankie Beverly (ft. Maze) - Back In Stride [07:07]
15. Freddie Jackson and Melba Moore - A Little Bit More [04:57]


Exact Audio Copy V1.0 beta 3 from 29. August 2011

EAC extraction logfile from 28. September 2013, 19:00

Various Artists / One Shot '80 - Volume 1

Used drive : TSSTcorpCDDVDW SH-S223B Adapter: 1 ID: 1

Read mode : Secure
Utilize accurate stream : Yes
Defeat audio cache : Yes
Make use of C2 pointers : No

Read offset correction : 6
Overread into Lead-In and Lead-Out : No
Fill up missing offset samples with silence : Yes
Delete leading and trailing silent blocks : No
Null samples used in CRC calculations : Yes
Used interface : Native Win32 interface for Win NT & 2000
Gap handling : Appended to previous track

Used output format : User Defined Encoder
Selected bitrate : 1024 kBit/s
Quality : High
Add ID3 tag : No
Command line compressor : C:\Program Files (x86)\_Audio\FLAC\bin\flac.exe
Additional command line options : -8 -V -T "ARTIST=%artist%" -T "TITLE=%title%" -T "ALBUM=%albumtitle%" -T "DATE=%year%" -T "TRACKNUMBER=%tracknr%" -T "TOTALTRACKS=%numtracks%" -T "GENRE=%genre%" -T "ALBUMARTIST=%albumartist%" -T "ALBUM ARTIST=%albumartist%" -T "COMMENT=EAC Secure Mode, Test & Copy, AccurateRip, FLAC -8 by VinceVega" %source%


TOC of the extracted CD

Track | Start | Length | Start sector | End sector
––––––––––––––––––––––––––––-
1 | 0:00.00 | 3:21.01 | 0 | 15075
2 | 3:21.01 | 3:39.20 | 15076 | 31520
3 | 7:00.21 | 4:15.66 | 31521 | 50711
4 | 11:16.12 | 3:39.45 | 50712 | 67181
5 | 14:55.57 | 3:59.69 | 67182 | 85175
6 | 18:55.51 | 3:05.72 | 85176 | 99122
7 | 22:01.48 | 3:59.52 | 99123 | 117099
8 | 26:01.25 | 3:29.49 | 117100 | 132823
9 | 29:30.74 | 5:42.74 | 132824 | 158547
10 | 35:13.73 | 4:11.68 | 158548 | 177440
11 | 39:25.66 | 4:42.42 | 177441 | 198632
12 | 44:08.33 | 3:51.66 | 198633 | 216023
13 | 48:00.24 | 4:45.23 | 216024 | 237421
14 | 52:45.47 | 3:58.12 | 237422 | 255283
15 | 56:43.59 | 5:18.56 | 255284 | 279189
16 | 62:02.40 | 3:52.23 | 279190 | 296612
17 | 65:54.63 | 3:27.32 | 296613 | 312169
18 | 69:22.20 | 4:31.09 | 312170 | 332503
19 | 73:53.29 | 3:34.43 | 332504 | 348596


Track 1

Filename E:\Release\Various Artists - One Shot '80 - Volume 1 (1998) [FLAC]\01 - The Buggles - Video Killed The Radio Star.wav

Pre-gap length 0:00:02.00

Peak level 100.0 %
Extraction speed 4.8 X
Track quality 100.0 %
Test CRC 9C393110
Copy CRC 9C393110
Accurately ripped (confidence 2) [468C4E18] (AR v2)
Copy OK

Track 2

Filename E:\Release\Various Artists - One Shot '80 - Volume 1 (1998) [FLAC]\02 - Kajagoogoo - Too Shy.wav

Pre-gap length 0:00:00.72

Peak level 100.0 %
Extraction speed 5.3 X
Track quality 100.0 %
Test CRC 72359F88
Copy CRC 72359F88
Accurately ripped (confidence 2) [C2BB320F] (AR v2)
Copy OK

Track 3

Filename E:\Release\Various Artists - One Shot '80 - Volume 1 (1998) [FLAC]\03 - Haven 17 - Let Me Go.wav

Pre-gap length 0:00:00.72

Peak level 100.0 %
Extraction speed 5.8 X
Track quality 100.0 %
Test CRC CBB0CA1D
Copy CRC CBB0CA1D
Accurately ripped (confidence 2) [6B806EC5] (AR v2)
Copy OK

Track 4

Filename E:\Release\Various Artists - One Shot '80 - Volume 1 (1998) [FLAC]\04 - Industry - State Of The Nation.wav

Pre-gap length 0:00:00.72

Peak level 100.0 %
Extraction speed 6.0 X
Track quality 100.0 %
Test CRC C008CBEE
Copy CRC C008CBEE
Accurately ripped (confidence 2) [1A6E9DFF] (AR v2)
Copy OK

Track 5

Filename E:\Release\Various Artists - One Shot '80 - Volume 1 (1998) [FLAC]\05 - Wang Chung - Dance Hall Days.wav

Pre-gap length 0:00:00.72

Peak level 100.0 %
Extraction speed 6.4 X
Track quality 100.0 %
Test CRC 886E0987
Copy CRC 886E0987
Accurately ripped (confidence 2) [1FDE6C12] (AR v2)
Copy OK

Track 6

Filename E:\Release\Various Artists - One Shot '80 - Volume 1 (1998) [FLAC]\06 - Belouis Some - Imagination.wav

Pre-gap length 0:00:00.72

Peak level 100.0 %
Extraction speed 6.5 X
Track quality 100.0 %
Test CRC 32D0A5C1
Copy CRC 32D0A5C1
Accurately ripped (confidence 2) [05DF9FFA] (AR v2)
Copy OK

Track 7

Filename E:\Release\Various Artists - One Shot '80 - Volume 1 (1998) [FLAC]\07 - Freur - Doot Doot.wav

Pre-gap length 0:00:00.72

Peak level 100.0 %
Extraction speed 5.5 X
Track quality 99.9 %
Test CRC A39D459E
Copy CRC A39D459E
Accurately ripped (confidence 2) [D74D6197] (AR v2)
Copy OK

Track 8

Filename E:\Release\Various Artists - One Shot '80 - Volume 1 (1998) [FLAC]\08 - Abc - The Look Of Love.wav

Pre-gap length 0:00:00.72

Peak level 100.0 %
Extraction speed 7.2 X
Track quality 100.0 %
Test CRC 0F4F7224
Copy CRC 0F4F7224
Accurately ripped (confidence 2) [6150A428] (AR v2)
Copy OK

Track 9

Filename E:\Release\Various Artists - One Shot '80 - Volume 1 (1998) [FLAC]\09 - Mr. Mister - Broken Wings.wav

Pre-gap length 0:00:00.72

Peak level 100.0 %
Extraction speed 7.9 X
Track quality 100.0 %
Test CRC 46896158
Copy CRC 46896158
Accurately ripped (confidence 2) [5FB0E877] (AR v2)
Copy OK

Track 10

Filename E:\Release\Various Artists - One Shot '80 - Volume 1 (1998) [FLAC]\10 - PhD - I Won't Let You Down.wav

Pre-gap length 0:00:00.72

Peak level 99.1 %
Extraction speed 8.1 X
Track quality 100.0 %
Test CRC C19CD7C0
Copy CRC C19CD7C0
Accurately ripped (confidence 2) [95974918] (AR v2)
Copy OK

Track 11

Filename E:\Release\Various Artists - One Shot '80 - Volume 1 (1998) [FLAC]\11 - Indeep - Last Night A D.J. Saved My Life.wav

Pre-gap length 0:00:00.72

Peak level 100.0 %
Extraction speed 8.4 X
Track quality 100.0 %
Test CRC D850A157
Copy CRC D850A157
Accurately ripped (confidence 2) [E7FDB17F] (AR v2)
Copy OK

Track 12

Filename E:\Release\Various Artists - One Shot '80 - Volume 1 (1998) [FLAC]\12 - Quarterflash - Harden My Heart.wav

Pre-gap length 0:00:00.72

Peak level 100.0 %
Extraction speed 8.5 X
Track quality 100.0 %
Test CRC 519E4D5B
Copy CRC 519E4D5B
Accurately ripped (confidence 2) [70B77AD6] (AR v2)
Copy OK

Track 13

Filename E:\Release\Various Artists - One Shot '80 - Volume 1 (1998) [FLAC]\13 - Alphaville - Big In Japan.wav

Pre-gap length 0:00:00.72

Peak level 100.0 %
Extraction speed 9.0 X
Track quality 100.0 %
Test CRC EF8FBB47
Copy CRC EF8FBB47
Accurately ripped (confidence 2) [3AAA14EE] (AR v2)
Copy OK

Track 14

Filename E:\Release\Various Artists - One Shot '80 - Volume 1 (1998) [FLAC]\14 - Fox The Fox - Precious Little Diamond.wav

Pre-gap length 0:00:00.72

Peak level 100.0 %
Extraction speed 9.0 X
Track quality 100.0 %
Test CRC 640E6F94
Copy CRC 640E6F94
Accurately ripped (confidence 2) [7BDBC077] (AR v2)
Copy OK

Track 15

Filename E:\Release\Various Artists - One Shot '80 - Volume 1 (1998) [FLAC]\15 - Russ Ballard - Voices.wav

Pre-gap length 0:00:00.72

Peak level 100.0 %
Extraction speed 9.7 X
Track quality 100.0 %
Test CRC 099025A5
Copy CRC 099025A5
Accurately ripped (confidence 2) [DA0A8B57] (AR v2)
Copy OK

Track 16

Filename E:\Release\Various Artists - One Shot '80 - Volume 1 (1998) [FLAC]\16 - Nena - 99 Luftballons.wav

Pre-gap length 0:00:00.72

Peak level 98.3 %
Extraction speed 9.5 X
Track quality 100.0 %
Test CRC BD7449AF
Copy CRC BD7449AF
Accurately ripped (confidence 2) [D141E214] (AR v2)
Copy OK

Track 17

Filename E:\Release\Various Artists - One Shot '80 - Volume 1 (1998) [FLAC]\17 - Johnny Hates Jazz - Shattered Dreams.wav

Pre-gap length 0:00:00.72

Peak level 100.0 %
Extraction speed 9.4 X
Track quality 100.0 %
Test CRC 0B92730C
Copy CRC 0B92730C
Accurately ripped (confidence 2) [917A961C] (AR v2)
Copy OK

Track 18

Filename E:\Release\Various Artists - One Shot '80 - Volume 1 (1998) [FLAC]\18 - Nik Kershaw - Wouldn't It Be Good.wav

Pre-gap length 0:00:00.72

Peak level 100.0 %
Extraction speed 10.1 X
Track quality 100.0 %
Test CRC 3F5D7922
Copy CRC 3F5D7922
Accurately ripped (confidence 2) [EC04D669] (AR v2)
Copy OK

Track 19

Filename E:\Release\Various Artists - One Shot '80 - Volume 1 (1998) [FLAC]\19 - Nikka Costa - (Out Here) On My Own.wav

Pre-gap length 0:00:00.72

Peak level 85.7 %
Extraction speed 9.9 X
Track quality 100.0 %
Test CRC 64A88395
Copy CRC 64A88395
Accurately ripped (confidence 2) [FC796477] (AR v2)
Copy OK


All tracks accurately ripped

No errors occurred

End of status report

==== Log checksum ACCBA8188D2C19BB26293C579EB3F52F39BBF818E0185F472F803B77DBCC00D7 ====
============================================
Exact Audio Copy V1.0 beta 3 from 29. August 2011

EAC extraction logfile from 28. September 2013, 19:32

Various Artists / One Shot '80 - Volume 2

Used drive : TSSTcorpCDDVDW SH-S223B Adapter: 1 ID: 1

Read mode : Secure
Utilize accurate stream : Yes
Defeat audio cache : Yes
Make use of C2 pointers : No

Read offset correction : 6
Overread into Lead-In and Lead-Out : No
Fill up missing offset samples with silence : Yes
Delete leading and trailing silent blocks : No
Null samples used in CRC calculations : Yes
Used interface : Native Win32 interface for Win NT & 2000
Gap handling : Appended to previous track

Used output format : User Defined Encoder
Selected bitrate : 1024 kBit/s
Quality : High
Add ID3 tag : No
Command line compressor : C:\Program Files (x86)\_Audio\FLAC\bin\flac.exe
Additional command line options : -8 -V -T "ARTIST=%artist%" -T "TITLE=%title%" -T "ALBUM=%albumtitle%" -T "DATE=%year%" -T "TRACKNUMBER=%tracknr%" -T "TOTALTRACKS=%numtracks%" -T "GENRE=%genre%" -T "ALBUMARTIST=%albumartist%" -T "ALBUM ARTIST=%albumartist%" -T "COMMENT=EAC Secure Mode, Test & Copy, AccurateRip, FLAC -8 by VinceVega" %source%


TOC of the extracted CD

Track | Start | Length | Start sector | End sector
––––––––––––––––––––––––––––-
1 | 0:00.00 | 4:48.47 | 0 | 21646
2 | 4:48.47 | 3:52.03 | 21647 | 39049
3 | 8:40.50 | 4:29.49 | 39050 | 59273
4 | 13:10.24 | 4:41.58 | 59274 | 80406
5 | 17:52.07 | 3:58.61 | 80407 | 98317
6 | 21:50.68 | 3:11.22 | 98318 | 112664
7 | 25:02.15 | 4:03.00 | 112665 | 130889
8 | 29:05.15 | 3:19.19 | 130890 | 145833
9 | 32:24.34 | 3:30.67 | 145834 | 161650
10 | 35:55.26 | 3:51.26 | 161651 | 179001
11 | 39:46.52 | 3:48.51 | 179002 | 196152
12 | 43:35.28 | 4:17.02 | 196153 | 215429
13 | 47:52.30 | 3:45.38 | 215430 | 232342
14 | 51:37.68 | 3:21.16 | 232343 | 247433
15 | 54:59.09 | 4:36.74 | 247434 | 268207
16 | 59:36.08 | 3:37.04 | 268208 | 284486
17 | 63:13.12 | 6:23.29 | 284487 | 313240
18 | 69:36.41 | 3:53.00 | 313241 | 330715
19 | 73:29.41 | 4:55.01 | 330716 | 352841


Track 1

Filename E:\Release\Various Artists - One Shot '80 - Volume 2 (1998) [FLAC]\01 - Propaganda - Duel.wav

Pre-gap length 0:00:02.00

Peak level 99.9 %
Extraction speed 5.1 X
Track quality 100.0 %
Test CRC 6CA86853
Copy CRC 6CA86853
Accurately ripped (confidence 2) [CDF788B2] (AR v2)
Copy OK

Track 2

Filename E:\Release\Various Artists - One Shot '80 - Volume 2 (1998) [FLAC]\02 - Talk Talk - It's My Life.wav

Pre-gap length 0:00:00.62

Peak level 99.0 %
Extraction speed 4.4 X
Track quality 99.9 %
Test CRC 781E3381
Copy CRC 781E3381
Accurately ripped (confidence 2) [25895F52] (AR v2)
Copy OK

Track 3

Filename E:\Release\Various Artists - One Shot '80 - Volume 2 (1998) [FLAC]\03 - Kissing The Pink - One Step.wav

Pre-gap length 0:00:00.61

Peak level 99.8 %
Extraction speed 6.0 X
Track quality 100.0 %
Test CRC 2A60B970
Copy CRC 2A60B970
Accurately ripped (confidence 2) [FF66000B] (AR v2)
Copy OK

Track 4

Filename E:\Release\Various Artists - One Shot '80 - Volume 2 (1998) [FLAC]\04 - The Twins - Face To Face, Heart To Heart.wav

Pre-gap length 0:00:00.62

Peak level 92.1 %
Extraction speed 6.5 X
Track quality 100.0 %
Test CRC C015D814
Copy CRC C015D814
Accurately ripped (confidence 2) [C78E1929] (AR v2)
Copy OK

Track 5

Filename E:\Release\Various Artists - One Shot '80 - Volume 2 (1998) [FLAC]\05 - Rockwell - Somebody's Watching Me.wav

Pre-gap length 0:00:00.62

Peak level 99.9 %
Extraction speed 6.7 X
Track quality 100.0 %
Test CRC 6CDB307C
Copy CRC 6CDB307C
Accurately ripped (confidence 2) [A3EA28A6] (AR v2)
Copy OK

Track 6

Filename E:\Release\Various Artists - One Shot '80 - Volume 2 (1998) [FLAC]\06 - Hipsway - The Honey Thief.wav

Pre-gap length 0:00:00.62

Peak level 100.0 %
Extraction speed 6.8 X
Track quality 100.0 %
Test CRC 716C9A1E
Copy CRC 716C9A1E
Accurately ripped (confidence 2) [AE40D33A] (AR v2)
Copy OK

Track 7

Filename E:\Release\Various Artists - One Shot '80 - Volume 2 (1998) [FLAC]\07 - The Blow Monkeys - It Doesn't Have To Be This Way.wav

Pre-gap length 0:00:00.63

Peak level 99.9 %
Extraction speed 5.8 X
Track quality 99.9 %
Test CRC 36AAFB07
Copy CRC 36AAFB07
Accurately ripped (confidence 2) [54D25E44] (AR v2)
Copy OK

Track 8

Filename E:\Release\Various Artists - One Shot '80 - Volume 2 (1998) [FLAC]\08 - Dead Or Alive - You Spin Me Round (Like A Record).wav

Pre-gap length 0:00:00.63

Peak level 100.0 %
Extraction speed 7.4 X
Track quality 100.0 %
Test CRC D9A866F7
Copy CRC D9A866F7
Accurately ripped (confidence 2) [62ACFB73] (AR v2)
Copy OK

Track 9

Filename E:\Release\Various Artists - One Shot '80 - Volume 2 (1998) [FLAC]\09 - Kim Wilde - You Came.wav

Pre-gap length 0:00:00.62

Peak level 99.9 %
Extraction speed 7.6 X
Track quality 100.0 %
Test CRC C8171B1C
Copy CRC C8171B1C
Accurately ripped (confidence 2) [0E367B2C] (AR v2)
Copy OK

Track 10

Filename E:\Release\Various Artists - One Shot '80 - Volume 2 (1998) [FLAC]\10 - T.X.T. - Girl's Got A Brand New Toy.wav

Pre-gap length 0:00:00.62

Peak level 84.3 %
Extraction speed 8.0 X
Track quality 100.0 %
Test CRC B35A4270
Copy CRC B35A4270
Accurately ripped (confidence 2) [853AAC6C] (AR v2)
Copy OK

Track 11

Filename E:\Release\Various Artists - One Shot '80 - Volume 2 (1998) [FLAC]\11 - Greg Kihn Band - Jeopardy.wav

Pre-gap length 0:00:00.62

Peak level 99.9 %
Extraction speed 8.2 X
Track quality 100.0 %
Test CRC 014D01B3
Copy CRC 014D01B3
Accurately ripped (confidence 2) [624DEB55] (AR v2)
Copy OK

Track 12

Filename E:\Release\Various Artists - One Shot '80 - Volume 2 (1998) [FLAC]\12 - Breakfast Club - Right On Track.wav

Pre-gap length 0:00:00.62

Peak level 100.0 %
Extraction speed 8.6 X
Track quality 100.0 %
Test CRC 79AACFE8
Copy CRC 79AACFE8
Accurately ripped (confidence 2) [4E254A80] (AR v2)
Copy OK

Track 13

Filename E:\Release\Various Artists - One Shot '80 - Volume 2 (1998) [FLAC]\13 - Go West - We Close Our Eyes.wav

Pre-gap length 0:00:00.62

Peak level 84.1 %
Extraction speed 8.7 X
Track quality 100.0 %
Test CRC A5675568
Copy CRC A5675568
Accurately ripped (confidence 2) [5C0D46CC] (AR v2)
Copy OK

Track 14

Filename E:\Release\Various Artists - One Shot '80 - Volume 2 (1998) [FLAC]\14 - King - Love And Pride.wav

Pre-gap length 0:00:00.62

Peak level 100.0 %
Extraction speed 8.6 X
Track quality 100.0 %
Test CRC A8EDEEFC
Copy CRC A8EDEEFC
Accurately ripped (confidence 2) [DC067D2B] (AR v2)
Copy OK

Track 15

Filename E:\Release\Various Artists - One Shot '80 - Volume 2 (1998) [FLAC]\15 - Love And Money - Halleluiah Man.wav

Pre-gap length 0:00:00.62

Peak level 100.0 %
Extraction speed 9.4 X
Track quality 100.0 %
Test CRC A56CD4B3
Copy CRC A56CD4B3
Accurately ripped (confidence 2) [57DB0D3D] (AR v2)
Copy OK

Track 16

Filename E:\Release\Various Artists - One Shot '80 - Volume 2 (1998) [FLAC]\16 - J. Geils Band - Centerfold.wav

Pre-gap length 0:00:00.62

Peak level 99.8 %
Extraction speed 9.3 X
Track quality 100.0 %
Test CRC 9745B22E
Copy CRC 9745B22E
Accurately ripped (confidence 2) [5BA1A63A] (AR v2)
Copy OK

Track 17

Filename E:\Release\Various Artists - One Shot '80 - Volume 2 (1998) [FLAC]\17 - Picnic At The White House - We Need Protection.wav

Pre-gap length 0:00:00.62

Peak level 99.8 %
Extraction speed 10.2 X
Track quality 100.0 %
Test CRC 6C287D04
Copy CRC 6C287D04
Accurately ripped (confidence 2) [7E34233C] (AR v2)
Copy OK

Track 18

Filename E:\Release\Various Artists - One Shot '80 - Volume 2 (1998) [FLAC]\18 - Nik Kershaw - The Riddle.wav

Pre-gap length 0:00:00.62

Peak level 99.9 %
Extraction speed 9.9 X
Track quality 100.0 %
Test CRC 00C370B6
Copy CRC 00C370B6
Accurately ripped (confidence 2) [D649AD00] (AR v2)
Copy OK

Track 19

Filename E:\Release\Various Artists - One Shot '80 - Volume 2 (1998) [FLAC]\19 - M - Pop Muzic.wav

Pre-gap length 0:00:00.62

Peak level 82.1 %
Extraction speed 10.4 X
Track quality 100.0 %
Test CRC 40C8F351
Copy CRC 40C8F351
Accurately ripped (confidence 2) [000D0F71] (AR v2)
Copy OK


All tracks accurately ripped

No errors occurred

End of status report

==== Log checksum 6D709A99B2B5D29DF5FA3286352E88CE2C9CBAC2CEAA48CBAF583CAA4D103418 ====
=====================================
Exact Audio Copy V1.0 beta 3 from 29. August 2011

EAC extraction logfile from 28. September 2013, 20:34

Various Artists / One Shot '80 - Volume 3

Used drive : TSSTcorpCDDVDW SH-S223B Adapter: 1 ID: 1

Read mode : Secure
Utilize accurate stream : Yes
Defeat audio cache : Yes
Make use of C2 pointers : No

Read offset correction : 6
Overread into Lead-In and Lead-Out : No
Fill up missing offset samples with silence : Yes
Delete leading and trailing silent blocks : No
Null samples used in CRC calculations : Yes
Used interface : Native Win32 interface for Win NT & 2000
Gap handling : Appended to previous track

Used output format : User Defined Encoder
Selected bitrate : 1024 kBit/s
Quality : High
Add ID3 tag : No
Command line compressor : C:\Program Files (x86)\_Audio\FLAC\bin\flac.exe
Additional command line options : -8 -V -T "ARTIST=%artist%" -T "TITLE=%title%" -T "ALBUM=%albumtitle%" -T "DATE=%year%" -T "TRACKNUMBER=%tracknr%" -T "TOTALTRACKS=%numtracks%" -T "GENRE=%genre%" -T "ALBUMARTIST=%albumartist%" -T "ALBUM ARTIST=%albumartist%" -T "COMMENT=EAC Secure Mode, Test & Copy, AccurateRip, FLAC -8 by VinceVega" %source%


TOC of the extracted CD

Track | Start | Length | Start sector | End sector
––––––––––––––––––––––––––––-
1 | 0:00.00 | 3:22.49 | 0 | 15198
2 | 3:22.49 | 3:26.48 | 15199 | 30696
3 | 6:49.22 | 4:32.32 | 30697 | 51128
4 | 11:21.54 | 3:46.01 | 51129 | 68079
5 | 15:07.55 | 5:27.64 | 68080 | 92668
6 | 20:35.44 | 4:12.12 | 92669 | 111580
7 | 24:47.56 | 3:57.22 | 111581 | 129377
8 | 28:45.03 | 4:14.27 | 129378 | 148454
9 | 32:59.30 | 3:21.71 | 148455 | 163600
10 | 36:21.26 | 4:22.23 | 163601 | 183273
11 | 40:43.49 | 4:29.59 | 183274 | 203507
12 | 45:13.33 | 5:00.30 | 203508 | 226037
13 | 50:13.63 | 3:35.15 | 226038 | 242177
14 | 53:49.03 | 4:06.42 | 242178 | 260669
15 | 57:55.45 | 5:50.09 | 260670 | 286928
16 | 63:45.54 | 4:17.37 | 286929 | 306240
17 | 68:03.16 | 3:41.62 | 306241 | 322877
18 | 71:45.03 | 3:36.41 | 322878 | 339118


Track 1

Filename E:\Release\Various Artists - One Shot '80 - Volume 3 (1999) [FLAC]\01 - Modern Talking - You're My Heart, You're My Soul.wav

Pre-gap length 0:00:02.00

Peak level 89.3 %
Extraction speed 4.8 X
Track quality 100.0 %
Test CRC 85048EDF
Copy CRC 85048EDF
Accurately ripped (confidence 3) [82811EB4] (AR v2)
Copy OK

Track 2

Filename E:\Release\Various Artists - One Shot '80 - Volume 3 (1999) [FLAC]\02 - F.R. David - Words.wav

Peak level 80.2 %
Extraction speed 5.1 X
Track quality 100.0 %
Test CRC 320C95B6
Copy CRC 320C95B6
Accurately ripped (confidence 3) [8EB3AF5E] (AR v2)
Copy OK

Track 3

Filename E:\Release\Various Artists - One Shot '80 - Volume 3 (1999) [FLAC]\03 - The Alan Parson Project - Eye In The Sky.wav

Peak level 95.5 %
Extraction speed 5.8 X
Track quality 100.0 %
Test CRC A9D5F0C2
Copy CRC A9D5F0C2
Accurately ripped (confidence 3) [7BDEB600] (AR v2)
Copy OK

Track 4

Filename E:\Release\Various Artists - One Shot '80 - Volume 3 (1999) [FLAC]\04 - William Pitt - City Lights.wav

Peak level 95.4 %
Extraction speed 6.0 X
Track quality 100.0 %
Test CRC A3320677
Copy CRC A3320677
Accurately ripped (confidence 3) [70B68C80] (AR v2)
Copy OK

Track 5

Filename E:\Release\Various Artists - One Shot '80 - Volume 3 (1999) [FLAC]\05 - Lotus Eaters - The First Picture Of You.wav

Peak level 94.7 %
Extraction speed 6.7 X
Track quality 100.0 %
Test CRC 9FB329C5
Copy CRC 9FB329C5
Accurately ripped (confidence 3) [B6A14634] (AR v2)
Copy OK

Track 6

Filename E:\Release\Various Artists - One Shot '80 - Volume 3 (1999) [FLAC]\06 - The Korgis - Everybody's Got To Learn Sometime.wav

Peak level 79.7 %
Extraction speed 6.9 X
Track quality 100.0 %
Test CRC 9FACA70C
Copy CRC 9FACA70C
Accurately ripped (confidence 3) [3BA2CC89] (AR v2)
Copy OK

Track 7

Filename E:\Release\Various Artists - One Shot '80 - Volume 3 (1999) [FLAC]\07 - Robert Palmer - Johnny And Mary.wav

Peak level 93.3 %
Extraction speed 7.1 X
Track quality 100.0 %
Test CRC BFE18A71
Copy CRC BFE18A71
Accurately ripped (confidence 3) [115BD644] (AR v2)
Copy OK

Track 8

Filename E:\Release\Various Artists - One Shot '80 - Volume 3 (1999) [FLAC]\08 - Boston - Amanda.wav

Peak level 95.4 %
Extraction speed 7.5 X
Track quality 100.0 %
Test CRC 6F9C506B
Copy CRC 6F9C506B
Accurately ripped (confidence 3) [729EE20C] (AR v2)
Copy OK

Track 9

Filename E:\Release\Various Artists - One Shot '80 - Volume 3 (1999) [FLAC]\09 - Trio - Da Da Da.wav

Peak level 95.4 %
Extraction speed 7.5 X
Track quality 100.0 %
Test CRC 1BFD7F5E
Copy CRC 1BFD7F5E
Accurately ripped (confidence 3) [141D6234] (AR v2)
Copy OK

Track 10

Filename E:\Release\Various Artists - One Shot '80 - Volume 3 (1999) [FLAC]\10 - Thompson Twins - Doctor! Doctor!.wav

Peak level 95.5 %
Extraction speed 8.0 X
Track quality 100.0 %
Test CRC B1662707
Copy CRC B1662707
Accurately ripped (confidence 3) [2D60A37E] (AR v2)
Copy OK

Track 11

Filename E:\Release\Various Artists - One Shot '80 - Volume 3 (1999) [FLAC]\11 - Double - The Captain Of Her Heart.wav

Peak level 93.3 %
Extraction speed 8.4 X
Track quality 100.0 %
Test CRC 1B8761AE
Copy CRC 1B8761AE
Accurately ripped (confidence 3) [8E061EB5] (AR v2)
Copy OK

Track 12

Filename E:\Release\Various Artists - One Shot '80 - Volume 3 (1999) [FLAC]\12 - The Adventures - Broken Land.wav

Peak level 90.1 %
Extraction speed 8.8 X
Track quality 100.0 %
Test CRC 1F27A860
Copy CRC 1F27A860
Accurately ripped (confidence 3) [40FBB29D] (AR v2)
Copy OK

Track 13

Filename E:\Release\Various Artists - One Shot '80 - Volume 3 (1999) [FLAC]\13 - Mike Oldfield - Moonlight Shadow.wav

Peak level 95.4 %
Extraction speed 8.6 X
Track quality 100.0 %
Test CRC 7D636EC7
Copy CRC 7D636EC7
Accurately ripped (confidence 3) [853E24D2] (AR v2)
Copy OK

Track 14

Filename E:\Release\Various Artists - One Shot '80 - Volume 3 (1999) [FLAC]\14 - Rupert Holmes - Him.wav

Peak level 95.4 %
Extraction speed 8.9 X
Track quality 100.0 %
Test CRC AB87C9C3
Copy CRC AB87C9C3
Accurately ripped (confidence 3) [148B6B50] (AR v2)
Copy OK

Track 15

Filename E:\Release\Various Artists - One Shot '80 - Volume 3 (1999) [FLAC]\15 - Glenn Frey - You Belong To The City.wav

Peak level 95.4 %
Extraction speed 9.6 X
Track quality 100.0 %
Test CRC C0437993
Copy CRC C0437993
Accurately ripped (confidence 3) [5416C198] (AR v2)
Copy OK

Track 16

Filename E:\Release\Various Artists - One Shot '80 - Volume 3 (1999) [FLAC]\16 - Mike Francis - Survivor.wav

Peak level 95.4 %
Extraction speed 9.7 X
Track quality 100.0 %
Test CRC CBDFAD74
Copy CRC CBDFAD74
Accurately ripped (confidence 3) [1AFCC32D] (AR v2)
Copy OK

Track 17

Filename E:\Release\Various Artists - One Shot '80 - Volume 3 (1999) [FLAC]\17 - Kim Carnes - Bette Davis Eyes.wav

Peak level 95.5 %
Extraction speed 9.6 X
Track quality 100.0 %
Test CRC 7825DDE6
Copy CRC 7825DDE6
Accurately ripped (confidence 3) [A4C7EF07] (AR v2)
Copy OK

Track 18

Filename E:\Release\Various Artists - One Shot '80 - Volume 3 (1999) [FLAC]\18 - Lio - Amoureux Solitaires.wav

Peak level 64.0 %
Extraction speed 9.8 X
Track quality 100.0 %
Test CRC 471D99C3
Copy CRC 471D99C3
Accurately ripped (confidence 3) [38E2BEDE] (AR v2)
Copy OK


All tracks accurately ripped

No errors occurred

End of status report

==== Log checksum B25EEB6B0E504E6AC84486AFE18A64B4C511AC593C65B4B99F851DD11057A321 ====


All 23 log files included…