Tags
Language
Tags

V.A. - Top 100 70's Rock Albums By Ultimate Classic Rock: CD76-CD100 (1970-1979)

Posted By: Discograf_man
V.A. - Top 100 70's Rock Albums By Ultimate Classic Rock: CD76-CD100 (1970-1979)

V.A. - Top 100 70's Rock Albums By Ultimate Classic Rock: CD76-CD100 (1970-1979)
FLAC (*image+.cue+log ,scans) | Run Time: 17:50:13 | 6.78 Gb
Genre: Classic rock, psychedelic rock, alternative rock, progressive rock, hard rock
Label: Parlophone, Columbia, Elektra, Warner Bros. Records…

Picking our list of the Top 100 '70s Rock Albums was no easy task, if only because that period boasted such sheer diversity. The decade saw rock branch into a series of intriguing new subgenres, beginning, at the dawn of the '70s, with heavy metal. Singer-songwriters came into their own; country-rock flourished. The era ended with the revitalizing energy of punk and New Wave. No list would be complete without climbing onto every one of those limbs. Here are the Top 100 '70s Rock Albums, presented chronologically from the start of the decade.
V.A. - Top 100 70's Rock Albums By Ultimate Classic Rock: CD76-CD100 (1970-1979)

Contents:

1977 - Fleetwood Mac - Rumours (1984 Germany, Warner Bros. Records - 03010-2) Target CD
1976 - The Eagles - Hotel California (1999 US, Asylum Records - 103-2; 253 051) Reissue, Remastered
1977 - AC/DC - Let There Be Rock (2002 Germany, ATCO Records - 7567-92445-2) Reissue, Remastered
1977 - Cheap Trick - In Color (1990 US, Epic - EK 34884) Reissue
1977 - Steely Dan - Aja (1984 Germany, MCA Records - 250 449-2) Reissue
1977 - Billy Joel - The Stranger (1998 US, Columbia - CK 69384) Reissue, Remastered
1977 - Sex Pistols - Never Mind The Bollocks, Here's The Sex Pistols (1993 US, Warner Bros. Records - 3147-2) Reissue, Repress
1977 - Meat Loaf - Bat Out Of Hell (1984 Japan/USA, Epic - EK 34974)
1977 - Eric Clapton - Slowhand (1991 US, Mobile Fidelity Sound Lab - UDCD 553) Remastered
1978 - Van Halen - Van Halen (1995 Germany, Warner Bros. Records - 7599-27320-2) Reissue
1978 - Elvis Costello & The Attractions - This Year's Model (1993 US, Rykodisc - RCD 10272) Reissue, Remastered
1978 - Rolling Stones - Some Girls (1994 Holland, Virgin - CDV 2734) Reissue, Remastered
1978 - The Cars - The Cars (1990 US, Elektra - 135-2) Reissue
1978 - Bruce Springsteen - Darkness On The Edge Of Town (1984 EU, Columbia - COL CD 86061) Reissue
1978 - Blondie - Parallel Lines (1985 US, Chrysalis - F2 21192) Club Edition, Reissue
1978 - Billy Joel - 52nd Street (2012 US, Mobile Fidelity Sound Lab - UDSACD 2090) SACD, Hybrid, Limited Edition, Numbered - №02747, Remastered
1979 - Cheap Trick - At Budokan (2002 Austria, Epic - 507919 2) Remastered
1978 - The Police - Outlandos D'Amour (US, A&M Records - CD-3311) Reissue
1979 - Neil Young & Crazy Horse - Rust Never Sleeps (1990 Canada, Reprise Records - CD 2295)
1979 – AC/DC - Highway To Hell (1994 Germany, Atlantic - SD 19244-2) Reissue
1979 - Tom Petty And The Heartbreakers - Damn The Torpedoes (US, MCA Records - MCAD-31161) Club Edition
1979 - ZZ Top - Deguello (Germany, Warner Bros. Records - 7599-27400-2) Reissue, Repress
1979 - Pink Floyd - The Wall (2001 Japan, EMI - TOCP-65742.43) 2xCD, Reissue, Remastered, Papersleeve
1979 - The Police - Regatta De Blanc (EU, A&M Records - 394 792-2) Reissue
1979 - The Clash - London Calling (1991 EU, Columbia - 460114 2)

076 - Fleetwood Mac - Rumours (1977)
01. Second Hand News
02. Dreams
03. Never Going Back Again
04. Don't Stop
05. Go Your Own Way
06. Songbird
07. The Chain
08. You Make Loving Fun
09. I Don't Want To Know
10. Oh Daddy
11. Gold Dust Woman


077 - The Eagles - Hotel California (1976)
01. Hotel California
02. New Kid In Town
03. Life In The Fast Lane
04. Wasted Time
05. Wasted Time (Reprise)
06. Victim Of Love
07. Pretty Maids All In A Row
08. Try And Love Again
09. The Last Resort


078 - ACDC - Let There Be Rock (1977)
01. Go Down
02. Dog Eat Dog
03. Let There Be Rock
04. Bad Boy Boogie
05. Problem Child
06. Overdose
07. Hell Ain't A Bad Place To Be
08. Whole Lotta Rosie


079 - Cheap Trick - In Color (1977)
01. Hello There
02. Big Eyes
03. Downed
04. I Want You To Want Me
05. You're All Talk
06. Oh Caroline
07. Clock Strikes Ten
08. Southern Girls
09. Come On, Come On
10. So Good To See You


080 - Steely Dan - Aja (1977)
01. Black Cow
02. Aja
03. Deacon Blues
04. Peg
05. Home At Last
06. I Got The News
07. Josie


081 - Billy Joel - The Stranger (1977)
01. Movin' Out (Anthony's Song)
02. The Stranger
03. Just The Way You Are
04. Scenes From An Italian Restaurant
05. Vienna
06. Only The Good Die Young
07. She's Always A Woman
08. Get It Right The First Time
09. Everybody Has A Dream


082 - Sex Pistols - Never Mind The Bollocks, Here's The Sex Pistols (1977)
01. Holidays in the Sun
02. Bodies
03. No Feelings
04. Liar
05. Problems
06. God Save the Queen
07. Seventeen
08. Anarchy in the UK
09. Submission
10. Pretty Vacant
11. New York
12. EMI


083 - Meat Loaf - Bat Out Of Hell (1977)
01. Bat Out Of Hell
02. You Took The Words Right Out Of My Mouth (Hot Summer Night)
03. Heaven Can Wait
04. All Revved Up With No Place To Go
05. Two Out Of Three Ain't Bad
06. Paradise By The Dashboard Light
07. For Crying Out Loud


084 - Eric Clapton - Slowhand (1977)
01. Cocaine
02. Wonderful Tonight
03. Lay Down Sally
04. Next Time You See Her
05. We're All The Way
06. The Core
07. May You Never
08. Mean Old Frisco
09. Peaches and Diesel


085 - Van Halen - Van Halen - (1978)
01. Runnin' with the Devil
02. Eruption (Instr.)
03. You Really Got Me
04. Ain't Talkin' 'Bout Love
05. I'm the One
06. Jamie's Cryin
07. Atomic Punk
08. Feel Your Love Tonight
09. Little Dreamer
10. Ice Cream Man
11. On Fire


086 - Elvis Costello & The Attractions - This Year's Model (1978)
01. No Action
02. This Year's Girl
03. The Beat
04. Pump It Up
05. Little Triggers
06. You Belong To Me
07. Hand In Hand
08. (I Don't Want To Go To) Chelsea
09. Lip Service
10. Living In Paradise
11. Lipstick Vogue
12. Night Rally
13. Radio, Radio
14. Big Tears
15. Crawling To The USA
16. Running Out Of Angels
17. Greenshirt
18. Big Boys


087 - Rolling Stones - Some Girls (1978)
01. Miss You
02. When the Whip Comes Down
03. Just My Imagination (Running Away With Me)
04. Some Girls
05. Lies
06. Far Away Eyes
07. Respectable
08. Before They Make Me Run
09. Beast of Burden
10. Shattered


088 - The Cars - The Cars (1978)
01. Good Times Roll
02. My Best Friend's Girl
03. Just What I Needed
04. I'm In Touch With Your World
05. Don't Cha Stop
06. You're All I've Got Tonight
07. Bye Bye Love
08. Moving In Stereo
09. All Mixed Up


089 - Bruce Springsteen - Darkness On The Edge Of Town (1978)
01. Badlands
02. Adam Raised a Cain
03. Something in the Night
04. Candy's Room
05. Racing in the Street
06. The Promised Land
07. Factory
08. Streets of Fire
09. Prove It All Night
10. Darkness on the Edge of Town


090 - Blondie - Parallel Lines (1978)
01. Hanging On the Telephone
02. One Way or Another
03. Picture This
04. Fade Away and Radiate
05. Pretty Baby
06. I Know but I Don't Know
07. 11:59
08. Will Anything Happen
09. Sunday Girl
10. Heart of Glass
11. I'm Gonna Love You Too
12. Just Go Away


091 - Billy Joel - 52nd Street (1978)
01. Big Shot
02. Honesty
03. My Life
04. Zanzibar
05. Stiletto
06. Rosalinda’s Eyes
07. Half a Mile Away
08. Until the Night
09. 52nd Street


092 - The Police - Outlandos D'Amour (1978)
01. Next To You
02. So Lonely
03. Roxanne
04. Hole In My Life
05. Peanuts
06. Can't Stand Losing You
07. Truth Hits Everybody
08. Born In The 50's
09. Be My Girl - Sally
10. Masoko Tanga


093 - Cheap Trick - At Budokan (1979)
01. Hello There
02. Come On, Come On
03. Lookout
04. Big Eyes
05. Need Your Love
06. Ain't That A Shame
07. I Want You To Want Me
08. Surrender
09. Goodnight
10. Clock Strikes Ten


094 - Neil Young & Crazy Horse - Rust Never Sleeps (1979)
01. My My, Hey Hey (Out Of The Blue)
02. Thrasher
03. Ride My Llama
04. Pocahontas
05. Sail Away
06. Powderfinger
07. Welfare Mothers
08. Sedan Delivery
09. Hey Hey, My My (Into The Black)


095 - ACDC - Highway To Hell (1979)
01. Highway To Hell
02. Girls Got Rhythm
03. Walk All Over You
04. Touch Too Much
05. Beating Around The Bush
06. Shot Down In Flames
07. Get It Hot
08. If You Want Blood (You've Got It)
09. Love Hungry Man
10. Night Prowler


096 - Tom Petty And The Heartbreakers - Damn The Torpedoes (1979)
01. Refugee
02. Here Comes My Girl
03. Even The Losers
04. Shadow Of A Doubt (A Complex Kid)
05. Century City
06. Don't Do Me Like That
07. You Tell Me
08. What Are You Doin' In My Life?
09. Louisiana Rain


097 - ZZ Top - Deguello (1979)
01. I Thank You
02. She Loves My Automobile
03. I'm Bad, I'm Nationwide
04. A Fool For Your Stockings
05. Manic Mechanic
06. Dust My Broom
07. Lowdown In The Street
08. Hi Fi Mama
09. Cheap Sunglasses
10. Esther Be The One


098 - Pink Floyd - The Wall (1979) 2xCD\CD1
01. In The Flesh?
02. The Thin Ice
03. Another Brick In The Wall (Part 1)
04. The Happiest Days Of Our Lives
05. Another Brick In The Wall (Part 2)
06. Mother
07. Goodbye Blue Sky
08. Empty Spaces
09. Young Lust
10. One Of My Turns
11. Don't Leave Me Now
12. Another Brick In The Wall (Part 3)
13. Goodbye Cruel World


098 - Pink Floyd - The Wall (1979) 2xCD\CD2
01. Hey You
02. Is There Anybody Out There?
03. Nobody Home
04. Vera
05. Bring The Boys Back Home
06. Comfortably Numb
07. The Show Must Go On
08. In The Flesh
09. Run Like Hell
10. Waiting For The Worms
11. Stop
12. The Trial
13. Outside The Wall


099 - The Police - Regatta De Blanc (1979)
01. Message in a Bottle
02. Reggatta de Blanc
03. It's Alright for You
04. Bring on the Night
05. Deathwish
06. Walking on the Moon
07. On Any Other Day
08. The Bed's Too Big Without You
09. Contact
10. Does Everyone Stare
11. No Time This Time


100 - The Clash - London Calling (1979)
01. London Calling
02. Brand New Cadillac
03. Jimmy Jazz
04. Hateful
05. Rudie Can't Fail
06. Spanish Bombs
07. The Right Profile
08. Lost In The Supermarket
09. Clampdown
10. The Guns Of Brixton
11. Wrong 'Em Boyo
12. Death Or Glory
13. Koka Kola
14. The Card Cheat
15. Lover's Rock
16. Four Horsemen
17. I'm Not Down
18. Revolution Rock
19. Train In Vain


EAC extraction logfile from 6. April 2007, 18:45 for CD
Fleetwood Mac / Rumours

Used drive : SONY CD-RW CRX160E Adapter: 0 ID: 1
Read mode : Secure with NO C2, accurate stream, disable cache
Read offset correction : 572
Overread into Lead-In and Lead-Out : No

Used output format : C:\Program Files\FLAC\flac.exe (User Defined Encoder)
128 kBit/s
Additional command line options : -5 -V -T "ARTIST=%a" -T "TITLE=%t" -T "ALBUM=%g" -T "DATE=%y" -T "TRACKNUMBER=%n" -T "GENRE=%m" -T "COMMENT=EAC Flac 1.1.2 -5" %s

Other options :
Fill up missing offset samples with silence : Yes
Delete leading and trailing silent blocks : No
Installed external ASPI interface


Track 1
Filename C:\Temp\Fleetwood Mac - Rumours (1977) [FLAC] (W German Target)\01 - Second Hand News.wav

Pre-gap length 0:00:02.44

Peak level 71.1 %
Track quality 100.0 %
Test CRC 16D6E7FE
Copy CRC 16D6E7FE
Copy OK

Track 2
Filename C:\Temp\Fleetwood Mac - Rumours (1977) [FLAC] (W German Target)\02 - Dreams.wav

Pre-gap length 0:00:01.62

Peak level 82.3 %
Track quality 99.9 %
Test CRC 339E25E9
Copy CRC 339E25E9
Copy OK

Track 3
Filename C:\Temp\Fleetwood Mac - Rumours (1977) [FLAC] (W German Target)\03 - Never Going Back Again.wav

Pre-gap length 0:00:02.18

Peak level 52.5 %
Track quality 100.0 %
Test CRC 6708B5C4
Copy CRC 6708B5C4
Copy OK

Track 4
Filename C:\Temp\Fleetwood Mac - Rumours (1977) [FLAC] (W German Target)\04 - Don't Stop.wav

Pre-gap length 0:00:01.16

Peak level 78.0 %
Track quality 100.0 %
Test CRC 4B65D3DA
Copy CRC 4B65D3DA
Copy OK

Track 5
Filename C:\Temp\Fleetwood Mac - Rumours (1977) [FLAC] (W German Target)\05 - Go Your Own Way.wav

Pre-gap length 0:00:01.36

Peak level 76.2 %
Track quality 99.9 %
Test CRC BCF5A14B
Copy CRC BCF5A14B
Copy OK

Track 6
Filename C:\Temp\Fleetwood Mac - Rumours (1977) [FLAC] (W German Target)\06 - Songbird.wav

Pre-gap length 0:00:02.12

Peak level 32.1 %
Track quality 100.0 %
Test CRC 487FDCF4
Copy CRC 487FDCF4
Copy OK

Track 7
Filename C:\Temp\Fleetwood Mac - Rumours (1977) [FLAC] (W German Target)\07 - The Chain.wav

Pre-gap length 0:00:02.29

Peak level 81.2 %
Track quality 100.0 %
Test CRC 09A5B1E5
Copy CRC 09A5B1E5
Copy OK

Track 8
Filename C:\Temp\Fleetwood Mac - Rumours (1977) [FLAC] (W German Target)\08 - You Make Loving Fun.wav

Pre-gap length 0:00:02.28

Peak level 69.2 %
Track quality 99.9 %
Test CRC C4CEB0B5
Copy CRC C4CEB0B5
Copy OK

Track 9
Filename C:\Temp\Fleetwood Mac - Rumours (1977) [FLAC] (W German Target)\09 - I Don't Want To Know.wav

Pre-gap length 0:00:05.02

Peak level 91.3 %
Track quality 100.0 %
Test CRC B53C5CE8
Copy CRC B53C5CE8
Copy OK

Track 10
Filename C:\Temp\Fleetwood Mac - Rumours (1977) [FLAC] (W German Target)\10 - Oh Daddy.wav

Pre-gap length 0:00:02.86

Peak level 76.0 %
Track quality 99.9 %
Test CRC 148797E5
Copy CRC 148797E5
Copy OK

Track 11
Filename C:\Temp\Fleetwood Mac - Rumours (1977) [FLAC] (W German Target)\11 - Gold Dust Woman.wav

Pre-gap length 0:00:02.80

Peak level 51.5 %
Track quality 99.9 %
Test CRC EA512153
Copy CRC EA512153
Copy OK

No errors occured


End of status report
===============================
Exact Audio Copy V0.99 prebeta 5 from 4. May 2009

Отчёт EAC об извлечении, выполненном 17. апреля 2010, 20:00

The Eagles / Hotel California

Дисковод: Optiarc DVD RW AD-7200S Adapter: 2 ID: 0

Режим чтения : Достоверность
Использование точного потока : Да
Отключение кэша аудио : Да
Использование указателей C2 : Нет

Коррекция смещения при чтении : 48
Способность читать области Lead-in и Lead-out : Нет
Заполнение пропущенных сэмплов тишиной : Да
Удаление блоков с тишиной в начале и конце : Нет
При вычислениях CRC использовались нулевые сэмплы : Да
Интерфейс : Установленный внешний ASPI-интерфейс

Выходной формат : Внутренние WAV-операции
Формат сэмплов : 44.100 Гц; 16 бит; стерео


TOC извлечённого CD

Трек | Старт | Длительность | Начальный сектор | Конечный сектор
––––––––––––––––––––––––––––––––––-
1 | 0:00.32 | 6:30.00 | 32 | 29281
2 | 6:30.32 | 5:03.70 | 29282 | 52076
3 | 11:34.27 | 4:46.00 | 52077 | 73526
4 | 16:20.27 | 4:57.15 | 73527 | 95816
5 | 21:17.42 | 1:23.13 | 95817 | 102054
6 | 22:40.55 | 4:09.07 | 102055 | 120736
7 | 26:49.62 | 3:58.50 | 120737 | 138636
8 | 30:48.37 | 5:11.18 | 138637 | 161979
9 | 35:59.55 | 7:27.42 | 161980 | 195546


Характеристики диапазона извлечения и сообщения об ошибках

Выбранный диапазон

Имя файла E:\МОИ РАЗДАЧИ\The Eagles - Hotel California 1976\The Eagles - Hotel California.wav

Пиковый уровень 100.0 %
Качество диапазона 100.0 %
CRC теста EA8C66CD
CRC копии EA8C66CD
Копирование… OK

Ошибок не произошло


AccurateRip: сводка

Трек 1 точное извлечение (доверие 61) [4055E9F9]
Трек 2 точное извлечение (доверие 64) [FF3306EF]
Трек 3 точное извлечение (доверие 63) [5E617AF6]
Трек 4 точное извлечение (доверие 63) [C2B02928]
Трек 5 точное извлечение (доверие 63) [1D6759B3]
Трек 6 точное извлечение (доверие 62) [8CCF9D93]
Трек 7 точное извлечение (доверие 63) [11C95CBF]
Трек 8 точное извлечение (доверие 63) [FED3C568]
Трек 9 точное извлечение (доверие 60) [BEED96E2]

Все треки извлечены точно

Конец отчёта
=================================
Exact Audio Copy V0.99 prebeta 4 from 23. January 2008

EAC extraction logfile from 27. May 2008, 23:21

AC/DC / Let There Be Rock (Remastered)

Used drive : TSSTcorpCDDVDW SH-S203B Adapter: 2 ID: 2

Read mode : Secure
Utilize accurate stream : Yes
Defeat audio cache : Yes
Make use of C2 pointers : No

Read offset correction : 6
Overread into Lead-In and Lead-Out : No
Fill up missing offset samples with silence : Yes
Delete leading and trailing silent blocks : No
Null samples used in CRC calculations : Yes
Used interface : Native Win32 interface for Win NT & 2000
Gap handling : Appended to previous track

Used output format : User Defined Encoder
Selected bitrate : 320 kBit/s
Quality : High
Add ID3 tag : No
Command line compressor : F:\Programmer\Exact Audio Copy\Flac\flac.exe
Additional command line options : -8 -V -T "ARTIST=%a" -T "TITLE=%t" -T "ALBUM=%g" -T "DATE=%y" -T "TRACKNUMBER=%n" -T "TOTALTRACKS=%x" -T "GENRE=%m" -T "ALBUMARTIST=%v" -T "ALBUM ARTIST=%v" -T "COMMENT=EAC, Secure Mode, Test & Copy, AccurateRip, FLAC -8 -B


TOC of the extracted CD

Track | Start | Length | Start sector | End sector
––––––––––––––––––––––––––––-
1 | 0:00.00 | 5:31.36 | 0 | 24860
2 | 5:31.36 | 3:34.64 | 24861 | 40974
3 | 9:06.25 | 6:06.27 | 40975 | 68451
4 | 15:12.52 | 4:27.47 | 68452 | 88523
5 | 19:40.24 | 5:24.52 | 88524 | 112875
6 | 25:05.01 | 6:09.04 | 112876 | 140554
7 | 31:14.05 | 4:14.10 | 140555 | 159614
8 | 35:28.15 | 5:33.59 | 159615 | 184648


Track 1

Filename D:\– EAC\01 - Go Down.wav

Pre-gap length 0:00:02.00

Peak level 100.0 %
Track quality 100.0 %
Test CRC 2CF2A564
Copy CRC 2CF2A564
Accurately ripped (confidence 52) [B405D438]
Copy OK

Track 2

Filename D:\– EAC\02 - Dog Eat Dog.wav

Peak level 100.0 %
Track quality 99.9 %
Test CRC 713D2FB8
Copy CRC 713D2FB8
Accurately ripped (confidence 51) [299E091C]
Copy OK

Track 3

Filename D:\– EAC\03 - Let There Be Rock.wav

Peak level 100.0 %
Track quality 100.0 %
Test CRC 2AD92585
Copy CRC 2AD92585
Accurately ripped (confidence 50) [0E83059C]
Copy OK

Track 4

Filename D:\– EAC\04 - Bad Boy Boogie.wav

Peak level 100.0 %
Track quality 99.9 %
Test CRC F4FEBAAC
Copy CRC F4FEBAAC
Accurately ripped (confidence 50) [0E805EBC]
Copy OK

Track 5

Filename D:\– EAC\05 - Problem Child.wav

Peak level 100.0 %
Track quality 100.0 %
Test CRC 9FE1281B
Copy CRC 9FE1281B
Accurately ripped (confidence 51) [039810AF]
Copy OK

Track 6

Filename D:\– EAC\06 - Overdose.wav

Peak level 100.0 %
Track quality 100.0 %
Test CRC F5741DC7
Copy CRC F5741DC7
Accurately ripped (confidence 48) [9605700C]
Copy OK

Track 7

Filename D:\– EAC\07 - Hell Ain't A Bad Place To Be.wav

Peak level 100.0 %
Track quality 100.0 %
Test CRC C2EDCC00
Copy CRC C2EDCC00
Accurately ripped (confidence 48) [1EF120F2]
Copy OK

Track 8

Filename D:\– EAC\08 - Whole Lotta Rosie.wav

Peak level 100.0 %
Track quality 100.0 %
Test CRC 3892C350
Copy CRC 3892C350
Accurately ripped (confidence 48) [86D93366]
Copy OK


All tracks accurately ripped

No errors occurred

End of status report


All 25 log files included…