Subcategories
Tags
Language
Tags

Van Halen: Singles and EPs Collection (1988 - 1996)

Posted By: v3122
Van Halen: Singles and EPs Collection (1988 - 1996)

Van Halen: Singles and EPs Collection (1988 - 1996)
EAC | Flac(Image) + Cue + Log & MP3 CBR 320Kbps
8CD | Warner Bros. Records | ~ 1050 or 420 Mb | Scans(jpg) -> 95 Mb
Hard Rock

Van Halen is an American hard rock band formed in Pasadena, California, in 1972. From 1974 until 1985, the band consisted of guitarist Eddie Van Halen, vocalist David Lee Roth, drummer Alex Van Halen, and bassist Michael Anthony.

The band went on to become major stars, and by the early 1980s they were one of the most successful rock acts of the time. 1984 was their most successful album. The lead single, "Jump", became an international hit and their only single to reach number one on the Billboard Hot 100. The following singles, "Panama" and "I'll Wait", both hit number 13 on the U.S. charts. The album went on to sell over 12 million copies in the U.S. alone. In 1985, the band replaced lead singer David Lee Roth with former Montrose lead vocalist Sammy Hagar. With Hagar, the group would release four U.S. number-one albums over the course of 11 years. Hagar left the band in 1996 shortly before the release of the band's first greatest hits collection, Best Of – Volume I. Former Extreme frontman Gary Cherone was quickly recruited as lead singer to replace Hagar, and Van Halen III was released in 1998. Cherone left the band in frustration in 1999 after the tour due to the poor commercial performance of the album.

Van Halen went on hiatus until 2003 when they reunited with Hagar for a worldwide tour. The reunited band released a second greatest hits collection the following year, The Best of Both Worlds. Like Volume I before it, The Best of Both Worlds included material from both the Roth and Hagar eras but omitted any Cherone era tracks. The album featured three brand new tracks recorded by the reunited band, two of which were released as singles. Hagar again left Van Halen in 2005, and in 2006 Roth returned as lead vocalist for their highest-grossing tour, and one of the highest-grossing tours of that year. Anthony was not invited to participate in the tour and was essentially fired from the band, replaced by Wolfgang Van Halen, Eddie's son. In 2012, the band released the commercially and critically successful, A Different Kind of Truth, with Roth as lead vocalist. According to the RIAA, Van Halen is the 19th-best-selling band/artist in United States history, selling 56 million albums in the U.S. They were also revealed at number 4 on the Billboard's top moneymakers list in 2013.[9][10] Van Halen is one of only five rock bands that have had two studio albums sell more than 10 million copies in the U.S. Additionally, Van Halen charted the most number-one hits in the history of Billboard's Mainstream Rock chart and they are one of the world's best-selling bands of all time, having sold more than 80 million records.[12][13][14]

Van Halen achieved worldwide fame for their many popular songs and larger-than-life stage performances; they also became known for the drama surrounding the departures of former members. Controversy surrounded the band following the exits of Roth, Hagar, and Anthony; this controversy often included numerous conflicting press statements between the former members and the band. In 2007, Van Halen was inducted into the Rock and Roll Hall of Fame. VH1 ranked them 7th on their list of the top 100 hard rock artists of all time…

~ wiki
Van Halen: Singles and EPs Collection (1988 - 1996)


Van Halen: Singles and EPs Collection (1988 - 1996):

Van Halen: Singles and EPs Collection (1988 - 1996)

Tracklist CD1 - 1988 - When It's Love:
Warner Bros. Records, W7816CD / 921 007-2

1. When It's Love
2. A Apolitical Blues
3. When It's Love (Edit)
4. Why Can't This Be Love

Exact Audio Copy V1.1 from 23. June 2015

EAC extraction logfile from 11. March 2016, 21:53

Van Halen / When It's Love (EP)

Used drive : ASUS DRW-24B1ST Adapter: 1 ID: 1

Read mode : Secure
Utilize accurate stream : Yes
Defeat audio cache : Yes
Make use of C2 pointers : No

Read offset correction : 6
Overread into Lead-In and Lead-Out : No
Fill up missing offset samples with silence : Yes
Delete leading and trailing silent blocks : No
Null samples used in CRC calculations : Yes
Used interface : Native Win32 interface for Win NT & 2000

Used output format : User Defined Encoder
Selected bitrate : 1024 kBit/s
Quality : High
Add ID3 tag : No
Command line compressor : C:\Program Files (x86)\Exact Audio Copy\Flac\flac.exe
Additional command line options : -V -8 -T "Date=%year%" -T "Genre=%genre%" %source%


TOC of the extracted CD

Track | Start | Length | Start sector | End sector
––––––––––––––––––––––––––––-
1 | 0:00.00 | 5:40.47 | 0 | 25546
2 | 5:40.47 | 3:52.73 | 25547 | 43019
3 | 9:33.45 | 4:36.70 | 43020 | 63789
4 | 14:10.40 | 3:46.27 | 63790 | 80766


Range status and errors

Selected range

Filename E:\Torrent\# MY\Van Halen - Discography\Singles\1988 - When It's Love (EP)\Van Halen - When It's Love (EP).wav

Peak level 100.0 %
Extraction speed 2.4 X
Range quality 100.0 %
Test CRC 7C1664F1
Copy CRC 7C1664F1
Copy OK

No errors occurred


AccurateRip summary

Track 1 accurately ripped (confidence 4) [D477B159] (AR v2)
Track 2 accurately ripped (confidence 4) [9E82F2FB] (AR v2)
Track 3 accurately ripped (confidence 5) [844BFBF0] (AR v2)
Track 4 accurately ripped (confidence 4) [59F9C8D9] (AR v2)

All tracks accurately ripped

End of status report

–– CUETools DB Plugin V2.1.6

[CTDB TOCID: NugfwIU17_d.akKD98NupiSAHxU-] found
Submit result: NugfwIU17_d.akKD98NupiSAHxU- has been confirmed
Track | CTDB Status
1 | (4/4) Accurately ripped
2 | (4/4) Accurately ripped
3 | (4/4) Accurately ripped
4 | (3/4) Accurately ripped


==== Log checksum 74045D6BA9AD092C89542492571D25A9FF9DDCFDF6769778D3CD0BFE07201F81 ====


[CUETools log; Date: 05.05.2018 14:00:37; Version: 2.1.5]
[CTDB TOCID: NugfwIU17_d.akKD98NupiSAHxU-] found.
Track | CTDB Status
1 | (7/7) Accurately ripped
2 | (7/7) Accurately ripped
3 | (7/7) Accurately ripped
4 | (6/7) Accurately ripped
[AccurateRip ID: 00034084-000ccdee-2b043404] found.
Track [ CRC | V2 ] Status
01 [6646a319|d477b159] (2+4/6) Accurately ripped
02 [25a6529c|9e82f2fb] (3+4/7) Accurately ripped
03 [b93a53e6|844bfbf0] (3+5/8) Accurately ripped
04 [3746da9e|59f9c8d9] (3+4/7) Accurately ripped

Track Peak [ CRC32 ] [W/O NULL] [ LOG ]
– 100,0 [7C1664F1] [A333185D] CRC32
01 100,0 [7774DA9C] [0CCE2939]
02 97,5 [4E3E337A] [EC16247E]
03 99,9 [D64CE106] [5763A4F7]
04 79,7 [053399C0] [580FF7B7]


Van Halen: Singles and EPs Collection (1988 - 1996)

Tracklist CD2 - 1989 - Feels So Good:
Warner Bros. Records, W7565CD / 921 177-2

1. Feels So Good
2. Sucker In A 3 Piece
3. Best Of Both Worlds (Live)

Exact Audio Copy V1.1 from 23. June 2015

EAC extraction logfile from 17. May 2017, 22:24

Van Halen / Feels So Good (EP)

Used drive : ASUS DRW-24B1ST Adapter: 1 ID: 1

Read mode : Secure
Utilize accurate stream : Yes
Defeat audio cache : Yes
Make use of C2 pointers : No

Read offset correction : 6
Overread into Lead-In and Lead-Out : No
Fill up missing offset samples with silence : Yes
Delete leading and trailing silent blocks : No
Null samples used in CRC calculations : Yes
Used interface : Native Win32 interface for Win NT & 2000

Used output format : User Defined Encoder
Selected bitrate : 1024 kBit/s
Quality : High
Add ID3 tag : No
Command line compressor : C:\Program Files (x86)\Exact Audio Copy\Flac\flac.exe
Additional command line options : -V -8 -T "Genre=%genre%" -T "Artist=%artist%" -T "Title=%title%" -T "Album=%albumtitle%" -T "Date=%year%" -T "Tracknumber=%tracknr%" -T "Comment=%comment%" %source%


TOC of the extracted CD

Track | Start | Length | Start sector | End sector
––––––––––––––––––––––––––––-
1 | 0:00.00 | 3:56.58 | 0 | 17757
2 | 3:56.58 | 5:52.00 | 17758 | 44157
3 | 9:48.58 | 6:16.40 | 44158 | 72397


Range status and errors

Selected range

Filename E:\Torrent\# MY\# Подготовка раздач\Van Halen\Singles\1989 - Feels So Good (3 Inch CD single)\Van Halen - Feels So Good (EP).wav

Peak level 100.0 %
Extraction speed 3.2 X
Range quality 100.0 %
Test CRC C085E47A
Copy CRC C085E47A
Copy OK

No errors occurred


AccurateRip summary

Track 1 accurately ripped (confidence 3) [D49BE628] (AR v2)
Track 2 accurately ripped (confidence 2) [682CE754] (AR v2)
Track 3 accurately ripped (confidence 2) [D7CD8015] (AR v2)

All tracks accurately ripped

End of status report

–– CUETools DB Plugin V2.1.6

[CTDB TOCID: rXTOdm2YTPQ3hTJa0pkQcQ6SYJw-] found
Submit result: rXTOdm2YTPQ3hTJa0pkQcQ6SYJw- has been confirmed
Track | CTDB Status
1 | (3/3) Accurately ripped
2 | (3/3) Accurately ripped
3 | (3/3) Accurately ripped


==== Log checksum 3B88C11452961F8C7FFF3912B7173028A6D1F47C853728C028D302A20E1AC271 ====


[CUETools log; Date: 05.05.2018 14:01:08; Version: 2.1.5]
[CTDB TOCID: rXTOdm2YTPQ3hTJa0pkQcQ6SYJw-] found.
Track | CTDB Status
1 | (4/4) Accurately ripped
2 | (4/4) Accurately ripped
3 | (4/4) Accurately ripped
[AccurateRip ID: 00020caa-0006fb6f-1d03c503] found.
Track [ CRC | V2 ] Status
01 [6afc4e26|d49be628] (0+3/3) Accurately ripped
02 [5200332c|682ce754] (0+3/3) Accurately ripped
03 [86e14796|d7cd8015] (0+2/2) Accurately ripped

Track Peak [ CRC32 ] [W/O NULL] [ LOG ]
– 100,0 [C085E47A] [52E07D48] CRC32
01 100,0 [812C814C] [FE224D74]
02 100,0 [C0F8D73C] [D6A0951F]
03 88,6 [5B8DE2AE] [AF5AC749]


Van Halen: Singles and EPs Collection (1988 - 1996)

Tracklist CD3 - 1993 - Live: Jump:
Warner Bros. Records, 9362-40771-2

1. Jump (Live version)
2. Love Walks In (Live version)
3. Mine All Mine (Live version) (Previously unreleased)
4. Eagles Fly (Live version) (Previously unreleased)

Exact Audio Copy V1.1 from 23. June 2015

EAC extraction logfile from 11. March 2016, 22:11

Van Halen / Live: Jump

Used drive : ASUS DRW-24B1ST Adapter: 1 ID: 1

Read mode : Secure
Utilize accurate stream : Yes
Defeat audio cache : Yes
Make use of C2 pointers : No

Read offset correction : 6
Overread into Lead-In and Lead-Out : No
Fill up missing offset samples with silence : Yes
Delete leading and trailing silent blocks : No
Null samples used in CRC calculations : Yes
Used interface : Native Win32 interface for Win NT & 2000

Used output format : User Defined Encoder
Selected bitrate : 1024 kBit/s
Quality : High
Add ID3 tag : No
Command line compressor : C:\Program Files (x86)\Exact Audio Copy\Flac\flac.exe
Additional command line options : -V -8 -T "Date=%year%" -T "Genre=%genre%" %source%


TOC of the extracted CD

Track | Start | Length | Start sector | End sector
––––––––––––––––––––––––––––-
1 | 0:00.00 | 4:17.05 | 0 | 19279
2 | 4:17.05 | 5:14.47 | 19280 | 42876
3 | 9:31.52 | 5:28.00 | 42877 | 67476
4 | 14:59.52 | 6:03.23 | 67477 | 94724


Range status and errors

Selected range

Filename E:\Torrent\# MY\Van Halen - Discography\Singles\1993 - Live - Jump (EP)\Van Halen - Live - Jump (EP).wav

Peak level 100.0 %
Extraction speed 4.8 X
Range quality 99.9 %
Test CRC D361BBD9
Copy CRC D361BBD9
Copy OK

No errors occurred


AccurateRip summary

Track 1 accurately ripped (confidence 16) [174AB744] (AR v2)
Track 2 accurately ripped (confidence 17) [F6688EF4] (AR v2)
Track 3 accurately ripped (confidence 18) [485FA106] (AR v2)
Track 4 accurately ripped (confidence 19) [9ED296D1] (AR v2)

All tracks accurately ripped

End of status report

–– CUETools DB Plugin V2.1.6

[CTDB TOCID: MbTOWVT2JgGk8bSO6yFonVho0Gw-] found
Submit result: MbTOWVT2JgGk8bSO6yFonVho0Gw- has been confirmed
Track | CTDB Status
1 | (31/33) Accurately ripped
2 | (31/33) Accurately ripped
3 | (31/33) Accurately ripped
4 | (31/33) Accurately ripped


==== Log checksum ADB26FF65A2005F38BC1DEB34F21F05004921FE0968D25486F34895FA26E0A4A ====


[CUETools log; Date: 05.05.2018 14:01:40; Version: 2.1.5]
[CTDB TOCID: MbTOWVT2JgGk8bSO6yFonVho0Gw-] found.
Track | CTDB Status
1 | (65/67) Accurately ripped
2 | (63/67) Accurately ripped
3 | (64/67) Accurately ripped
4 | (65/67) Accurately ripped
[AccurateRip ID: 00036c67-000de585-2b04ef04] found.
Track [ CRC | V2 ] Status
01 [77458bad|174ab744] (11+24/37) Accurately ripped
02 [cebc203a|f6688ef4] (11+25/38) Accurately ripped
03 [69276c91|485fa106] (11+26/39) Accurately ripped
04 [c5855634|9ed296d1] (12+28/42) Accurately ripped
Offsetted by 742:
01 [7dd8abfb] (00/37) No match (V2 was not tested)
02 [291ec0b6] (00/38) No match (V2 was not tested)
03 [225fbaf3] (00/39) No match (V2 was not tested)
04 [522d4493] (00/42) No match (V2 was not tested)

Track Peak [ CRC32 ] [W/O NULL] [ LOG ]
– 100,0 [D361BBD9] [8A9B1201] CRC32
01 97,6 [011E39FA] [79D6CFC7]
02 97,8 [3460AEAF] [0E721AFF]
03 100,0 [7FB74199] [58484D01]
04 97,7 [ED5C25D2] [BF281066]


Van Halen: Singles and EPs Collection (1988 - 1996)

Tracklist CD4 - 1995 - Can’t Stop Lovin’ You:
Warner Bros. Records, W0288CD / 9362-43510-2

1. Can't Stop Lovin' You
2. Crossing Over (Non-LP track)
3. Right Now (Live)
4. Man On A Mission (Live)

Exact Audio Copy V1.1 from 23. June 2015

EAC extraction logfile from 23. July 2017, 11:39

Van Halen / Can’t Stop Lovin’ You

Used drive : ASUS DRW-24B1ST Adapter: 1 ID: 1

Read mode : Secure
Utilize accurate stream : Yes
Defeat audio cache : Yes
Make use of C2 pointers : No

Read offset correction : 6
Overread into Lead-In and Lead-Out : No
Fill up missing offset samples with silence : Yes
Delete leading and trailing silent blocks : No
Null samples used in CRC calculations : Yes
Used interface : Native Win32 interface for Win NT & 2000

Used output format : User Defined Encoder
Selected bitrate : 128 kBit/s
Quality : High
Add ID3 tag : No
Command line compressor : C:\Program Files (x86)\Exact Audio Copy\Flac\flac.exe
Additional command line options : -V -8 -T "Genre=%genre%" -T "Artist=%artist%" -T "Title=%title%" -T "Album=%albumtitle%" -T "Date=%year%" -T "Tracknumber=%tracknr%" -T "Comment=%comment%" %source%


TOC of the extracted CD

Track | Start | Length | Start sector | End sector
––––––––––––––––––––––––––––-
1 | 0:00.00 | 4:09.68 | 0 | 18742
2 | 4:09.68 | 5:04.22 | 18743 | 41564
3 | 9:14.15 | 6:08.13 | 41565 | 69177
4 | 15:22.28 | 4:58.60 | 69178 | 91587


Range status and errors

Selected range

Filename E:\Torrent\# MY\# Подготовка раздач\Van Halen - Can’t Stop Lovin’ You\Van Halen - Can’t Stop Lovin’ You.wav

Peak level 100.0 %
Extraction speed 4.7 X
Range quality 100.0 %
Test CRC 1B3D9965
Copy CRC 1B3D9965
Copy OK

No errors occurred


AccurateRip summary

Track 1 accurately ripped (confidence 7) [43F2B351] (AR v2)
Track 2 accurately ripped (confidence 8) [1E0B3C81] (AR v2)
Track 3 accurately ripped (confidence 8) [71A1966F] (AR v2)
Track 4 accurately ripped (confidence 8) [DC4A04BB] (AR v2)

All tracks accurately ripped

End of status report

–– CUETools DB Plugin V2.1.6

[CTDB TOCID: 0I.1cZSZk1fO.BXiblrReibXYQ8-] found
Submit result: 0I.1cZSZk1fO.BXiblrReibXYQ8- has been confirmed
Track | CTDB Status
1 | (6/7) Accurately ripped
2 | (6/7) Accurately ripped
3 | (6/7) Accurately ripped
4 | (6/7) Accurately ripped


==== Log checksum E60E6FFC244F9FE44524DE90CE6F4F16EC126297928798E40D3872D958D019C8 ====


[CUETools log; Date: 05.05.2018 14:02:04; Version: 2.1.5]
[CTDB TOCID: 0I.1cZSZk1fO.BXiblrReibXYQ8-] found.
Track | CTDB Status
1 | (8/9) Accurately ripped
2 | (8/9) Accurately ripped
3 | (8/9) Accurately ripped
4 | (8/9) Accurately ripped
[AccurateRip ID: 00035f92-000daf42-2904c504] found.
Track [ CRC | V2 ] Status
01 [0587de14|43f2b351] (04+08/12) Accurately ripped
02 [777b5c58|1e0b3c81] (04+09/13) Accurately ripped
03 [477d31a0|71a1966f] (05+09/14) Accurately ripped
04 [23b58ad4|dc4a04bb] (05+09/14) Accurately ripped

Track Peak [ CRC32 ] [W/O NULL] [ LOG ]
– 99,9 [1B3D9965] [87D1FE82] CRC32
01 90,7 [3B289C5C] [F3F690A8]
02 99,9 [89C33424] [461ABBA7]
03 97,7 [1EDA6BAB] [EB5F33E8]
04 97,7 [5B5C3DCD] [F59D1971]


Van Halen: Singles and EPs Collection (1988 - 1996)

Tracklist CD5 - 1995 - Don't Tell Me:
Warner Bros. Records, W0280CD / 9362-41919-2

1. Don't Tell Me (Edit)
2. Why Can't This Be Love (Live)
3. Panama (Live)
4. Poundcake (Live)

Exact Audio Copy V1.1 from 23. June 2015

EAC extraction logfile from 17. May 2017, 22:37

Van Halen / Don't Tell Me (EP)

Used drive : ASUS DRW-24B1ST Adapter: 1 ID: 1

Read mode : Secure
Utilize accurate stream : Yes
Defeat audio cache : Yes
Make use of C2 pointers : No

Read offset correction : 6
Overread into Lead-In and Lead-Out : No
Fill up missing offset samples with silence : Yes
Delete leading and trailing silent blocks : No
Null samples used in CRC calculations : Yes
Used interface : Native Win32 interface for Win NT & 2000

Used output format : User Defined Encoder
Selected bitrate : 1024 kBit/s
Quality : High
Add ID3 tag : No
Command line compressor : C:\Program Files (x86)\Exact Audio Copy\Flac\flac.exe
Additional command line options : -V -8 -T "Genre=%genre%" -T "Artist=%artist%" -T "Title=%title%" -T "Album=%albumtitle%" -T "Date=%year%" -T "Tracknumber=%tracknr%" -T "Comment=%comment%" %source%


TOC of the extracted CD

Track | Start | Length | Start sector | End sector
––––––––––––––––––––––––––––-
1 | 0:00.00 | 3:52.62 | 0 | 17461
2 | 3:52.62 | 3:45.38 | 17462 | 34374
3 | 7:38.25 | 6:33.25 | 34375 | 63874
4 | 14:11.50 | 5:22.52 | 63875 | 88076


Range status and errors

Selected range

Filename E:\Torrent\# MY\# Подготовка раздач\Van Halen\Singles\1995 - Don't Tell Me (EP)\Van Halen - Don't Tell Me (EP).wav

Peak level 97.7 %
Extraction speed 2.4 X
Range quality 100.0 %
Test CRC 88F6A2C3
Copy CRC 88F6A2C3
Copy OK

No errors occurred


AccurateRip summary

Track 1 not present in database
Track 2 not present in database
Track 3 not present in database
Track 4 not present in database

None of the tracks are present in the AccurateRip database

End of status report

–– CUETools DB Plugin V2.1.6

[CTDB TOCID: WWfdVHeCTEgoJ7LPTzq5uOqj9T8-] found
Submit result: already submitted
Track | CTDB Status
1 | (5/5) Accurately ripped
2 | (5/5) Accurately ripped
3 | (5/5) Accurately ripped
4 | (5/5) Accurately ripped


==== Log checksum 8DF70AD1D572CAA5EF3CA833C12C41A4C0E37E247218AA80A389139BCB25BFF0 ====


[CUETools log; Date: 05.05.2018 14:02:26; Version: 2.1.5]
[CTDB TOCID: WWfdVHeCTEgoJ7LPTzq5uOqj9T8-] found.
Track | CTDB Status
1 | (6/6) Accurately ripped
2 | (6/6) Accurately ripped
3 | (6/6) Accurately ripped
4 | (6/6) Accurately ripped
[AccurateRip ID: 00031c0d-000cb98f-25049604] disk not present in database.

Track Peak [ CRC32 ] [W/O NULL] [ LOG ]
– 97,7 [88F6A2C3] [A80ADFBD] CRC32
01 97,7 [394D3797] [6FE45A61]
02 95,5 [CF666618] [6F9C55A3]
03 97,7 [76560158] [0C4C65E8]
04 94,4 [421C7C5E] [66AA17B2]


Van Halen: Singles and EPs Collection (1988 - 1996)

Tracklist CD6 - 1995 - Not Enough:
Warner Bros. Records, WPCR-195

1. Not Enough (Album version)
2. Right Now (Live)
3. Dreams (Live)

Exact Audio Copy V1.1 from 23. June 2015

EAC extraction logfile from 18. May 2017, 0:06

Van Halen / Not Enough (EP)

Used drive : ASUS DRW-24B1ST Adapter: 1 ID: 1

Read mode : Secure
Utilize accurate stream : Yes
Defeat audio cache : Yes
Make use of C2 pointers : No

Read offset correction : 6
Overread into Lead-In and Lead-Out : No
Fill up missing offset samples with silence : Yes
Delete leading and trailing silent blocks : No
Null samples used in CRC calculations : Yes
Used interface : Native Win32 interface for Win NT & 2000

Used output format : User Defined Encoder
Selected bitrate : 1024 kBit/s
Quality : High
Add ID3 tag : No
Command line compressor : C:\Program Files (x86)\Exact Audio Copy\Flac\flac.exe
Additional command line options : -V -8 -T "Genre=%genre%" -T "Artist=%artist%" -T "Title=%title%" -T "Album=%albumtitle%" -T "Date=%year%" -T "Tracknumber=%tracknr%" -T "Comment=%comment%" %source%


TOC of the extracted CD

Track | Start | Length | Start sector | End sector
––––––––––––––––––––––––––––-
1 | 0:00.00 | 5:13.67 | 0 | 23541
2 | 5:13.67 | 6:11.45 | 23542 | 51411
3 | 11:25.37 | 4:48.60 | 51412 | 73071


Range status and errors

Selected range

Filename E:\Torrent\# MY\# Подготовка раздач\Van Halen\Singles\1995 - Not Enough (EP)\Van Halen - Not Enough (EP).wav

Peak level 100.0 %
Extraction speed 2.3 X
Range quality 100.0 %
Test CRC 02727D57
Copy CRC 02727D57
Copy OK

No errors occurred


AccurateRip summary

Track 1 not present in database
Track 2 not present in database
Track 3 not present in database

None of the tracks are present in the AccurateRip database

End of status report

–– CUETools DB Plugin V2.1.6

[CTDB TOCID: _zwoFvJV.mo4iRe4kgCQzE2awxs-] found
Submit result: _zwoFvJV.mo4iRe4kgCQzE2awxs- has been confirmed
Track | CTDB Status
1 | (1/1) Accurately ripped
2 | (1/1) Accurately ripped
3 | (1/1) Accurately ripped


==== Log checksum F1016CF341D455967CA16CE39C2B2908145AA50D366ECF85739CC965D2D9AEA2 ====


[CUETools log; Date: 05.05.2018 14:02:46; Version: 2.1.5]
[CTDB TOCID: _zwoFvJV.mo4iRe4kgCQzE2awxs-] found.
Track | CTDB Status
1 | (4/4) Accurately ripped
2 | (4/4) Accurately ripped
3 | (4/4) Accurately ripped
[AccurateRip ID: 0002423a-00078829-2003ce03] disk not present in database.

Track Peak [ CRC32 ] [W/O NULL] [ LOG ]
– 100,0 [02727D57] [7B39F71C] CRC32
01 99,9 [FFDF3D16] [1394A732]
02 100,0 [CCD6D401] [ECED2B6A]
03 98,1 [64F70997] [6945E3C3]


Van Halen: Singles and EPs Collection (1988 - 1996)

Tracklist CD7 - 1996 - Humans Being:
Warner Bros. Records, WPCR-788

1. Humans Being (Album version)
2. Humans Being (Movie version)
3. Respect The Wind (Album version)

Exact Audio Copy V1.1 from 23. June 2015

EAC extraction logfile from 17. May 2017, 23:54

Van Halen / Humans Being (EP)

Used drive : ASUS DRW-24B1ST Adapter: 1 ID: 1

Read mode : Secure
Utilize accurate stream : Yes
Defeat audio cache : Yes
Make use of C2 pointers : No

Read offset correction : 6
Overread into Lead-In and Lead-Out : No
Fill up missing offset samples with silence : Yes
Delete leading and trailing silent blocks : No
Null samples used in CRC calculations : Yes
Used interface : Native Win32 interface for Win NT & 2000

Used output format : User Defined Encoder
Selected bitrate : 1024 kBit/s
Quality : High
Add ID3 tag : No
Command line compressor : C:\Program Files (x86)\Exact Audio Copy\Flac\flac.exe
Additional command line options : -V -8 -T "Genre=%genre%" -T "Artist=%artist%" -T "Title=%title%" -T "Album=%albumtitle%" -T "Date=%year%" -T "Tracknumber=%tracknr%" -T "Comment=%comment%" %source%


TOC of the extracted CD

Track | Start | Length | Start sector | End sector
––––––––––––––––––––––––––––-
1 | 0:00.00 | 3:42.43 | 0 | 16692
2 | 3:42.43 | 5:11.00 | 16693 | 40017
3 | 8:53.43 | 5:47.00 | 40018 | 66042


Range status and errors

Selected range

Filename E:\Torrent\# MY\# Подготовка раздач\Van Halen\Singles\1996 - Humans Being (EP)\Van Halen - Humans Being (EP).wav

Peak level 99.9 %
Extraction speed 4.6 X
Range quality 100.0 %
Test CRC 497F6747
Copy CRC 497F6747
Copy OK

No errors occurred


AccurateRip summary

Track 1 accurately ripped (confidence 2) [A70DB068] (AR v2)
Track 2 accurately ripped (confidence 2) [30FFD2DA] (AR v2)
Track 3 accurately ripped (confidence 2) [530312B6] (AR v2)

All tracks accurately ripped

End of status report

–– CUETools DB Plugin V2.1.6

[CTDB TOCID: FTC.NGmuwhmJvbWx7sobTK4WhG0-] found
Submit result: FTC.NGmuwhmJvbWx7sobTK4WhG0- has been confirmed
Track | CTDB Status
1 | (9/9) Accurately ripped
2 | (9/9) Accurately ripped
3 | (9/9) Accurately ripped


==== Log checksum DDB6021C009830A5D353405D622169192438034185FC24DEE5F46934D4AB62C7 ====


[CUETools log; Date: 05.05.2018 14:03:04; Version: 2.1.5]
[CTDB TOCID: FTC.NGmuwhmJvbWx7sobTK4WhG0-] found.
Track | CTDB Status
1 | (12/12) Accurately ripped
2 | (12/12) Accurately ripped
3 | (12/12) Accurately ripped
[AccurateRip ID: 0001df82-00065f4d-17037003] found.
Track [ CRC | V2 ] Status
01 [7b721be9|a70db068] (0+3/3) Accurately ripped
02 [87120502|30ffd2da] (2+3/5) Accurately ripped
03 [5d5ee01e|530312b6] (0+3/3) Accurately ripped

Track Peak [ CRC32 ] [W/O NULL] [ LOG ]
– 99,9 [497F6747] [0574C2F9] CRC32
01 99,9 [DA5AC6F0] [3AA030D3]
02 99,9 [9E3EAC3C] [1B594A11]
03 99,9 [2308D910] [0AB04721]


Van Halen: Singles and EPs Collection (1988 - 1996)

Tracklist CD8 - 1996 - Me Wise Magic:
Warner Bros. Records, WPCR-819

1. Me Wise Magic (Edit)
2. Me Wise Magic (Album version)
3. Why Can't This Be Love

Exact Audio Copy V1.1 from 23. June 2015

EAC extraction logfile from 17. May 2017, 23:05

Van Halen / Me Wise Magic (EP)

Used drive : ASUS DRW-24B1ST Adapter: 1 ID: 1

Read mode : Secure
Utilize accurate stream : Yes
Defeat audio cache : Yes
Make use of C2 pointers : No

Read offset correction : 6
Overread into Lead-In and Lead-Out : No
Fill up missing offset samples with silence : Yes
Delete leading and trailing silent blocks : No
Null samples used in CRC calculations : Yes
Used interface : Native Win32 interface for Win NT & 2000

Used output format : User Defined Encoder
Selected bitrate : 1024 kBit/s
Quality : High
Add ID3 tag : No
Command line compressor : C:\Program Files (x86)\Exact Audio Copy\Flac\flac.exe
Additional command line options : -V -8 -T "Genre=%genre%" -T "Artist=%artist%" -T "Title=%title%" -T "Album=%albumtitle%" -T "Date=%year%" -T "Tracknumber=%tracknr%" -T "Comment=%comment%" %source%


TOC of the extracted CD

Track | Start | Length | Start sector | End sector
––––––––––––––––––––––––––––-
1 | 0:00.00 | 4:26.43 | 0 | 19992
2 | 4:26.43 | 6:05.35 | 19993 | 47402
3 | 10:32.03 | 3:46.72 | 47403 | 64424


Range status and errors

Selected range

Filename E:\Torrent\# MY\# Подготовка раздач\Van Halen\Singles\1996 - Me Wise Magic (EP)\Van Halen - Me Wise Magic (EP).wav

Peak level 100.0 %
Extraction speed 2.5 X
Range quality 100.0 %
Test CRC A3DE6774
Copy CRC A3DE6774
Copy OK

No errors occurred


AccurateRip summary

Track 1 not present in database
Track 2 not present in database
Track 3 not present in database

None of the tracks are present in the AccurateRip database

End of status report

–– CUETools DB Plugin V2.1.6

[CTDB TOCID: K2X4_8ZaM0qUo0qddMNu2YEGS0I-] found
Submit result: already submitted
Track | CTDB Status
1 | (11/11) Accurately ripped
2 | (11/11) Accurately ripped
3 | (11/11) Accurately ripped


==== Log checksum E2297BDCC6D0282BDFA8D333C2E79B0D17EB5F577B623B8B0A995D1FFA8C53DE ====


[CUETools log; Date: 05.05.2018 14:03:24; Version: 2.1.5]
[CTDB TOCID: K2X4_8ZaM0qUo0qddMNu2YEGS0I-] found.
Track | CTDB Status
1 | (12/12) Accurately ripped
2 | (12/12) Accurately ripped
3 | (12/12) Accurately ripped
[AccurateRip ID: 000202ed-0006b658-1f035b03] disk not present in database.

Track Peak [ CRC32 ] [W/O NULL] [ LOG ]
– 100,0 [A3DE6774] [39161297] CRC32
01 100,0 [41A063ED] [D36006E1]
02 99,3 [7AEDCD71] [6A1612A5]
03 100,0 [ABE13F69] [1ECDED9D]


All thanks go to Ginger Devil

Van Halen in my Blog

Download Van Halen: Singles and EPs Collection (1988 - 1996):