Tags
Language
Tags

Vanessa Williams - Everlasting Love (2005)

Posted By: JET 1
Vanessa Williams - Everlasting Love (2005)

Vanessa Williams - Everlasting Love (2005)
EAC Rip | FLAC (Tracks) +CUE, LOG | 411 MB | Scans
Genre: Funk / Soul, Pop | Label: Lava | Catalog Number: CD 93802

On Everlasting Love, Vanessa Williams covers her favorite soul songs of the '70s, often with help from the London Session Orchestra. This is a classy set of material that straddles the line between faithful renditions and creative reinterpretations. The strummy folk-soul of the Isley Brothers' "Harvest for the World" is turned into jazz-funk for the dancefloor; the natural exuberance within "Never Can Say Goodbye" is toned down a few degrees, thanks in part to George Benson's guitar and James "D-Train" Williams' (!) backing vocals.

Exact Audio Copy V0.99 prebeta 4 from 23. January 2008

Îò÷¸ò EAC îá èçâëå÷åíèè, âûïîëíåííîì 23. îêòÿáðÿ 2010, 13:02

Vanessa Williams / Everlasting Love

Äèñêîâîä: Optiarc DVD RW AD-7200S Adapter: 0 ID: 1

Ðåæèì ÷òåíèÿ : Äîñòîâåðíîñòü
Èñïîëüçîâàíèå òî÷íîãî ïîòîêà : Äà
Îòêëþ÷åíèå êýøà àóäèî : Äà
Èñïîëüçîâàíèå óêàçàòåëåé C2 : Íåò

Êîððåêöèÿ ñìåùåíèÿ ïðè ÷òåíèè : 48
Ñïîñîáíîñòü ÷èòàòü îáëàñòè Lead-in è Lead-out : Íåò
Çàïîëíåíèå ïðîïóùåííûõ ñýìïëîâ òèøèíîé : Äà
Óäàëåíèå áëîêîâ ñ òèøèíîé â íà÷àëå è êîíöå : Íåò
Ïðè âû÷èñëåíèÿõ CRC èñïîëüçîâàëèñü íóëåâûå ñýìïëû : Äà
Èíòåðôåéñ : Âñòðîåííûé Win32-èíòåðôåéñ äëÿ Win NT/2000

Âûõîäíîé ôîðìàò : Ïîëüçîâàòåëüñêèé êîäèðîâùèê
Âûáðàííûé áèòðåéò : 768 kBit/s
Êà÷åñòâî : Âûñîêèé
Äîáàâëåíèå ID3-òýãà : Íåò
Óòèëèòà ñæàòèÿ : C:\Program Files\Exact Audio Copy\FLAC\FLAC.EXE
Äîïîëíèòåëüíûå ïàðàìåòðû : -6 -V -T "ARTIST=%a" -T "TITLE=%t" -T "ALBUM=%g" -T "DATE=%y" -T "TRACKNUMBER=%n" -T "GENRE=%m" -T "COMMENT=%e" %s -o %d


TOC èçâëå÷¸ííîãî CD

Òðåê | Ñòàðò | Äëèòåëüíîñòü | Íà÷àëüíûé ñåêòîð | Êîíå÷íûé ñåêòîð
––––––––––––––––––––––––––––––––––-
1 | 0:00.00 | 0:18.19 | 0 | 1368
2 | 0:18.19 | 5:04.30 | 1369 | 24198
3 | 5:22.49 | 3:47.27 | 24199 | 41250
4 | 9:10.01 | 4:11.65 | 41251 | 60140
5 | 13:21.66 | 4:58.68 | 60141 | 82558
6 | 18:20.59 | 5:43.01 | 82559 | 108284
7 | 24:03.60 | 4:31.69 | 108285 | 128678
8 | 28:35.54 | 3:54.03 | 128679 | 146231
9 | 32:29.57 | 3:41.72 | 146232 | 162878
10 | 36:11.54 | 3:47.00 | 162879 | 179903
11 | 39:58.54 | 4:07.27 | 179904 | 198455
12 | 44:06.06 | 4:29.24 | 198456 | 218654
13 | 48:35.30 | 5:24.53 | 218655 | 243007
14 | 54:00.08 | 4:49.74 | 243008 | 264756


Õàðàêòåðèñòèêè äèàïàçîíà èçâëå÷åíèÿ è ñîîáùåíèÿ îá îøèáêàõ

Âûáðàííûé äèàïàçîí

Èìÿ ôàéëà E:\Vanessa Williams - Everlasting Love\Vanessa Williams - Everlasting Love.wav

Ïèêîâûé óðîâåíü 99.8 %
Êà÷åñòâî äèàïàçîíà 99.9 %
CRC òåñòà 1A21F978
CRC êîïèè 1A21F978
Êîïèðîâàíèå… OK

Îøèáîê íå ïðîèçîøëî


AccurateRip: ñâîäêà

Òðåê 1 òî÷íîå èçâëå÷åíèå (äîâåðèå 9) [5F506F77]
Òðåê 2 òî÷íîå èçâëå÷åíèå (äîâåðèå 9) [08B98A78]
Òðåê 3 òî÷íîå èçâëå÷åíèå (äîâåðèå 9) [37EE2B35]
Òðåê 4 òî÷íîå èçâëå÷åíèå (äîâåðèå 9) [C05972CF]
Òðåê 5 òî÷íîå èçâëå÷åíèå (äîâåðèå 9) [6F3D5687]
Òðåê 6 òî÷íîå èçâëå÷åíèå (äîâåðèå 9) [7CD00A5D]
Òðåê 7 òî÷íîå èçâëå÷åíèå (äîâåðèå 9) [36331547]
Òðåê 8 òî÷íîå èçâëå÷åíèå (äîâåðèå 9) [038EF9EB]
Òðåê 9 òî÷íîå èçâëå÷åíèå (äîâåðèå 9) [DE7226BA]
Òðåê 10 òî÷íîå èçâëå÷åíèå (äîâåðèå 9) [7C1DD82C]
Òðåê 11 òî÷íîå èçâëå÷åíèå (äîâåðèå 9) [C46A6C3A]
Òðåê 12 òî÷íîå èçâëå÷åíèå (äîâåðèå 9) [56E656E6]
Òðåê 13 òî÷íîå èçâëå÷åíèå (äîâåðèå 9) [2B5DA20A]
Òðåê 14 òî÷íîå èçâëå÷åíèå (äîâåðèå 9) [4C5AC74E]

Âñå òðåêè èçâëå÷åíû òî÷íî

Êîíåö îò÷¸òà


Tracklist:
01. Tuning
02. Never Can Say Goodbye (Feat. George Benson)
03. Midnight Blue
04. Show And Tell
05. Let's Love
06. First Time Ever I Saw Your Face
07. Everlasting Love
08. With You Im Born Again (Feat. George Benson)
09. Send One Your Love
10. You Are Everything
11. One Less Bell To Answer
12. I'll Be Good To You (Feat. James D Train Williams)
13. Harvest For The World
14. Today And Everyday (Wedding Song)