Subcategories

Vanilla Fudge: CD Collection (1967-2003)

Posted By: v3122
Vanilla Fudge: CD Collection (1967-2003)

Vanilla Fudge: CD Collection (1967-2003)
EAC | Flac(Image) + Cue + Log & MP3 CBR 320Kbps
4CD | Label: Various | ~ 1343 or 541 Mb | Scans Included
Psychedelic Rock / Progressive Rock / Symphonic Rock

Vanilla Fudge was one of the few American links between psychedelia and what soon became heavy metal. While the band did record original material, they were best-known for their loud, heavy, slowed-down arrangements of contemporary pop songs, blowing them up to epic proportions and bathing them in a trippy, distorted haze. Originally, Vanilla Fudge was a blue-eyed soul cover band called the Electric Pigeons, who formed in Long Island, New York, in 1965. Organist Mark Stein, bassist Tim Bogert, and drummer Joey Brennan soon shortened their name to the Pigeons and added guitarist Vince Martell. They built a following by gigging extensively up and down the East Coast, and earned extra money by providing freelance in-concert backing for girl groups. In early 1966, the group recorded a set of eight demos that were released several years later as While the Whole World Was Eating Vanilla Fudge, credited to Mark Stein & the Pigeons.

nspired by the Vagrants, another band on the club circuit led by future Mountain guitarist Leslie West, the Pigeons began to put more effort into reimagining the arrangements of their cover songs. They got so elaborate that by the end of the year, drummer Brennan was replaced by the more technically skilled Carmine Appice. In early 1967, their manager convinced producer George "Shadow" Morton (who'd handled the girl group the Shangri-Las and had since moved into protest folk) to catch their live act. Impressed by their heavy, hard-rocking recasting of the Supremes' "You Keep Me Hangin' On," Morton offered to record the song as a single; the results landed the group a deal with the Atlantic subsidiary Atco, which requested a name change. The band settled on Vanilla Fudge, after a favorite ice cream flavor. "You Keep Me Hangin' On" didn't perform as well as hoped, but the band toured extensively behind its covers-heavy, jam-oriented debut album Vanilla Fudge, which gradually expanded their fan base. Things started to pick up for the band in 1968: early in the year, they headlined the Fillmore West with the Steve Miller Band, performed "You Keep Me Hangin' On" on The Ed Sullivan Show, and released their second album, The Beat Goes On. Despite its somewhat arty, indulgent qualities, the LP was a hit, climbing into the Top 20. That summer, Atco reissued "You Keep Me Hangin' On," and the second time around it climbed into the Top Ten. It was followed by Renaissance, one of Vanilla Fudge's best albums, which also hit the Top 20. The band supported it by touring with Jimi Hendrix, opening several dates on Cream's farewell tour, and late in the year touring again with the fledgling Led Zeppelin as their opening act.


In 1969, the band kept touring and released their first album without Morton, the expansive, symphonic-tinged Near the Beginning. After part of the band recorded a radio commercial with guitarist Jeff Beck, the idea was hatched to form a Cream-styled power trio with plenty of individual solo spotlights. Exhausted by the constant touring, the band decided that their late-1969 European tour would be their last. Following the release of their final album, Rock & Roll, Vanilla Fudge played a few U.S. farewell dates and disbanded in early 1970. Bogert and Appice first formed the hard rock group Cactus, then later joined up with Jeff Beck in the aptly named Beck, Bogert & Appice. Appice went on to become an active session and touring musician, working with a variety of rock and hard rock artists. Vanilla Fudge reunited in 1984 for the poorly received Mystery album, and, over the course of the next two decades, Vanilla Fudge would regroup for tours. These reunions often had differing lineups, always anchored by Carmine Appice and usually Tim Bogert, although the latter opted out of an early-'90s incarnation. At the turn of the millennium, the group – featuring Appice, Bogert, keyboardist Bill Pascali, and guitarist Vince Martell – launched a more serious comeback heralded by the 2002 album The Return. Several other minor switches in lineup followed in the next few years and, in 2007, they now featured Mark Stein on vocals/keyboards instead of Pascali. This is the group that released Out Through the in Door in 2007. This proved to be the group's last album. More tours followed as did the revolving membership, with the most notable departure being Bogert in 2011. He was replaced by Pete Bremy and Vanilla Fudge launched a "farewell tour" in 2011, a tour that was still ongoing in 2013.

by Steve Huey, AMG

Vanilla Fudge: CD Collection (1967-2003):

Vanilla Fudge: CD Collection (1967-2003)

CD01: Vanilla Fudge - Vanilla Fudge (1967)
EAC | Flac(Image) + Cue + Log & MP3 CBR 320Kbps
1997 | ATCO Records 7567-90390-2 | ~ 1343 or 541 Mb | Scans Included
Psychedelic Rock / Progressive Rock / Symphonic Rock

In a debut consisting of covers, nobody could accuse Vanilla Fudge of bad taste in their repertoire; with stoned-out, slowed-down versions of such then-recent classics as "Ticket to Ride," "Eleanor Rigby," and "People Get Ready," they were setting the bar rather high for themselves. Even the one suspect choice – Sonny Bono's "Bang Bang" – turns out to be rivaled only by Mott the Hoople's version of "Laugh at Me" in putting Bono's songwriting in the kindest possible light. Most of the tracks here share a common structure of a disjointed warm-up jam, a Hammond-heavy dirge of harmonized vocals at the center, and a final flat-out jam. Still, some succeed better than others: "You Keep Me Hanging On" has a wonderfully hammered-out drum part, and "She's Not There" boasts some truly groovy organ jams. While the pattern can sound repetitive today, each song still works as a time capsule of American psychedelia.

by Paul Collins, AMG

Tracklist:

01. Ticket to Ride (John Lennon, Paul McCartney) 06:03
02. People Get Ready (Curtis Mayfield) 06:33
03. She's Not There (Rod Argent) 04:58
04. Bang Bang (Sonny Bono) 05:27
05. а) Stra (Illusions Of My Childhood - Part One)
b) You Keep Me Hangin' On (Brian Holland, Lamont Dozier, Eddie Holland)
c) Wber (Illusions Of My Childhood - Part Two) 07:25
06. a) Take Me For A Little While (Trade Martin)
b) Ryfi (Illusions Of My Childhood — Part Three) 03:55
07. a) Eleanor Rigby (John Lennon, Paul McCartney)
b) Elds 08:11

Musicians:

Carmine Appice - drums, vocals
Tim Bogert - bass, vocals
Vince Martell - guitar, vocals
Mark Stein - lead vocals, keyboards


Exact Audio Copy V1.0 beta 1 from 15. November 2010

EAC extraction logfile from 13. October 2014, 23:53

Vanilla Fudge / Vanilla Fudge

Used drive : MATSHITADVD-RAM UJ8A0AS Adapter: 0 ID: 1

Read mode : Secure
Utilize accurate stream : Yes
Defeat audio cache : Yes
Make use of C2 pointers : No

Read offset correction : 102
Overread into Lead-In and Lead-Out : No
Fill up missing offset samples with silence : Yes
Delete leading and trailing silent blocks : No
Null samples used in CRC calculations : Yes
Used interface : Native Win32 interface for Win NT & 2000

Used output format : Internal WAV Routines
Sample format : 44.100 Hz; 16 Bit; Stereo


TOC of the extracted CD

Track | Start | Length | Start sector | End sector
––––––––––––––––––––––––––––-
1 | 0:00.32 | 6:03.73 | 32 | 27329
2 | 6:04.30 | 6:33.02 | 27330 | 56806
3 | 12:37.32 | 4:58.00 | 56807 | 79156
4 | 17:35.32 | 5:27.58 | 79157 | 103739
5 | 23:03.15 | 7:25.52 | 103740 | 137166
6 | 30:28.67 | 3:55.10 | 137167 | 154801
7 | 34:24.02 | 8:11.33 | 154802 | 191659


Range status and errors

Selected range

Filename C:\Users\Alex\Music\Vanilla Fudge - Vanilla Fudge.wav

Peak level 100.0 %
Extraction speed 0.2 X
Range quality 100.0 %
Test CRC 0D0F16D4
Copy CRC 0D0F16D4
Copy OK

No errors occurred


AccurateRip summary

Track 1 accurately ripped (confidence 19) [3504F9F8]
Track 2 accurately ripped (confidence 19) [C52FEB41]
Track 3 accurately ripped (confidence 19) [429783B8]
Track 4 accurately ripped (confidence 19) [D17BC22A]
Track 5 accurately ripped (confidence 19) [F1BEC786]
Track 6 accurately ripped (confidence 19) [21082C23]
Track 7 accurately ripped (confidence 19) [0651420A]

All tracks accurately ripped

End of status report

==== Log checksum C3E4FA9CE6740682D1DC1D59B8807248B7AF2F54EAFF6E191EC82BA6D68E7826 ====

foobar2000 1.2.9 / Dynamic Range Meter 1.1.1
log date: 2015-04-22 18:14:19

––––––––––––––––––––––––––––––––––––––––
Analyzed: Vanilla Fudge / Vanilla Fudge
––––––––––––––––––––––––––––––––––––––––

DR Peak RMS Duration Track
––––––––––––––––––––––––––––––––––––––––
DR11 0.00 dB -13.51 dB 6:04 01-Ticket To Ride
DR11 -2.10 dB -18.13 dB 6:33 02-People Get Ready
DR11 -2.61 dB -17.04 dB 4:58 03-She's Not There
DR13 -0.48 dB -18.71 dB 5:28 04-Bang Bang
DR11 -1.97 dB -15.77 dB 7:26 05-a) STRA (Illusions Of My Childhood - Part One); b) You Keep Me Hanging On; c)…
DR11 -3.69 dB -18.21 dB 3:55 06-a) Take Me For A Little While; b) RYFI (Illusions Of My Childhood - Part Three)
DR13 -0.98 dB -20.45 dB 8:11 07-a) Eleanor Rigby; b) ELDS
––––––––––––––––––––––––––––––––––––––––

Number of tracks: 7
Official DR value: DR11

Samplerate: 44100 Hz
Channels: 2
Bits per sample: 16
Bitrate: 743 kbps
Codec: FLAC

[CUETools log; Date: 11.04.2015 22:27:10; Version: 2.1.4]
Pregap length 00:00:32.
[CTDB TOCID: y6CJleYAlcRR5.REcgh390GhNfw-] found.
Track | CTDB Status
1 | (12/14) Accurately ripped, or (2/14) differs in 7 samples @00:39:50,02:32:47,02:40:43,03:36:21,04:15:52,04:16:03,04:35:27
2 | (12/14) Accurately ripped, or (2/14) differs in 2 samples @03:50:35,04:50:25
3 | (12/14) Accurately ripped, or (2/14) differs in 1 samples @04:01:50
4 | (12/14) Accurately ripped, or (2/14) differs in 6 samples @00:18:25,00:41:06,01:32:41,02:05:25,02:32:67,03:33:07
5 | (12/14) Accurately ripped, or (2/14) differs in 4 samples @00:39:24,02:09:00,03:30:72,05:58:20
6 | (12/14) Accurately ripped, or (2/14) differs in 1 samples @01:06:54
7 | (12/14) Accurately ripped, or (2/14) differs in 8 samples @00:55:20,01:24:44,03:01:13,03:14:15,03:43:70,05:04:14,06:15:38,07:41:25
[AccurateRip ID: 000b7467-0044ab71-5e09fb07] found.
Track [ CRC | V2 ] Status
01 [3504f9f8|a193e382] (008+027/132) Accurately ripped
02 [c52feb41|f7945b85] (008+027/134) Accurately ripped
03 [429783b8|f2383d57] (008+027/134) Accurately ripped
04 [d17bc22a|f8464375] (008+027/136) Accurately ripped
05 [f1bec786|973bd303] (009+027/135) Accurately ripped
06 [21082c23|1013f3c8] (008+027/135) Accurately ripped
07 [0651420a|beaaeb3d] (008+026/128) Accurately ripped
Offsetted by 855:
01 [7ff98ed3] (005/132) Accurately ripped
02 [ae42b052] (005/134) Accurately ripped
03 [3a2372c1] (005/134) Accurately ripped
04 [07cda319] (005/136) Accurately ripped
05 [3abb6755] (005/135) Accurately ripped
06 [095d7300] (005/135) Accurately ripped
07 [d6fc523d] (003/128) Accurately ripped
Offsetted by 1004:
01 [5a22fbb4] (012/132) Accurately ripped
02 [591fa275] (012/134) Accurately ripped
03 [b2d3a34c] (012/134) Accurately ripped
04 [4f8c42f6] (013/136) Accurately ripped
05 [a97b7aa6] (012/135) Accurately ripped
06 [6b4bfc29] (012/135) Accurately ripped
07 [a3bbfe3e] (012/128) Accurately ripped
Offsetted by 1155:
01 [0a8e40cf] (010/132) Accurately ripped
02 [ca255846] (010/134) Accurately ripped
03 [29b2dd15] (010/134) Accurately ripped
04 [553fb325] (010/136) Accurately ripped
05 [70a58935] (010/135) Accurately ripped
06 [1e5c42eb] (010/135) Accurately ripped
07 [670b429f] (010/128) Accurately ripped
Offsetted by 1504:
01 [96702458] (008/132) Accurately ripped
02 [dceeba61] (009/134) Accurately ripped
03 [ecc2a9d8] (010/134) Accurately ripped
04 [d09fb30a] (010/136) Accurately ripped
05 [8e3c509f] (009/135) Accurately ripped
06 [333ee360] (009/135) Accurately ripped
07 [9c2c953f] (009/128) Accurately ripped
Offsetted by 1697:
01 [da422635] (003/132) Accurately ripped
02 [8f4c7d78] (003/134) Accurately ripped
03 [3d7da5b7] (003/134) Accurately ripped
04 [6b6839f3] (003/136) Accurately ripped
05 [a04af64a] (003/135) Accurately ripped
06 [29d902ec] (003/135) Accurately ripped
07 [bbed57f5] (003/128) Accurately ripped
Offsetted by -2877:
01 [c407780f] (000/132) No match (V2 was not tested)
02 [49205e06] (000/134) No match (V2 was not tested)
03 [774a14d5] (000/134) No match (V2 was not tested)
04 [6d572d65] (000/136) No match (V2 was not tested)
05 [690d9378] (000/135) No match (V2 was not tested)
06 [c0211d51] (000/135) No match (V2 was not tested)
07 [fe149b76] (000/128) No match (V2 was not tested)

Track Peak [ CRC32 ] [W/O NULL] [ LOG ]
– 100,0 [0D0F16D4] [17CA8092] CRC32
01 100,0 [C5BA07FF] [F7FA3BA5]
02 78,4 [5F9AA0D6] [A4B068CC]
03 74,0 [884AFD35] [BA85198F]
04 94,6 [86BBEA95] [DCD6823E]
05 79,7 [8F85AAC1] [ACDF709C]
06 65,3 [7C298D7F] [C4D7019C]
07 89,3 [855BC35A] [DA483938]

==============

Vanilla Fudge: CD Collection (1967-2003)

CD02-03: Vanilla Fudge - Renaissance (1968) & Near The Beginning (1969)
EAC | Flac(Image) + Cue + Log & MP3 CBR 320Kbps
2CD | 2008 | Edsel Records, EDSD 2020 | Label: Various | ~ 539 or 234 Mb | Scans Included
Psychedelic Rock / Progressive Rock / Symphonic Rock

This two-fer from Edsel features a pair of albums by Vanilla Fudge: Renaissance and Near the Beginning, originally issued on Atco in 1968 and 1969. These two albums aren't representative of the band at their best and can only be recommended to collectors. Casual listeners should stick with Psychedelic Sundae: The Best of Vanilla Fudge on Rhino.

by Al Campbell, AMG

Tracklist CD1 - Renaissance:

01. The Sky Cried/When I Was A Boy (Mark Stein, Tim Bogert) 07:40
02. Thoughts (Vince Martell) 03:34
03. Paradise (Stein, Carmine Appice) 06:05
04. That’s What Makes A Man (Stein) 04:29
05. The Spell That Comes After (Essra Mohawk) 04:33
06. Faceless People (Appice) 06:07
07. Season Of The Witch (Donovan Leitch) 08:57

Exact Audio Copy V1.0 beta 1 from 15. November 2010

EAC extraction logfile from 12. October 2014, 22:37

Vanilla Fudge / Renaissance & Near The Beginning [Disc 1]

Used drive : MATSHITADVD-RAM UJ8A0AS Adapter: 0 ID: 1

Read mode : Secure
Utilize accurate stream : Yes
Defeat audio cache : Yes
Make use of C2 pointers : No

Read offset correction : 102
Overread into Lead-In and Lead-Out : No
Fill up missing offset samples with silence : Yes
Delete leading and trailing silent blocks : No
Null samples used in CRC calculations : Yes
Used interface : Native Win32 interface for Win NT & 2000

Used output format : Internal WAV Routines
Sample format : 44.100 Hz; 16 Bit; Stereo


TOC of the extracted CD

Track | Start | Length | Start sector | End sector
––––––––––––––––––––––––––––-
1 | 0:00.00 | 7:40.13 | 0 | 34512
2 | 7:40.13 | 3:34.37 | 34513 | 50599
3 | 11:14.50 | 6:05.14 | 50600 | 77988
4 | 17:19.64 | 4:29.00 | 77989 | 98163
5 | 21:48.64 | 4:33.67 | 98164 | 118705
6 | 26:22.56 | 6:07.63 | 118706 | 146293
7 | 32:30.44 | 8:57.06 | 146294 | 186574


Range status and errors

Selected range

Filename C:\Users\Alex\Music\Vanilla Fudge - Renaissance & Near The Beginning [Disc 1].wav

Peak level 94.3 %
Extraction speed 0.2 X
Range quality 100.0 %
Test CRC 7F8A5D75
Copy CRC 7F8A5D75
Copy OK

No errors occurred


AccurateRip summary

Track 1 accurately ripped (confidence 1) [3CA3E0EC]
Track 2 accurately ripped (confidence 2) [8EE4C410]
Track 3 accurately ripped (confidence 2) [11CDD3C0]
Track 4 accurately ripped (confidence 2) [BC18F32C]
Track 5 accurately ripped (confidence 2) [FB300168]
Track 6 accurately ripped (confidence 2) [4A551900]
Track 7 accurately ripped (confidence 2) [EB4EE993]

All tracks accurately ripped

End of status report

==== Log checksum 5D02D8D135249F634A6EE4104AA3E050468D4A7CDD16CF98C5499696FA59E4B1 ====

foobar2000 1.2.9 / Dynamic Range Meter 1.1.1
log date: 2015-04-22 18:49:05

––––––––––––––––––––––––––––––––––––––––
Analyzed: Vanilla Fudge / Renaissance & Near The Beginning [Disc 1]
––––––––––––––––––––––––––––––––––––––––

DR Peak RMS Duration Track
––––––––––––––––––––––––––––––––––––––––
DR11 -0.51 dB -15.13 dB 7:40 01-The Sky Cried - When I Was A Boy
DR12 -0.51 dB -15.82 dB 3:34 02-Thoughts
DR12 -0.79 dB -17.38 dB 6:05 03-Paradise
DR11 -0.51 dB -14.52 dB 4:29 04-That's What Makes A Man
DR11 -0.51 dB -16.22 dB 4:34 05-The Spell That Comes After
DR12 -0.64 dB -17.18 dB 6:08 06-Faceless People
DR13 -0.61 dB -19.94 dB 8:57 07-Season Of The Witch
––––––––––––––––––––––––––––––––––––––––

Number of tracks: 7
Official DR value: DR12

Samplerate: 44100 Hz
Channels: 2
Bits per sample: 16
Bitrate: 713 kbps
Codec: FLAC

[CUETools log; Date: 11.04.2015 22:28:35; Version: 2.1.4]
[CTDB TOCID: a0eKFhO0VpAD9sZESQVdQHuvsgA-] found.
Track | CTDB Status
1 | (2/2) Accurately ripped
2 | (2/2) Accurately ripped
3 | (2/2) Accurately ripped
4 | (2/2) Accurately ripped
5 | (2/2) Accurately ripped
6 | (2/2) Accurately ripped
7 | (2/2) Accurately ripped
[AccurateRip ID: 000ae089-0040e351-4f09b707] found.
Track [ CRC | V2 ] Status
01 [3ca3e0ec|6a3110a0] (0+2/2) Accurately ripped
02 [8ee4c410|0e0c5420] (0+3/3) Accurately ripped
03 [11cdd3c0|1abc620c] (0+3/3) Accurately ripped
04 [bc18f32c|37ee8b82] (0+3/3) Accurately ripped
05 [fb300168|578044be] (0+3/3) Accurately ripped
06 [4a551900|ce295497] (0+3/3) Accurately ripped
07 [eb4ee993|4d104c5a] (0+3/3) Accurately ripped

Track Peak [ CRC32 ] [W/O NULL] [ LOG ]
– 94,3 [7F8A5D75] [6C1BB324] CRC32
01 94,3 [877162D7] [43373607]
02 94,3 [B0786A81] [D8213C96]
03 91,3 [399399C2] [EBA860B9]
04 94,2 [F43D0372] [693972E1]
05 94,3 [7E0626A0] [406D928D]
06 92,9 [12920C60] [18455770]
07 93,2 [4D860478] [56716229]

Tracklist CD2 - Near The Beginning:

01. Shotgun (Autry DeWalt) 06:12
02. Some Velvet Morning (Lee Hazlewood) 07:28
03. Where Is Happiness (Carmine Appice) 07:03
04. The Break Song (Carmine Appice, Tim Bogert, Vince Martell, Mark Stein) 23:23

Musicians:

Carmine Appice - drums, vocals
Tim Bogert - bass, vocals
Vince Martell - guitar, vocals
Mark Stein - lead vocals, keyboards


Exact Audio Copy V1.0 beta 1 from 15. November 2010

EAC extraction logfile from 13. October 2014, 3:41

Vanilla Fudge / Renaissance & Near The Beginning [Disc 2]

Used drive : MATSHITADVD-RAM UJ8A0AS Adapter: 0 ID: 1

Read mode : Secure
Utilize accurate stream : Yes
Defeat audio cache : Yes
Make use of C2 pointers : No

Read offset correction : 102
Overread into Lead-In and Lead-Out : No
Fill up missing offset samples with silence : Yes
Delete leading and trailing silent blocks : No
Null samples used in CRC calculations : Yes
Used interface : Native Win32 interface for Win NT & 2000

Used output format : Internal WAV Routines
Sample format : 44.100 Hz; 16 Bit; Stereo


TOC of the extracted CD

Track | Start | Length | Start sector | End sector
––––––––––––––––––––––––––––-
1 | 0:00.00 | 6:12.29 | 0 | 27928
2 | 6:12.29 | 7:28.23 | 27929 | 61551
3 | 13:40.52 | 7:03.61 | 61552 | 93337
4 | 20:44.38 | 23:23.15 | 93338 | 198577


Range status and errors

Selected range

Filename C:\Users\Alex\Music\Vanilla Fudge - Renaissance & Near The Beginning [Disc 2].wav

Peak level 94.2 %
Extraction speed 0.6 X
Range quality 100.0 %
Test CRC 884FA3F0
Copy CRC 884FA3F0
Copy OK

No errors occurred


AccurateRip summary

Track 1 accurately ripped (confidence 2) [72B69997]
Track 2 accurately ripped (confidence 2) [8DF780B6]
Track 3 accurately ripped (confidence 2) [B26DE72B]
Track 4 accurately ripped (confidence 2) [2117DBCE]

All tracks accurately ripped

End of status report

==== Log checksum E88EEACB9197B86BD22806EEB259F950E446B6BCC79EF14294977ADAEB35C6CF ====

foobar2000 1.2.9 / Dynamic Range Meter 1.1.1
log date: 2015-04-22 18:49:22

––––––––––––––––––––––––––––––––––––––––
Analyzed: Vanilla Fudge / Renaissance & Near The Beginning [Disc 2]
––––––––––––––––––––––––––––––––––––––––

DR Peak RMS Duration Track
––––––––––––––––––––––––––––––––––––––––
DR13 -0.51 dB -16.32 dB 6:12 01-Shotgun
DR15 -0.51 dB -21.88 dB 7:28 02-Some Velvet Morning
DR13 -0.51 dB -16.18 dB 7:04 03-Where Is Happiness?
DR14 -0.51 dB -18.47 dB 23:23 04-The Break Song (Live)
––––––––––––––––––––––––––––––––––––––––

Number of tracks: 4
Official DR value: DR14

Samplerate: 44100 Hz
Channels: 2
Bits per sample: 16
Bitrate: 839 kbps
Codec: FLAC

[CUETools log; Date: 11.04.2015 22:27:55; Version: 2.1.4]
[CTDB TOCID: 5ahU7K1XObE4XuTXrPB8XmBeE2I-] found.
Track | CTDB Status
1 | (2/2) Accurately ripped
2 | (2/2) Accurately ripped
3 | (2/2) Accurately ripped
4 | (2/2) Accurately ripped
[AccurateRip ID: 0005d1d5-00188465-290a5704] found.
Track [ CRC | V2 ] Status
01 [72b69997|7078895e] (2+3/5) Accurately ripped
02 [8df780b6|71ba1e70] (2+3/5) Accurately ripped
03 [b26de72b|858dad27] (2+3/5) Accurately ripped
04 [2117dbce|6a498c45] (2+3/5) Accurately ripped

Track Peak [ CRC32 ] [W/O NULL] [ LOG ]
– 94,2 [884FA3F0] [AB4E7E48] CRC32
01 94,2 [A30DF2E0] [900FDDEC]
02 94,2 [382AF48D] [86945D7A]
03 94,2 [F6588CD3] [51D63BD8]
04 94,2 [2D0C1782] [BA96AE48]

==============

Vanilla Fudge: CD Collection (1967-2003)

CD04: Vanilla Fudge - The Return (2003)
EAC | Flac(Image) + Cue + Log & MP3 CBR 320Kbps
Music Avenue, 250098 | ~ 551 or 201 Mb | Scans Included
Psychedelic Rock / Progressive Rock / Symphonic Rock

The band does a fantastic job redoing some of their standards and they also do several great cover versions of some more recent hits originally done by other performers. And I must say, I like the way V-Fudge does them much better. If you are a V-Fudge fan or a fan of good, "for real" heavy rock done well this CD is for you. Drumming, guitar, bass, keyboards (real Hammond organ) and vocals are all outstanding. These guys play and sound better than ever. Truly a fun CD! Now, if they would just put out a CD with excerpts from their recent live tour too!.

By Amazon Customer, amazon

Tracklist:

01. Ain't That Peculiar (Venier, Middleman) 06:12
02. You Keep Me Hangin' On (Holland, Dozier, Holland) 06:47
03. Tearin' Up My Heart (Hillert, Rosenblum) 07:39
04. Shotgun (DeWalt) 06:07
05. People Get Ready (Mayfield) 06:48
06. Take Me For A Little While (Martin) 04:17
07. Good Good Livin' (Appice, Bogart, Martell, Stein) 04:44
08. I Want It That Way (Showalter) 06:52
09. Need Love (Appice, Bogart, Martell, Stein) 04:51
10. She's Not There (Argent) 05:14
11. Season Of The Witch (Donovan) 08:12
12. Do You Think I'm Sexy (Appice, Rod Stewart) 07:15

Bonus Track:
13. Tearing Up My Heart (Hillert, Rosenblum) 03:46

Musicians:

Carmine Appice – drums, vocals
Tim Bogert – bass, vocals
Vince Martell – guitar, vocals
Bill Pascali – lead vocals, keyboards
T.M. Stevens – bass on "Do Ya Think I'm Sexy"


Exact Audio Copy V1.0 beta 1 from 15. November 2010

EAC extraction logfile from 10. October 2013, 21:12

Vanilla Fudge / The Return

Used drive : MATSHITADVD-RAM UJ8A0AS Adapter: 0 ID: 1

Read mode : Secure
Utilize accurate stream : Yes
Defeat audio cache : Yes
Make use of C2 pointers : No

Read offset correction : 102
Overread into Lead-In and Lead-Out : No
Fill up missing offset samples with silence : Yes
Delete leading and trailing silent blocks : No
Null samples used in CRC calculations : No
Used interface : Native Win32 interface for Win NT & 2000

Used output format : Internal WAV Routines
Sample format : 44.100 Hz; 16 Bit; Stereo


TOC of the extracted CD

Track | Start | Length | Start sector | End sector
––––––––––––––––––––––––––––-
1 | 0:00.00 | 6:12.25 | 0 | 27924
2 | 6:12.25 | 6:47.12 | 27925 | 58461
3 | 12:59.37 | 7:39.40 | 58462 | 92926
4 | 20:39.02 | 6:07.50 | 92927 | 120501
5 | 26:46.52 | 6:48.48 | 120502 | 151149
6 | 33:35.25 | 4:17.37 | 151150 | 170461
7 | 37:52.62 | 4:44.43 | 170462 | 191804
8 | 42:37.30 | 6:52.65 | 191805 | 222769
9 | 49:30.20 | 4:51.72 | 222770 | 244666
10 | 54:22.17 | 5:14.53 | 244667 | 268269
11 | 59:36.70 | 8:12.52 | 268270 | 305221
12 | 67:49.47 | 7:15.00 | 305222 | 337846
13 | 75:04.47 | 3:46.54 | 337847 | 354850


Range status and errors

Selected range

Filename C:\Users\Alex\Music\Vanilla Fudge - The Return.wav

Peak level 99.4 %
Extraction speed 0.0 X
Range quality 100.0 %
Test CRC 4070E1D5
Copy CRC 4070E1D5
Copy OK

No errors occurred


AccurateRip summary

Track 1 cannot be verified as accurate (confidence 3) [9DDC3B66], AccurateRip returned [A5BE7806]
Track 2 cannot be verified as accurate (confidence 3) [ABED5377], AccurateRip returned [9B510D55]
Track 3 cannot be verified as accurate (confidence 3) [C5BC52AB], AccurateRip returned [9DEFA91F]
Track 4 cannot be verified as accurate (confidence 3) [00EA62B9], AccurateRip returned [C134A77F]
Track 5 cannot be verified as accurate (confidence 3) [7425363C], AccurateRip returned [F994D818]
Track 6 cannot be verified as accurate (confidence 3) [3FBF78EF], AccurateRip returned [6951636F]
Track 7 cannot be verified as accurate (confidence 3) [1C06F708], AccurateRip returned [CF3C0E58]
Track 8 cannot be verified as accurate (confidence 3) [CBA50DB8], AccurateRip returned [99463A16]
Track 9 cannot be verified as accurate (confidence 3) [B1652F54], AccurateRip returned [FCDA1F1F]
Track 10 cannot be verified as accurate (confidence 3) [F0F8F8DA], AccurateRip returned [1CD3FFF8]
Track 11 cannot be verified as accurate (confidence 3) [6F069C2B], AccurateRip returned [28BB33C7]
Track 12 cannot be verified as accurate (confidence 3) [02231E40], AccurateRip returned [F8E0EDFC]
Track 13 cannot be verified as accurate (confidence 3) [F417B66E], AccurateRip returned [FB42743C]

No tracks could be verified as accurate
You may have a different pressing from the one(s) in the database

End of status report

==== Log checksum 268C9236BD3C604F61D2EB140290A794F6A18ECD1BA5C22649C21A787D1AC750 ====

foobar2000 1.2.9 / Dynamic Range Meter 1.1.1
log date: 2015-04-22 18:49:47

––––––––––––––––––––––––––––––––––––––––
Analyzed: Vanilla Fudge / The Return
––––––––––––––––––––––––––––––––––––––––

DR Peak RMS Duration Track
––––––––––––––––––––––––––––––––––––––––
DR11 -0.05 dB -12.76 dB 6:12 01-Ain't that peculiar
DR10 -0.05 dB -11.31 dB 6:47 02-You keep me hangin' on
DR9 -0.05 dB -11.75 dB 7:40 03-Tearin' up my heart
DR10 -0.05 dB -11.55 dB 6:08 04-Shotgun
DR12 -0.05 dB -16.00 dB 6:49 05-People get ready
DR9 -0.05 dB -11.19 dB 4:17 06-Take me for a little while
DR10 -0.05 dB -11.34 dB 4:45 07-Good lovin'
DR10 -0.05 dB -12.02 dB 6:53 08-I want it that way
DR10 -0.05 dB -11.63 dB 4:52 09-Need love
DR11 -0.05 dB -12.57 dB 5:15 10-She's not there
DR10 -0.05 dB -13.13 dB 8:13 11-Season of the whitch
DR10 -0.05 dB -11.70 dB 7:15 12-Do you think I'm sexy
DR10 -0.05 dB -12.14 dB 3:47 13-Tearing up my heart (Radio Edit)
––––––––––––––––––––––––––––––––––––––––

Number of tracks: 13
Official DR value: DR10

Samplerate: 44100 Hz
Channels: 2
Bits per sample: 16
Bitrate: 922 kbps
Codec: FLAC

[CUETools log; Date: 11.04.2015 22:32:33; Version: 2.1.4]
[CTDB TOCID: 04eAt2_oFiyuTn4M9Jq0jxus_tA-] found.
Track | CTDB Status
1 | (3/3) Accurately ripped
2 | (3/3) Accurately ripped
3 | (3/3) Accurately ripped
4 | (3/3) Accurately ripped
5 | (3/3) Accurately ripped
6 | (3/3) Accurately ripped
7 | (3/3) Accurately ripped
8 | (3/3) Accurately ripped
9 | (1/3) Accurately ripped, or (2/3) differs in 16 samples @02:23:01-02:23:02
10 | (3/3) Accurately ripped
11 | (3/3) Accurately ripped
12 | (3/3) Accurately ripped
13 | (3/3) Accurately ripped
[AccurateRip ID: 0026dcac-01818424-ba127b0d] found.
Track [ CRC | V2 ] Status
01 [9ddc3b66|f9044e8d] (0+0/5) No match
02 [abed5377|f0c6a0e7] (0+0/5) No match
03 [c5bc52ab|b1e1924c] (0+0/5) No match
04 [00ea62b9|52347f7c] (0+0/3) No match
05 [7425363c|b26db72b] (0+0/5) No match
06 [3fbf78ef|dcb80007] (0+0/5) No match
07 [1c06f708|aff82e9f] (0+0/5) No match
08 [cba50db8|e130c5a0] (0+0/5) No match
09 [b1652f54|64699854] (0+0/5) No match
10 [f0f8f8da|f2aa75af] (0+0/5) No match
11 [6f069c2b|9c81d693] (0+0/5) No match
12 [02231e40|609706fe] (0+0/5) No match
13 [f417b66e|6c428016] (0+0/5) No match
Offsetted by 730:
01 [a5be7806] (3/5) Accurately ripped
02 [9b510d55] (3/5) Accurately ripped
03 [9defa91f] (3/5) Accurately ripped
04 [c134a77f] (3/3) Accurately ripped
05 [f994d818] (3/5) Accurately ripped
06 [6951636f] (3/5) Accurately ripped
07 [cf3c0e58] (3/5) Accurately ripped
08 [99463a16] (3/5) Accurately ripped
09 [844b984e] (0/5) No match (V2 was not tested)
10 [1cd3fff8] (3/5) Accurately ripped
11 [28bb33c7] (3/5) Accurately ripped
12 [f8e0edfc] (3/5) Accurately ripped
13 [fb42743c] (3/5) Accurately ripped

Track Peak [ CRC32 ] [W/O NULL] [ LOG ]
– 99,4 [D3282358] [4070E1D5] W/O NULL
01 99,4 [55780E04] [AC36591E]
02 99,4 [C1AB3513] [6B5E50AD]
03 99,4 [D11D8D5C] [7F4D34DF]
04 99,4 [2E4A56DE] [986FC84B]
05 99,4 [E7F76E0F] [8447A25F]
06 99,4 [3CC9F684] [15323615]
07 99,4 [74779B51] [7370C71D]
08 99,4 [17D027F0] [E1AB0D0B]
09 99,4 [E109DEB2] [5617899C]
10 99,4 [DA3E87E2] [F2A48FE2]
11 99,4 [BE7F060D] [C62CE846]
12 99,4 [FEE3FBC9] [C742DFFF]
13 99,4 [8590C815] [8A09905E]

––


All thanks go to Alex

Vanilla Fudge - Box Of Fudge (2010)

Download Vanilla Fudge: CD Collection (1967-2003):