Tags
Language
Tags
February 2023
Su Mo Tu We Th Fr Sa
29 30 31 1 2 3 4
5 6 7 8 9 10 11
12 13 14 15 16 17 18
19 20 21 22 23 24 25
26 27 28 1 2 3 4

Various Artists - Studio One Showcase: The Sound Of Studio One In The 1970s (2016)

Posted By: BlondStyle
Various Artists - Studio One Showcase: The Sound Of Studio One In The 1970s (2016)

Various Artists - Studio One Showcase: The Sound Of Studio One In The 1970s (2016)
Pop/Rock, Reggae, Dancehall | EAC Rip | FLAC, Tracks+CUE+LOG+Scans (JPEG) | 01:11:12 h. | 355,57 Mb
Label: Soul Jazz Records (UK & Europe) | Cat.# SJR CD326 | Released: 2016-01-22 (1970s)

Studio One Showcase brings together a new fine selection of classic tracks from Horace Andy, Freddy McGregor, Johnny Osbourne, Lone Ranger, Sugar Minott, The Heptones, Wailing Souls and other seminal reggae artists all recorded at Studio One in the 1970s. By the start of the 1970s, Clement Dodd's Studio One record label was at a crossroads. The previous two decades had given the producer and record label more success than most aspired to in a lifetime. From the mid-1950s on, the Downbeat Soundsystem had conquered all opponents - from Duke Reid to Prince Buster - and shaped and led the musical landscape of the dancehall. In the 1960s, the establishment of Studio One Records at 13 Brentford Road in Kingston, Jamaica, had led to a Ford Motors-esque production line of hits that similarly defined reggae music. But the 1970s was to prove Clement 'Sir Coxsone' Dodd's most challenging and yet ultimately the most creative decade of all. Like the most zealous and resourceful of pioneers, Studio One was about to embark on a stunning era of reinvention, adaptation, stripping down and versioning, each step of which marked new musical developments in reggae music - roots reggae, deejay, dancehall, rub a dub and more. This album presents an overview of this exciting and ground-breaking decade of the 1970s at Studio One, during an era where, despite challenges from new producers, political turmoil, and almost constant musical and technological innovations in reggae, Clement 'Sir Coxsone' Dodd was able to maintain his position as the pioneering leader in reggae music, and to maintain Studio One is the number one sound in reggae music. Always.
~Review by Amazon

Various Artists - Studio One Showcase: The Sound Of Studio One In The 1970s (2016)

Various Artists - Studio One Showcase: The Sound Of Studio One In The 1970s (2016)

Release of the CD: 2016, January, 22 [CD Soul Jazz Records (UK & Europe), Cat.# SJR CD326 / UPC: 5026328103266]
This compilation: ℗ 2016 by Jamaica Recording and Publishing Studio Limited, t/a Studio One under exclusive licence to Soul Jazz Records. © 2016 Soul Jazz Records.
Made in the EU

Credits:

Mastered By – Duncan Cowell, Pete Reilly
Photography By – Adrian Boot, David Corio, Getty Images
Photography By [Front Cover] – Peter Simon
Producer – Clement Dodd
Sleeve Notes, Compiled By – S. Baker
Sleeve, Design [Sleeve Designed By] – Adrian Self, Count Fifty I
Technician [Cutting By]
– Noel Summerville


Tracklist:

01. See A Man's Face - Horace Andy (02:28)
02. Right On Rasta - Cedric Brooks & Count Ossie (03:07)
03. Jah Dread - Prince Jazzbo (03:58)
04. What About Me - Myrna Hague (3:20)
05. Time To Be Happy - Michigan and Smiley (05:35)
06. Stick Together - Wailing Souls (05:21)
07. Have No Fear - Sugar Minott (02:45)
08. Just Another Day - Judah Eskender Tafari (08:20)
09. Chucky Skank - Dillinger (02:40)
10. Bredda Labba Labba - Freddie McGregor (02:44)
11. Stay With Me - Frankie Wilmoth (02:20)
12. People A Watch Me - Johnny Osbourne (03:27)
13. Tribulation - The Gladiators (03:42)
14. Hard To Confess - The Heptones (02:43)
15. Fish Tea - Lone Ranger (02:58)
16. Ain't No Love - Jennifer Lara (02:09)
17. Send Another Moses - The Willows (06:03)
18. Joy In The Morning - The Gaylads & The Brentford Disco Set (07:32)

CUERipper v2.1.6 Copyright (C) 2008-13 Grigory Chudov

EAC extraction logfile from 29. January 2016, 2:01

Various Artists / Soul Jazz Records presents Studio One : Showcase (The sound of Studio One in the 1970s)

Used drive : TSSTcorp CDDVDW SH-216BB Adapter: 1 ID: 0

Read mode : Secure
Utilize accurate stream : Yes
Defeat audio cache : Yes
Make use of C2 pointers : No

Read offset correction : 6
Overread into Lead-In and Lead-Out : No
Fill up missing offset samples with silence : Yes
Delete leading and trailing silent blocks : No
Null samples used in CRC calculations : Yes
Used interface : Native Win32 interface for Win NT & 2000
Gap handling : Appended to previous track

Used output format : Internal WAV Routines
Sample format : 44.100 Hz; 16 Bit; Stereo


TOC of the extracted CD

Track | Start | Length | Start sector | End sector
––––––––––––––––––––––––––––-
1 | 0:00.00 | 2:28.20 | 0 | 11119
2 | 2:28.20 | 3:07.21 | 11120 | 25165
3 | 5:35.41 | 3:57.60 | 25166 | 43000
4 | 9:33.26 | 3:19.57 | 43001 | 57982
5 | 12:53.08 | 5:35.13 | 57983 | 83120
6 | 18:28.21 | 5:21.27 | 83121 | 107222
7 | 23:49.48 | 2:44.65 | 107223 | 119587
8 | 26:34.38 | 8:19.59 | 119588 | 157071
9 | 34:54.22 | 2:39.60 | 157072 | 169056
10 | 37:34.07 | 2:43.64 | 169057 | 181345
11 | 40:17.71 | 2:20.21 | 181346 | 191866
12 | 42:38.17 | 3:26.42 | 191867 | 207358
13 | 46:04.59 | 3:41.71 | 207359 | 224004
14 | 49:46.55 | 2:42.59 | 224005 | 236213
15 | 52:29.39 | 2:57.60 | 236214 | 249548
16 | 55:27.24 | 2:09.16 | 249549 | 259239
17 | 57:36.40 | 6:03.29 | 259240 | 286493
18 | 63:39.69 | 7:31.41 | 286494 | 320359


Track 1

Filename C:\Users\User\Music\Various Artists\2016 - Soul Jazz Records presents Studio One _ Showcase (The sound of Studio One in the 1970s)\01. See a Man's Face - Horace Andy.wav

Pre-gap length 0:00:02.00

Peak level 81.2 %
Track quality 100.0 %
Copy CRC 755A03A8
Track not present in AccurateRip database
Copy OK

Track 2

Filename C:\Users\User\Music\Various Artists\2016 - Soul Jazz Records presents Studio One _ Showcase (The sound of Studio One in the 1970s)\02. Right On Rasta - Cedric Brooks & Count Ossie.wav

Pre-gap length 0:00:01.38

Peak level 83.8 %
Track quality 100.0 %
Copy CRC F1F9B500
Track not present in AccurateRip database
Copy OK

Track 3

Filename C:\Users\User\Music\Various Artists\2016 - Soul Jazz Records presents Studio One _ Showcase (The sound of Studio One in the 1970s)\03. Jah Dread - Prince Jazzbo.wav

Pre-gap length 0:00:01.29

Peak level 95.6 %
Track quality 100.0 %
Copy CRC 059C8A84
Track not present in AccurateRip database
Copy OK

Track 4

Filename C:\Users\User\Music\Various Artists\2016 - Soul Jazz Records presents Studio One _ Showcase (The sound of Studio One in the 1970s)\04. What About Me - Myrna Hague.wav

Pre-gap length 0:00:00.96

Peak level 83.6 %
Track quality 100.0 %
Copy CRC 9D2B88CC
Track not present in AccurateRip database
Copy OK

Track 5

Filename C:\Users\User\Music\Various Artists\2016 - Soul Jazz Records presents Studio One _ Showcase (The sound of Studio One in the 1970s)\05. Time to Be Happy - Michigan and Smiley.wav

Pre-gap length 0:00:01.40

Peak level 85.7 %
Track quality 100.0 %
Copy CRC 41F4B8A0
Track not present in AccurateRip database
Copy OK

Track 6

Filename C:\Users\User\Music\Various Artists\2016 - Soul Jazz Records presents Studio One _ Showcase (The sound of Studio One in the 1970s)\06. Stick Together - Wailing Souls.wav

Pre-gap length 0:00:02.41

Peak level 96.6 %
Track quality 100.0 %
Copy CRC 75CD7055
Track not present in AccurateRip database
Copy OK

Track 7

Filename C:\Users\User\Music\Various Artists\2016 - Soul Jazz Records presents Studio One _ Showcase (The sound of Studio One in the 1970s)\07. Have No Fear - Sugar Minott.wav

Pre-gap length 0:00:00.41

Peak level 96.6 %
Track quality 100.0 %
Copy CRC C9E1D450
Track not present in AccurateRip database
Copy OK

Track 8

Filename C:\Users\User\Music\Various Artists\2016 - Soul Jazz Records presents Studio One _ Showcase (The sound of Studio One in the 1970s)\08. Just Another Day - Judah Eskender Tafari.wav

Pre-gap length 0:00:00.70

Peak level 96.6 %
Track quality 100.0 %
Copy CRC FF235A50
Track not present in AccurateRip database
Copy OK

Track 9

Filename C:\Users\User\Music\Various Artists\2016 - Soul Jazz Records presents Studio One _ Showcase (The sound of Studio One in the 1970s)\09. Chucky Skank - Dillinger.wav

Pre-gap length 0:00:01.04

Peak level 82.9 %
Track quality 100.0 %
Copy CRC 66B29684
Track not present in AccurateRip database
Copy OK

Track 10

Filename C:\Users\User\Music\Various Artists\2016 - Soul Jazz Records presents Studio One _ Showcase (The sound of Studio One in the 1970s)\10. Bredda Labba Labba - Freddie McGregor.wav

Pre-gap length 0:00:01.58

Peak level 96.6 %
Track quality 100.0 %
Copy CRC 1ED1E3C5
Track not present in AccurateRip database
Copy OK

Track 11

Filename C:\Users\User\Music\Various Artists\2016 - Soul Jazz Records presents Studio One _ Showcase (The sound of Studio One in the 1970s)\11. Stay With Me - Frankie Wilmoth.wav

Pre-gap length 0:00:00.93

Peak level 96.4 %
Track quality 100.0 %
Copy CRC FDACD30B
Track not present in AccurateRip database
Copy OK

Track 12

Filename C:\Users\User\Music\Various Artists\2016 - Soul Jazz Records presents Studio One _ Showcase (The sound of Studio One in the 1970s)\12. People a Watch Me - Johnny Osbourne.wav

Pre-gap length 0:00:01.44

Peak level 96.6 %
Track quality 100.0 %
Copy CRC 8F5DA9CF
Track not present in AccurateRip database
Copy OK

Track 13

Filename C:\Users\User\Music\Various Artists\2016 - Soul Jazz Records presents Studio One _ Showcase (The sound of Studio One in the 1970s)\13. Tribulation - The Gladiators.wav

Pre-gap length 0:00:01.49

Peak level 91.0 %
Track quality 100.0 %
Copy CRC 578CD9FA
Track not present in AccurateRip database
Copy OK

Track 14

Filename C:\Users\User\Music\Various Artists\2016 - Soul Jazz Records presents Studio One _ Showcase (The sound of Studio One in the 1970s)\14. Hard to Confess - The Heptones.wav

Pre-gap length 0:00:01.74

Peak level 90.4 %
Track quality 100.0 %
Copy CRC B4539CBD
Track not present in AccurateRip database
Copy OK

Track 15

Filename C:\Users\User\Music\Various Artists\2016 - Soul Jazz Records presents Studio One _ Showcase (The sound of Studio One in the 1970s)\15. Fish Tea - Lone Ranger.wav

Pre-gap length 0:00:00.48

Peak level 96.6 %
Track quality 100.0 %
Copy CRC 0C4A3ED9
Track not present in AccurateRip database
Copy OK

Track 16

Filename C:\Users\User\Music\Various Artists\2016 - Soul Jazz Records presents Studio One _ Showcase (The sound of Studio One in the 1970s)\16. Ain't No Love - Jennifer Lara.wav

Pre-gap length 0:00:00.97

Peak level 94.7 %
Track quality 100.0 %
Copy CRC EB46BE9D
Track not present in AccurateRip database
Copy OK

Track 17

Filename C:\Users\User\Music\Various Artists\2016 - Soul Jazz Records presents Studio One _ Showcase (The sound of Studio One in the 1970s)\17. Send Another Moses - The Willows.wav

Pre-gap length 0:00:00.82

Peak level 96.6 %
Track quality 100.0 %
Copy CRC F4D374DC
Track not present in AccurateRip database
Copy OK

Track 18

Filename C:\Users\User\Music\Various Artists\2016 - Soul Jazz Records presents Studio One _ Showcase (The sound of Studio One in the 1970s)\18. Joy in the Morning - The Gaylads & The Brentford Disco Set.wav

Pre-gap length 0:00:00.53

Peak level 96.2 %
Track quality 100.0 %
Copy CRC DAB68DD0
Track not present in AccurateRip database
Copy OK


None of the tracks are present in the AccurateRip database

No errors occurred

End of status report

––––––––––––––––––––––––––––––––––––––––
Analyzed: Cedric Brooks & Count Ossie / Soul Jazz Records presents Studio One : Showcase (The sound of Studio One in the 1970s) (1)
Dillinger / Soul Jazz Records presents Studio One : Showcase (The sound of Studio One in the 1970s) (2)
Frankie Wilmoth / Soul Jazz Records presents Studio One : Showcase (The sound of Studio One in the 1970s) (3)
Freddie McGregor / Soul Jazz Records presents Studio One : Showcase (The sound of Studio One in the 1970s) (4)
Horace Andy / Soul Jazz Records presents Studio One : Showcase (The sound of Studio One in the 1970s) (5)
Jennifer Lara / Soul Jazz Records presents Studio One : Showcase (The sound of Studio One in the 1970s) (6)
Johnny Osbourne / Soul Jazz Records presents Studio One : Showcase (The sound of Studio One in the 1970s) (7)
Judah Eskender Tafari / Soul Jazz Records presents Studio One : Showcase (The sound of Studio One in the 1970s) (8)
Lone Ranger / Soul Jazz Records presents Studio One : Showcase (The sound of Studio One in the 1970s) (9)
Michigan and Smiley / Soul Jazz Records presents Studio One : Showcase (The sound of Studio One in the 1970s) (10)
Myrna Hague / Soul Jazz Records presents Studio One : Showcase (The sound of Studio One in the 1970s) (11)
Prince Jazzbo / Soul Jazz Records presents Studio One : Showcase (The sound of Studio One in the 1970s) (12)
Sugar Minott / Soul Jazz Records presents Studio One : Showcase (The sound of Studio One in the 1970s) (13)
The Gaylads & The Brentford Disco Set / Soul Jazz Records presents Studio One : Showcase (The sound of Studio One in the 1970s) (14)
The Gladiators / Soul Jazz Records presents Studio One : Showcase (The sound of Studio One in the 1970s) (15)
The Heptones / Soul Jazz Records presents Studio One : Showcase (The sound of Studio One in the 1970s) (16)
The Willows / Soul Jazz Records presents Studio One : Showcase (The sound of Studio One in the 1970s) (17)
Wailing Souls / Soul Jazz Records presents Studio One : Showcase (The sound of Studio One in the 1970s) (18)
––––––––––––––––––––––––––––––––––––––––

DR Peak RMS Duration Track
––––––––––––––––––––––––––––––––––––––––
DR11 -1.53 dB -14.35 dB 3:07 02-Right On Rasta
DR10 -1.63 dB -13.27 dB 2:40 09-Chucky Skank
DR9 -0.32 dB -10.23 dB 2:20 11-Stay With Me
DR9 -0.30 dB -10.66 dB 2:44 10-Bredda Labba Labba
DR10 -1.80 dB -12.57 dB 2:28 01-See a Man's Face
DR10 -0.47 dB -11.81 dB 2:09 16-Ain't No Love
DR10 -0.30 dB -11.21 dB 3:27 12-People a Watch Me
DR10 -0.30 dB -11.60 dB 8:20 08-Just Another Day
DR9 -0.30 dB -10.65 dB 2:58 15-Fish Tea
DR10 -1.34 dB -11.96 dB 5:35 05-Time to Be Happy
DR8 -1.55 dB -11.25 dB 3:20 04-What About Me
DR9 -0.39 dB -10.66 dB 3:58 03-Jah Dread
DR10 -0.30 dB -11.23 dB 2:45 07-Have No Fear
DR9 -0.33 dB -10.10 dB 7:32 18-Joy in the Morning
DR9 -0.81 dB -11.40 dB 3:42 13-Tribulation
DR9 -0.87 dB -11.12 dB 2:43 14-Hard to Confess
DR9 -0.30 dB -10.70 dB 6:03 17-Send Another Moses
DR10 -0.30 dB -11.66 dB 5:21 06-Stick Together
––––––––––––––––––––––––––––––––––––––––

Number of tracks: 18
Official DR value: DR9

Samplerate: 44100 Hz
Channels: 2
Bits per sample: 16
Bitrate: 507 kbps
Codec: FLAC
================================================================================

Thanks to original releaser

password: BlondStyle