Subcategories

Various Artists - This Is ... Eurovision (1997)

Posted By: JET 1
Various Artists - This Is ... Eurovision (1997)

Various Artists - This Is … Eurovision (1997)
EAC Rip | FLAC (Tracks) +CUE, LOG | 841 MB | Scans
Genre: Pop, Rock | Label: Virgin Records | Catalog Number: VTDCD142

Eurovision songs from the first contest in 1959 upto the date of the CDs release in 1997.

Exact Audio Copy V1.0 beta 3 from 29. August 2011

EAC extraction logfile from 28. December 2014, 2:48

Various Artists / This Is…Eurovision (Disc 1)

Used drive : Optiarc DVD RW AD-7280S Adapter: 3 ID: 0

Read mode : Secure
Utilize accurate stream : Yes
Defeat audio cache : Yes
Make use of C2 pointers : No

Read offset correction : 48
Overread into Lead-In and Lead-Out : No
Fill up missing offset samples with silence : Yes
Delete leading and trailing silent blocks : No
Null samples used in CRC calculations : Yes
Used interface : Native Win32 interface for Win NT & 2000
Gap handling : Appended to previous track

Used output format : User Defined Encoder
Selected bitrate : 768 kBit/s
Quality : High
Add ID3 tag : No
Command line compressor : C:\Program Files\Exact Audio Copy\Flac\flac.exe
Additional command line options : -V -8 -T "Genre=%genre%" -T "Artist=%artist%" -T "Title=%title%" -T "Album=%albumtitle%" -T "Date=%year%" -T "Tracknumber=%tracknr%" -T "Comment=%comment%" %source%


TOC of the extracted CD

Track | Start | Length | Start sector | End sector
––––––––––––––––––––––––––––-
1 | 0:00.32 | 3:08.30 | 32 | 14161
2 | 3:08.62 | 2:33.33 | 14162 | 25669
3 | 5:42.20 | 2:39.57 | 25670 | 37651
4 | 8:22.02 | 3:04.13 | 37652 | 51464
5 | 11:26.15 | 3:02.72 | 51465 | 65186
6 | 14:29.12 | 2:47.20 | 65187 | 77731
7 | 17:16.32 | 3:02.43 | 77732 | 91424
8 | 20:19.00 | 3:35.30 | 91425 | 107579
9 | 23:54.30 | 2:40.00 | 107580 | 119579
10 | 26:34.30 | 3:26.37 | 119580 | 135066
11 | 30:00.67 | 3:06.68 | 135067 | 149084
12 | 33:07.60 | 3:24.32 | 149085 | 164416
13 | 36:32.17 | 3:14.28 | 164417 | 178994
14 | 39:46.45 | 2:51.07 | 178995 | 191826
15 | 42:37.52 | 2:32.58 | 191827 | 203284
16 | 45:10.35 | 3:03.55 | 203285 | 217064
17 | 48:14.15 | 3:03.45 | 217065 | 230834
18 | 51:17.60 | 3:01.20 | 230835 | 244429
19 | 54:19.05 | 3:03.05 | 244430 | 258159
20 | 57:22.10 | 2:29.67 | 258160 | 269401


Track 1

Filename D:\CD\Various Artists - This Is … Eurovision (1997)\CD1\01. Celine Dion - Ne Partez Pas Sans Moi.wav

Pre-gap length 0:00:02.32

Peak level 98.8 %
Extraction speed 2.2 X
Track quality 100.0 %
Test CRC 94888785
Copy CRC 94888785
Accurately ripped (confidence 5) [2C058F8B] (AR v2)
Copy OK

Track 2

Filename D:\CD\Various Artists - This Is … Eurovision (1997)\CD1\02. Cliff Richard - Congratulations.wav

Pre-gap length 0:00:01.65

Peak level 96.9 %
Extraction speed 2.3 X
Track quality 100.0 %
Test CRC 7674BDF0
Copy CRC 7674BDF0
Accurately ripped (confidence 5) [FF2C80B3] (AR v2)
Copy OK

Track 3

Filename D:\CD\Various Artists - This Is … Eurovision (1997)\CD1\03. Bucks Fizz - Making Your Mind Up.wav

Pre-gap length 0:00:01.70

Peak level 96.6 %
Extraction speed 2.5 X
Track quality 100.0 %
Test CRC 4B06B8E8
Copy CRC 4B06B8E8
Accurately ripped (confidence 5) [475A5D03] (AR v2)
Copy OK

Track 4

Filename D:\CD\Various Artists - This Is … Eurovision (1997)\CD1\04. Brotherhood Of Man - Save Your Kisses For Me.wav

Pre-gap length 0:00:02.00

Peak level 96.7 %
Extraction speed 2.7 X
Track quality 100.0 %
Test CRC BCB449F5
Copy CRC BCB449F5
Accurately ripped (confidence 5) [344CD34C] (AR v2)
Copy OK

Track 5

Filename D:\CD\Various Artists - This Is … Eurovision (1997)\CD1\05. Johnny Logan - What's Another Year.wav

Pre-gap length 0:00:02.00

Peak level 96.8 %
Extraction speed 2.9 X
Track quality 100.0 %
Test CRC 6FBD88AC
Copy CRC 6FBD88AC
Accurately ripped (confidence 5) [C0DC542C] (AR v2)
Copy OK

Track 6

Filename D:\CD\Various Artists - This Is … Eurovision (1997)\CD1\06. The New Seekers - Beg, Steal Or Borrow.wav

Peak level 93.7 %
Extraction speed 3.0 X
Track quality 100.0 %
Test CRC 67B924B0
Copy CRC 67B924B0
Accurately ripped (confidence 5) [5067A2B6] (AR v2)
Copy OK

Track 7

Filename D:\CD\Various Artists - This Is … Eurovision (1997)\CD1\07. Nicole - A Little Peace (Ein Bisschen Frieden).wav

Pre-gap length 0:00:01.55

Peak level 98.8 %
Extraction speed 2.8 X
Track quality 99.9 %
Test CRC 939E1300
Copy CRC 939E1300
Accurately ripped (confidence 5) [AB6CBF33] (AR v2)
Copy OK

Track 8

Filename D:\CD\Various Artists - This Is … Eurovision (1997)\CD1\08. Vicky Leandros - Apres Toi.wav

Peak level 95.8 %
Extraction speed 3.4 X
Track quality 100.0 %
Test CRC D93736F8
Copy CRC D93736F8
Accurately ripped (confidence 5) [04B119D0] (AR v2)
Copy OK

Track 9

Filename D:\CD\Various Artists - This Is … Eurovision (1997)\CD1\09. Anne-Marie David - Tu Te Reconnaitras.wav

Pre-gap length 0:00:03.65

Peak level 95.8 %
Extraction speed 2.9 X
Track quality 99.9 %
Test CRC 6F53C540
Copy CRC 6F53C540
Accurately ripped (confidence 5) [632281EA] (AR v2)
Copy OK

Track 10

Filename D:\CD\Various Artists - This Is … Eurovision (1997)\CD1\10. Linda Martin - Why Me.wav

Pre-gap length 0:00:02.08

Peak level 98.8 %
Extraction speed 3.2 X
Track quality 99.9 %
Test CRC 5E9C6086
Copy CRC 5E9C6086
Accurately ripped (confidence 5) [7D51E196] (AR v2)
Copy OK

Track 11

Filename D:\CD\Various Artists - This Is … Eurovision (1997)\CD1\11. Sandra Kim - J'aime La Vie.wav

Pre-gap length 0:00:02.42

Peak level 96.4 %
Extraction speed 3.3 X
Track quality 99.9 %
Test CRC 0E806C1C
Copy CRC 0E806C1C
Accurately ripped (confidence 5) [1E55A98F] (AR v2)
Copy OK

Track 12

Filename D:\CD\Various Artists - This Is … Eurovision (1997)\CD1\12. Paul Harrington & Charlie McGettigan - Rock 'N' Roll Kids.wav

Pre-gap length 0:00:02.13

Peak level 96.7 %
Extraction speed 4.0 X
Track quality 100.0 %
Test CRC F2D2402D
Copy CRC F2D2402D
Accurately ripped (confidence 5) [E8B417F1] (AR v2)
Copy OK

Track 13

Filename D:\CD\Various Artists - This Is … Eurovision (1997)\CD1\13. Milk & Honey Feat. Gali Atari - Hallelujah.wav

Pre-gap length 0:00:01.57

Peak level 98.8 %
Extraction speed 4.1 X
Track quality 100.0 %
Test CRC 1D64316C
Copy CRC 1D64316C
Accurately ripped (confidence 5) [4B36A630] (AR v2)
Copy OK

Track 14

Filename D:\CD\Various Artists - This Is … Eurovision (1997)\CD1\14. Shadows - Let Me Be The One.wav

Pre-gap length 0:00:02.15

Peak level 98.8 %
Extraction speed 4.1 X
Track quality 100.0 %
Test CRC 1745986D
Copy CRC 1745986D
Accurately ripped (confidence 5) [48011031] (AR v2)
Copy OK

Track 15

Filename D:\CD\Various Artists - This Is … Eurovision (1997)\CD1\15. France Gall - Poupee De Cire, Poupee De Son.wav

Pre-gap length 0:00:02.05

Peak level 98.8 %
Extraction speed 4.1 X
Track quality 100.0 %
Test CRC 5ADEA7DB
Copy CRC 5ADEA7DB
Accurately ripped (confidence 5) [985CD9BA] (AR v2)
Copy OK

Track 16

Filename D:\CD\Various Artists - This Is … Eurovision (1997)\CD1\16. Eimaer Quinn - The Voice.wav

Pre-gap length 0:00:02.10

Peak level 98.8 %
Extraction speed 4.3 X
Track quality 100.0 %
Test CRC DB86888C
Copy CRC DB86888C
Accurately ripped (confidence 5) [F7CBA7FB] (AR v2)
Copy OK

Track 17

Filename D:\CD\Various Artists - This Is … Eurovision (1997)\CD1\17. Severine - Un Banc, Un Arbre, Une Rue.wav

Pre-gap length 0:00:02.10

Peak level 98.8 %
Extraction speed 3.8 X
Track quality 99.9 %
Test CRC 96FBE709
Copy CRC 96FBE709
Accurately ripped (confidence 5) [452A3144] (AR v2)
Copy OK

Track 18

Filename D:\CD\Various Artists - This Is … Eurovision (1997)\CD1\18. Belle & The Devotions - Love Games.wav

Pre-gap length 0:00:02.23

Peak level 98.8 %
Extraction speed 3.9 X
Track quality 99.9 %
Test CRC B5B03E15
Copy CRC B5B03E15
Accurately ripped (confidence 5) [68269120] (AR v2)
Copy OK

Track 19

Filename D:\CD\Various Artists - This Is … Eurovision (1997)\CD1\19. Clodagh Rodgers - Jack In The Box.wav

Pre-gap length 0:00:03.28

Peak level 97.1 %
Extraction speed 4.6 X
Track quality 100.0 %
Test CRC C5F4F574
Copy CRC C5F4F574
Accurately ripped (confidence 5) [570C7556] (AR v2)
Copy OK

Track 20

Filename D:\CD\Various Artists - This Is … Eurovision (1997)\CD1\20. Massiel - He Gives Me Love (La La La).wav

Pre-gap length 0:00:02.43

Peak level 98.8 %
Extraction speed 4.5 X
Track quality 100.0 %
Test CRC CB529446
Copy CRC CB529446
Accurately ripped (confidence 5) [55DC0147] (AR v2)
Copy OK


All tracks accurately ripped

No errors occurred

End of status report

==== Log checksum 3D5A7F28DC328FA4F99469825DA2889E49B8387B4DA1F5AAEFB4D5F00A6672DB ====

Exact Audio Copy V1.0 beta 3 from 29. August 2011

EAC extraction logfile from 28. December 2014, 20:13

Various Artists / This Is…Eurovision (Disc 2)

Used drive : Optiarc DVD RW AD-7280S Adapter: 3 ID: 0

Read mode : Secure
Utilize accurate stream : Yes
Defeat audio cache : Yes
Make use of C2 pointers : No

Read offset correction : 48
Overread into Lead-In and Lead-Out : No
Fill up missing offset samples with silence : Yes
Delete leading and trailing silent blocks : No
Null samples used in CRC calculations : Yes
Used interface : Native Win32 interface for Win NT & 2000
Gap handling : Appended to previous track

Used output format : User Defined Encoder
Selected bitrate : 768 kBit/s
Quality : High
Add ID3 tag : No
Command line compressor : C:\Program Files\Exact Audio Copy\Flac\flac.exe
Additional command line options : -V -8 -T "Genre=%genre%" -T "Artist=%artist%" -T "Title=%title%" -T "Album=%albumtitle%" -T "Date=%year%" -T "Tracknumber=%tracknr%" -T "Comment=%comment%" %source%


TOC of the extracted CD

Track | Start | Length | Start sector | End sector
––––––––––––––––––––––––––––-
1 | 0:00.32 | 3:04.13 | 32 | 13844
2 | 3:04.45 | 3:04.50 | 13845 | 27694
3 | 6:09.20 | 2:23.17 | 27695 | 38436
4 | 8:32.37 | 2:46.53 | 38437 | 50939
5 | 11:19.15 | 2:22.50 | 50940 | 61639
6 | 13:41.65 | 2:40.62 | 61640 | 73701
7 | 16:22.52 | 3:03.38 | 73702 | 87464
8 | 19:26.15 | 2:27.30 | 87465 | 98519
9 | 21:53.45 | 3:00.25 | 98520 | 112044
10 | 24:53.70 | 3:11.40 | 112045 | 126409
11 | 28:05.35 | 2:40.32 | 126410 | 138441
12 | 30:45.67 | 2:21.50 | 138442 | 149066
13 | 33:07.42 | 4:33.58 | 149067 | 169599
14 | 37:41.25 | 1:50.55 | 169600 | 177904
15 | 39:32.05 | 2:58.60 | 177905 | 191314
16 | 42:30.65 | 3:07.15 | 191315 | 205354
17 | 45:38.05 | 3:00.10 | 205355 | 218864
18 | 48:38.15 | 4:02.57 | 218865 | 237071
19 | 52:40.72 | 3:02.35 | 237072 | 250756


Track 1

Filename D:\CD\Various Artists - This Is … Eurovision (1997)\CD2\01. Cliff Richard - Power To All Our Friends.wav

Pre-gap length 0:00:02.32

Peak level 95.0 %
Extraction speed 2.3 X
Track quality 100.0 %
Test CRC 2DB1B94C
Copy CRC 2DB1B94C
Accurately ripped (confidence 3) [6BEE1F9F] (AR v2)
Copy OK

Track 2

Filename D:\CD\Various Artists - This Is … Eurovision (1997)\CD2\02. Johnny Logan - Hold Me Now.wav

Pre-gap length 0:00:01.60

Peak level 97.1 %
Extraction speed 2.5 X
Track quality 100.0 %
Test CRC 58E93CAB
Copy CRC 58E93CAB
Accurately ripped (confidence 3) [3ADAC640] (AR v2)
Copy OK

Track 3

Filename D:\CD\Various Artists - This Is … Eurovision (1997)\CD2\03. Sandie Shaw - Puppet On A String.wav

Pre-gap length 0:00:01.65

Peak level 93.8 %
Extraction speed 2.6 X
Track quality 100.0 %
Test CRC DA7379B5
Copy CRC DA7379B5
Accurately ripped (confidence 3) [273D56E2] (AR v2)
Copy OK

Track 4

Filename D:\CD\Various Artists - This Is … Eurovision (1997)\CD2\04. Olivia Newton-John - Long Live Love.wav

Pre-gap length 0:00:01.70

Peak level 96.5 %
Extraction speed 2.8 X
Track quality 100.0 %
Test CRC C5D542D7
Copy CRC C5D542D7
Accurately ripped (confidence 3) [3E153299] (AR v2)
Copy OK

Track 5

Filename D:\CD\Various Artists - This Is … Eurovision (1997)\CD2\05. Lulu - Boom Bang A Bang.wav

Pre-gap length 0:00:01.60

Peak level 96.5 %
Extraction speed 2.8 X
Track quality 100.0 %
Test CRC C9BD979F
Copy CRC C9BD979F
Accurately ripped (confidence 3) [D9E863BD] (AR v2)
Copy OK

Track 6

Filename D:\CD\Various Artists - This Is … Eurovision (1997)\CD2\06. Matt Monroe - I Love The Little Things.wav

Pre-gap length 0:00:01.65

Peak level 94.2 %
Extraction speed 3.0 X
Track quality 100.0 %
Test CRC C8A34C16
Copy CRC C8A34C16
Accurately ripped (confidence 3) [91379BC0] (AR v2)
Copy OK

Track 7

Filename D:\CD\Various Artists - This Is … Eurovision (1997)\CD2\07. Dana - All Kinds Of Everything.wav

Pre-gap length 0:00:02.10

Peak level 96.5 %
Extraction speed 3.2 X
Track quality 100.0 %
Test CRC D5B114BB
Copy CRC D5B114BB
Accurately ripped (confidence 3) [7A545BC4] (AR v2)
Copy OK

Track 8

Filename D:\CD\Various Artists - This Is … Eurovision (1997)\CD2\08. Teach-In - Ding A Dong.wav

Pre-gap length 0:00:01.63

Peak level 95.5 %
Extraction speed 2.7 X
Track quality 99.9 %
Test CRC 7BA4E4C4
Copy CRC 7BA4E4C4
Accurately ripped (confidence 3) [DB3F4DEB] (AR v2)
Copy OK

Track 9

Filename D:\CD\Various Artists - This Is … Eurovision (1997)\CD2\09. Izhar Cohen & Alphabeta - A Bi Ni Bi.wav

Pre-gap length 0:00:01.65

Peak level 98.8 %
Extraction speed 3.5 X
Track quality 100.0 %
Test CRC FF3EC791
Copy CRC FF3EC791
Accurately ripped (confidence 3) [06D2E7AD] (AR v2)
Copy OK

Track 10

Filename D:\CD\Various Artists - This Is … Eurovision (1997)\CD2\10. Niamh Kavanagh - In Your Eyes.wav

Pre-gap length 0:00:01.65

Peak level 96.4 %
Extraction speed 3.2 X
Track quality 99.9 %
Test CRC E425CF68
Copy CRC E425CF68
Accurately ripped (confidence 3) [AE1019AE] (AR v2)
Copy OK

Track 11

Filename D:\CD\Various Artists - This Is … Eurovision (1997)\CD2\11. Co Co - Bad Old Days.wav

Pre-gap length 0:00:02.08

Peak level 98.8 %
Extraction speed 3.7 X
Track quality 100.0 %
Test CRC 0B59994E
Copy CRC 0B59994E
Accurately ripped (confidence 3) [BAE32288] (AR v2)
Copy OK

Track 12

Filename D:\CD\Various Artists - This Is … Eurovision (1997)\CD2\12. Kathy Kirby - I Belong.wav

Pre-gap length 0:00:01.62

Peak level 76.9 %
Extraction speed 3.7 X
Track quality 100.0 %
Test CRC BEA81A48
Copy CRC BEA81A48
Accurately ripped (confidence 3) [2ACC37E0] (AR v2)
Copy OK

Track 13

Filename D:\CD\Various Artists - This Is … Eurovision (1997)\CD2\13. Baccara - Parlez Vous Francais.wav

Pre-gap length 0:00:02.00

Peak level 92.8 %
Extraction speed 4.2 X
Track quality 100.0 %
Test CRC 50C463B9
Copy CRC 50C463B9
Accurately ripped (confidence 3) [63214DCC] (AR v2)
Copy OK

Track 14

Filename D:\CD\Various Artists - This Is … Eurovision (1997)\CD2\14. Pearl Carr & Teddy Johnson - Sing Little Birdie.wav

Pre-gap length 0:00:01.65

Peak level 93.2 %
Extraction speed 3.7 X
Track quality 100.0 %
Test CRC C292B795
Copy CRC C292B795
Accurately ripped (confidence 3) [273C5BE4] (AR v2)
Copy OK

Track 15

Filename D:\CD\Various Artists - This Is … Eurovision (1997)\CD2\15. Samantha Janus - Message To Your Heart.wav

Pre-gap length 0:00:02.03

Peak level 96.2 %
Extraction speed 4.2 X
Track quality 100.0 %
Test CRC 643EFE2A
Copy CRC 643EFE2A
Accurately ripped (confidence 3) [8AA5F83F] (AR v2)
Copy OK

Track 16

Filename D:\CD\Various Artists - This Is … Eurovision (1997)\CD2\16. Marie Myriam - L'Oiseau Et L'Enfant.wav

Pre-gap length 0:00:01.58

Peak level 98.8 %
Extraction speed 3.7 X
Track quality 99.9 %
Test CRC 90FF2BDE
Copy CRC 90FF2BDE
Accurately ripped (confidence 3) [E70604EB] (AR v2)
Copy OK

Track 17

Filename D:\CD\Various Artists - This Is … Eurovision (1997)\CD2\17. Lynsey De Paul & Mike Moran - Rock Bottom.wav

Pre-gap length 0:00:01.53

Peak level 91.4 %
Extraction speed 4.4 X
Track quality 100.0 %
Test CRC FFFB5106
Copy CRC FFFB5106
Accurately ripped (confidence 3) [C667130D] (AR v2)
Copy OK

Track 18

Filename D:\CD\Various Artists - This Is … Eurovision (1997)\CD2\18. Frances Ruffelle - Lonely Symphony.wav

Pre-gap length 0:00:00.35

Peak level 96.3 %
Extraction speed 4.7 X
Track quality 100.0 %
Test CRC 7905B1E5
Copy CRC 7905B1E5
Accurately ripped (confidence 3) [74F54F43] (AR v2)
Copy OK

Track 19

Filename D:\CD\Various Artists - This Is … Eurovision (1997)\CD2\19. Bardo - One Step Further.wav

Pre-gap length 0:00:01.72

Peak level 98.8 %
Extraction speed 4.6 X
Track quality 100.0 %
Test CRC 28313EC9
Copy CRC 28313EC9
Accurately ripped (confidence 3) [7523982B] (AR v2)
Copy OK


All tracks accurately ripped

No errors occurred

End of status report

==== Log checksum BC02C051A0AFC9D48D1ED677674B8292A80BC2C66D038CFBC65A10D9E9425EF2 ====

Tracklist ::
CD1
1 Celine Dion - Ne Partez Pas Sans Moi
2 Cliff Richard - Congratulations
3 Bucks Fizz - Making Your Mind Up
4 Brotherhood Of Man - Save Your Kisses For Me
5 Johnny Logan - What's Another Year
6 The New Seekers - Beg, Steal Or Borrow
7 Nicole - A Little Peace (Ein Bisschen Frieden)
8 Vicky Leandros - Apres Toi
9 Anne-Marie David - Tu Te Reconnaitras
10 Linda Martin - Why Me?
11 Sandra Kim - J'aime La Vie
12 Paul Harrington & Charlie McGettigan - Rock N' Roll Kids
13 Milk & Honey Feat. Gali Atari - Hallelujah
14 Shadows - Let Me Be The One
15 France Gall - Poupee De Cire, Poupee De Son
16 Eimaer Quinn - The Voice
17 Severine - Un Banc, Un Abre, Une Rue
18 Belle & The Devotions - Love Games
19 Clodagh Rodgers - Jack In The Box
20 Massiel - He Gives Me Love (La La La)

CD2
1 Cliff Richard - Power To All Our Friends
2 Johnny Logan - Hold Me Now
3 Sandie Shaw - Puppet On A String
4 Olivia Newton-John - Long Live Love
5 Lulu - Boom Bang A Bang
6 Matt Monro - I Love The Little Things
7 Dana - All Kinds Of Everything
8 Teach-Inn - Ding A Dong
9 Izhar Cohen & Alphabeta - A Bi Ni Bi
10 Niamh Kavanagh - In Your Eyes
11 Co Co - Bad Old Days
12 Kathy Kirby - I Belong
13 Baccara - Parlez Vous Francais
14 Teddy Johnson & Pearl Carr - Sing Little Birdie
15 Samantha Janus - A Message To Your Heart
16 Marie Myriam - L'Oiseau Et L'Enfant
17 Lynsey De Paul & Mike Moran - Rock Bottom
18 Frances Ruffelle - Lonely Symphony
19 Bardo - One Step Further

Thanks to Original Releaser.