Tags
Language
Tags

Yannick Nezet-Seguin, The Metropolitan Opera Orchestra - Verdi: Otello [2016]

Posted By:
Yannick Nezet-Seguin, The Metropolitan Opera Orchestra - Verdi: Otello [2016]

Verdi - Otello (Yannick Nézet-Séguin, Aleksandrs Antonenko, Sonya Yoncheva) (2016) [Blu-Ray]
BluRay | BDMV | MPEG-4 AVC Video / 1080i / 29,970 fps | 153 min | 42,0 Gb
Audio1: Italiano / LPCM Audio / 2.0 / 24-bit | Audio2: DTS-HD Master Audio / 5.1 / 48 kHz / 24-bit
––––––
BluRay-rip | AVC | MKV 1920x1080 / 6215 kbps / 29,97 fps | 153 min | 8,28 Gb
Audio: Italiano / DTS / 6ch / 48.0 KHz / 24 bits
Classical | Sony | Sub: Italian, English, German, French

Directed by the Tony Award winning and six time MET director, Bartlett Sher, this lavish production of Verdi's operatic masterpiece Otello features one of the most exciting young opera singers of her generation, Sonya Yoncheva, and the Metropolitan Opera & Chorus, conducted by their new director Yannick Nézet-Séguin.

Cast:
Otello: Aleksandrs Antonenko
Desdemona: Sonya Yoncheva
Iago: Željko Lučić
Cassio: Dimitri Pittas
Emilia: Jennifer Johnson Cano
Roderigo: Chad Shelton
Lodovico: Günther Groissböck
Montano: Jeff Mattsey
A herold: Tyler Duncan
The Metropolitan Opera Orchestra, Chorus and Ballet
Conductor - Yannick Nézet-Séguin


Disc Title: VERDI_OTELLO
Disc Size: 45 144 395 189 bytes
Protection: AACS
BD-Java: No
Playlist: 00002.MPLS
Size: 3 034 122 240 bytes
Length: 0:11:27.820
Total Bitrate: 35,29 Mbps
Video: MPEG-4 AVC Video / 28013 kbps / 1080i / 29,970 fps / 16:9 / High Profile 4.1
Audio: English / LPCM Audio / 2.0 / 48 kHz / 2304 kbps / 24-bit
Audio: English / DTS-HD Master Audio / 5.1 / 48 kHz / 2940 kbps / 24-bit (DTS Core: 5.1 / 48 kHz / 1509 kbps / 24-bit)
Subtitle: Italian / 56,010 kbps
Subtitle: English / 8,639 kbps
Subtitle: German / 61,011 kbps
Subtitle: French / 54,297 kbps


General
Unique ID : 251220256284631900308034263784819725194 (0xBCFF42EC85526A6BA822F35458A7138A)
Complete name : C:\Verdi_Otello.mkv
Format : Matroska
Format version : Version 2
File size : 8.29 GiB
Duration : 2h 32mn
Overall bit rate : 7 769 Kbps
Movie name : Verdi_Otello
Encoded date : UTC 2017-07-20 18:12:11
Writing application : DVDFab 9.1.6.8
Writing library : libebml v0.7.8 + libmatroska v0.8.1

Video
ID : 1
Format : AVC
Format/Info : Advanced Video Codec
Format profile : High@L4.1
Format settings, CABAC : Yes
Format settings, ReFrames : 2 frames
Codec ID : V_MPEG4/ISO/AVC
Duration : 2h 32mn
Bit rate : 6 215 Kbps
Width : 1 920 pixels
Height : 1 080 pixels
Display aspect ratio : 16:9
Frame rate mode : Constant
Frame rate : 29.970 fps
Color space : YUV
Chroma subsampling : 4:2:0
Bit depth : 8 bits
Scan type : Progressive
Bits/(Pixel*Frame) : 0.100
Stream size : 6.51 GiB (79%)
Writing library : x264 core 142
Encoding settings : cabac=1 / ref=1 / deblock=1:-1:-1 / analyse=0x3:0 / me=hex / subme=5 / psy=0 / mixed_ref=0 / me_range=16 / chroma_me=1 / trellis=0 / 8x8dct=1 / cqm=0 / deadzone=21,11 / fast_pskip=1 / chroma_qp_offset=0 / threads=8 / lookahead_threads=2 / sliced_threads=0 / nr=0 / decimate=1 / interlaced=0 / bluray_compat=0 / constrained_intra=0 / bframes=2 / b_pyramid=0 / b_adapt=1 / b_bias=0 / direct=1 / weightb=1 / open_gop=0 / weightp=0 / keyint=24 / keyint_min=13 / scenecut=40 / intra_refresh=0 / rc=abr / mbtree=0 / bitrate=6215 / ratetol=1.0 / qcomp=0.60 / qpmin=0 / qpmax=69 / qpstep=4 / ip_ratio=1.40 / pb_ratio=1.30 / aq=1:1.00
Default : Yes
Forced : No
Color primaries : BT.709
Transfer characteristics : BT.709
Matrix coefficients : BT.709
Color range : Limited

Audio
ID : 2
Format : DTS
Format/Info : Digital Theater Systems
Mode : 16
Format settings, Endianness : Big
Codec ID : A_DTS
Duration : 2h 32mn
Bit rate mode : Constant
Bit rate : 1 509 Kbps
Channel(s) : 6 channels
Channel positions : Front: L C R, Side: L R, LFE
Sampling rate : 48.0 KHz
Bit depth : 24 bits
Compression mode : Lossy
Stream size : 1.61 GiB (19%)
Language : Italian
Default : Yes
Forced : No

Text #1
ID : 3
Format : VobSub
Codec ID : S_VOBSUB
Codec ID/Info : The same subtitle format used on DVDs
Language : Italian
Default : Yes
Forced : No

Text #2
ID : 4
Format : VobSub
Codec ID : S_VOBSUB
Codec ID/Info : The same subtitle format used on DVDs
Language : English
Default : No
Forced : No

Text #3
ID : 5
Format : VobSub
Codec ID : S_VOBSUB
Codec ID/Info : The same subtitle format used on DVDs
Language : German
Default : No
Forced : No

Text #4
ID : 6
Format : VobSub
Codec ID : S_VOBSUB
Codec ID/Info : The same subtitle format used on DVDs
Language : French
Default : No
Forced : No

Menu
00:00:00.000 : en:Chapter 01
00:00:50.050 : en:Chapter 02
00:03:20.233 : en:Chapter 03
00:07:27.346 : en:Chapter 04
00:09:49.388 : en:Chapter 05
00:12:38.023 : en:Chapter 06
00:15:27.826 : en:Chapter 07
00:17:06.558 : en:Chapter 08
00:20:56.321 : en:Chapter 09
00:25:28.660 : en:Chapter 10
00:36:01.025 : en:Chapter 11
00:38:31.976 : en:Chapter 12
00:44:54.692 : en:Chapter 13
00:50:28.925 : en:Chapter 14
00:54:36.339 : en:Chapter 15
01:00:33.363 : en:Chapter 16
01:05:02.899 : en:Chapter 17
01:09:50.619 : en:Chapter 18
01:12:29.011 : en:Chapter 19
01:13:17.393 : en:Chapter 20
01:16:03.926 : en:Chapter 21
01:21:05.126 : en:Chapter 22
01:26:35.623 : en:Chapter 23
01:31:21.609 : en:Chapter 24
01:36:25.713 : en:Chapter 25
01:38:45.719 : en:Chapter 26
01:43:42.149 : en:Chapter 27
01:50:28.154 : en:Chapter 28
01:53:03.710 : en:Chapter 29
01:58:23.696 : en:Chapter 30
02:06:16.101 : en:Chapter 31
02:11:13.999 : en:Chapter 32
02:17:48.526 : en:Chapter 33
02:21:23.641 : en:Chapter 34
02:27:43.487 : en:Chapter 35


All screenshots taken from BDRip

Yannick Nezet-Seguin, The Metropolitan Opera Orchestra - Verdi: Otello [2016]