Tags
Language
Tags

Vittorio Ghielmi, Luca Pianca, Il Suonar Parlante Orchestra - Le Secret de Monsieur Marais (2020)

Posted By: ArlegZ
Vittorio Ghielmi, Luca Pianca, Il Suonar Parlante Orchestra - Le Secret de Monsieur Marais (2020)

Vittorio Ghielmi, Luca Pianca, Il Suonar Parlante Orchestra - Le Secret de Monsieur Marais (2020)
EAC | FLAC | Image (Cue & Log) ~ 352 Mb | Total time: 68:55 | Scans included
Classical | Label: Alpha | # ALPHA 453 | Recorded: 2019

Between 1680 and 1728, Marin Marais brought the pièce de viole to the peak of perfection. An ‘unremitting’ teacher, he was also the publisher of his own music and invented special signs to notate certain ornaments for the viol. In the course of his research at the Salzburg Mozarteum, the Italian gambist Vittorio Ghielmi studied these manuscript codes, in the hand of Marais himself or his direct students. ‘This led me to a new vision of French Baroque music, which applies not only to the viola da gamba, but also to vocal and orchestral music. These signs reveal the technique of playing in action. Contrary to the static descriptions of the treatises of the time, one has the impression of seeing didactic “videos”.’ This album, entirely devoted to the music of Marais, alternates récits for solo viola with orchestral pieces, all of them reinterpreted in the light of the new discovery of Monsieur Marais’s ‘codes’. In addition to Parisian viols of the time, Vittorio Ghielmi owns an instrument by the famous luthier Michel Colichon (a friend of Marais’s teacher Sainte-Colombe), made in Paris in 1688. Only two of the five surviving viols by Colichon are still in playable condition.

Performer:
Vittorio Ghielmi, viola da gamba
Luca Pianca, archlute & theorbo
Il Suonar Parlante Orchestra

Track List:
Marin Marais (1656-1728)
01. Tempeste
02. Les Voix Humaines
03-06. Petite Suite des Matelots
07. Rondeau le Bijou
08. Badinage
09. Gigue
10. La Siamoise
11. La Polonaise
12. Sarabande la désoléee
13. Allemande. La Marianne
14. Sarabande
15. Les Regrets
16. Ouverture pour servir d'entr'acte
17. Prélude
18. Sujet. Diversitez
19. Simphonie du Sommeil
20. Marche pour les Pastres
21. Ballet en Rondeau


Exact Audio Copy V1.5 from 20. February 2020

EAC extraction logfile from 23. February 2021, 21:16

Luca Pianca, Il Suonar Parlante Orchestra, Vittorio Ghielmi / Le Secret de Monsieur Marais

Used drive : ASUS SDRW-08U7M-U Adapter: 1 ID: 0

Read mode : Secure
Utilize accurate stream : Yes
Defeat audio cache : Yes
Make use of C2 pointers : No

Read offset correction : 6
Overread into Lead-In and Lead-Out : No
Fill up missing offset samples with silence : Yes
Delete leading and trailing silent blocks : No
Null samples used in CRC calculations : Yes
Used interface : Native Win32 interface for Win NT & 2000

Used output format : User Defined Encoder
Selected bitrate : 128 kBit/s
Quality : High
Add ID3 tag : No
Command line compressor : C:\Program Files (x86)\Exact Audio Copy\Flac\flac.exe
Additional command line options : -V -8 -T "Date=%year%" -T "Genre=%genre%" %source%


TOC of the extracted CD

Track | Start | Length | Start sector | End sector
––––––––––––––––––––––––––––-
1 | 0:00.00 | 2:28.04 | 0 | 11103
2 | 2:28.04 | 4:01.63 | 11104 | 29241
3 | 6:29.67 | 0:48.18 | 29242 | 32859
4 | 7:18.10 | 0:35.08 | 32860 | 35492
5 | 7:53.18 | 0:42.71 | 35493 | 38713
6 | 8:36.14 | 0:33.66 | 38714 | 41254
7 | 9:10.05 | 3:26.44 | 41255 | 56748
8 | 12:36.49 | 5:05.01 | 56749 | 79624
9 | 17:41.50 | 1:06.70 | 79625 | 84644
10 | 18:48.45 | 4:28.50 | 84645 | 104794
11 | 23:17.20 | 1:34.23 | 104795 | 111867
12 | 24:51.43 | 2:58.64 | 111868 | 125281
13 | 27:50.32 | 3:03.56 | 125282 | 139062
14 | 30:54.13 | 2:35.02 | 139063 | 150689
15 | 33:29.15 | 3:20.29 | 150690 | 165718
16 | 36:49.44 | 3:43.51 | 165719 | 182494
17 | 40:33.20 | 5:18.08 | 182495 | 206352
18 | 45:51.28 | 13:14.02 | 206353 | 265904
19 | 59:05.30 | 2:19.39 | 265905 | 276368
20 | 61:24.69 | 1:50.54 | 276369 | 284672
21 | 63:15.48 | 4:34.00 | 284673 | 305222


Range status and errors

Selected range

Filename C:\temp\Alpha 453 - Le Secret de Monsieur Marais - 2020\Le Secret de Monsieur Marais.wav

Peak level 98.8 %
Extraction speed 4.6 X
Range quality 99.9 %
Test CRC 7B21BD20
Copy CRC 7B21BD20
Copy OK

No errors occurred


AccurateRip summary

Track 1 accurately ripped (confidence 3) [46F46C3D] (AR v2)
Track 2 accurately ripped (confidence 3) [F7FA63CE] (AR v2)
Track 3 accurately ripped (confidence 3) [2F65B052] (AR v2)
Track 4 accurately ripped (confidence 3) [839E047E] (AR v2)
Track 5 accurately ripped (confidence 3) [B299402E] (AR v2)
Track 6 accurately ripped (confidence 3) [092A115A] (AR v2)
Track 7 accurately ripped (confidence 3) [157E5276] (AR v2)
Track 8 accurately ripped (confidence 3) [BEFCDC19] (AR v2)
Track 9 accurately ripped (confidence 3) [C9908185] (AR v2)
Track 10 accurately ripped (confidence 3) [7A64B37B] (AR v2)
Track 11 accurately ripped (confidence 3) [00F3A87B] (AR v2)
Track 12 accurately ripped (confidence 3) [4E65CE9E] (AR v2)
Track 13 accurately ripped (confidence 3) [897171A0] (AR v2)
Track 14 accurately ripped (confidence 3) [D756DBB4] (AR v2)
Track 15 accurately ripped (confidence 3) [EC178862] (AR v2)
Track 16 accurately ripped (confidence 3) [22944337] (AR v2)
Track 17 accurately ripped (confidence 3) [720D619D] (AR v2)
Track 18 accurately ripped (confidence 3) [02781B5B] (AR v2)
Track 19 accurately ripped (confidence 3) [09D7E560] (AR v2)
Track 20 accurately ripped (confidence 3) [1CAB8AAC] (AR v2)
Track 21 accurately ripped (confidence 2) [D35330F9] (AR v2)

All tracks accurately ripped

End of status report

==== Log checksum 71D606F64C6F52B65BCE3CD58D993F88C863C72620D33C2B9D6047C3A6CB1AC4 ====

Vittorio Ghielmi, Luca Pianca, Il Suonar Parlante Orchestra - Le Secret de Monsieur Marais (2020)

Thanks to the original releaser