Subcategories
Tags
Language
Tags

Vivaldi - Yepes - Lute Concertos (1972, 1990, Deutsche Grammophon # 429 528-2) [RE-UP]

Posted By: luckburz
Vivaldi - Yepes - Lute Concertos (1972, 1990, Deutsche Grammophon # 429 528-2) [RE-UP]

Antonio Vivaldi - Lute (Guitar) Concertos; Mandolin Concertos (Repost)
Narciso Yepes / Monique Frasca-Colombier / Takashi Ochi / Sylvia Ochi / Paul Kuentz Chamber Orchestra
EAC+LOG+CUE | FLAC: 380 MB | Full Artwork | 5% Recovery Info
Label/Cat#: Deutsche Grammophon # 429 528-2 | Country/Year: Germany 1990, 1972
Genre: Classical | Style: Baroque

MD5 [X] CUE [X] LOG [X] INFO TEXT [X] ARTWORK [X]

my rip [X] not my rip [ ]

Vivaldi - Yepes - Lute Concertos (1972, 1990, Deutsche Grammophon # 429 528-2) [RE-UP]

Vivaldi - Yepes - Lute Concertos (1972, 1990, Deutsche Grammophon # 429 528-2) [RE-UP]



Exact Audio Copy V1.0 beta 2 from 29. April 2011

EAC extraction logfile from 23. May 2012, 18:08

Narciso Yepes, Takashi & Silvia Ochi / Lute Concertos - Mandolin Concertos

Used drive : PIONEER BD-RW BDR-206 Adapter: 2 ID: 3

Read mode : Secure
Utilize accurate stream : Yes
Defeat audio cache : Yes
Make use of C2 pointers : No

Read offset correction : 667
Overread into Lead-In and Lead-Out : No
Fill up missing offset samples with silence : Yes
Delete leading and trailing silent blocks : No
Null samples used in CRC calculations : Yes
Used interface : Native Win32 interface for Win NT & 2000

Used output format : User Defined Encoder
Selected bitrate : 896 kBit/s
Quality : High
Add ID3 tag : No
Command line compressor : C:\Program Files\FLAC\flac.exe
Additional command line options : -5 -T "Artist=%artist%" -T "Title=%title%" -T "Album=%albumtitle%" -T "Date=%year%" -T "Tracknumber=%tracknr%" -T "Genre=%genre%" %source% -o %dest%


TOC of the extracted CD

Track | Start | Length | Start sector | End sector
––––––––––––––––––––––––––––-
1 | 0:00.33 | 3:39.05 | 33 | 16462
2 | 3:39.38 | 4:55.50 | 16463 | 38637
3 | 8:35.13 | 2:35.50 | 38638 | 50312
4 | 11:10.63 | 5:34.45 | 50313 | 75407
5 | 16:45.33 | 4:14.15 | 75408 | 94472
6 | 20:59.48 | 3:27.10 | 94473 | 110007
7 | 24:26.58 | 2:44.32 | 110008 | 122339
8 | 27:11.15 | 3:07.53 | 122340 | 136417
9 | 30:18.68 | 2:16.55 | 136418 | 146672
10 | 32:35.48 | 4:06.12 | 146673 | 165134
11 | 36:41.60 | 3:20.18 | 165135 | 180152
12 | 40:02.03 | 3:54.57 | 180153 | 197759
13 | 43:56.60 | 4:29.35 | 197760 | 217969
14 | 48:26.20 | 2:20.30 | 217970 | 228499
15 | 50:46.50 | 3:06.28 | 228500 | 242477


Range status and errors

Selected range

Filename I:\=== VINYL RIPS ===\=== EAC===\X FRESH RIP\Vivaldi - Yepes, Ochi - Lute Concertos - Mandolin Concertos.wav

Peak level 99.1 %
Extraction speed 1.7 X
Range quality 99.9 %
Test CRC EFBCE434
Copy CRC EFBCE434
Copy OK

No errors occurred


AccurateRip summary

Track 1 accurately ripped (confidence 6) [1B5A9938] (AR v2)
Track 2 accurately ripped (confidence 6) [773465A7] (AR v2)
Track 3 accurately ripped (confidence 6) [46430D7B] (AR v2)
Track 4 accurately ripped (confidence 6) [A970B9C4] (AR v2)
Track 5 accurately ripped (confidence 6) [D21629D2] (AR v2)
Track 6 accurately ripped (confidence 6) [21D7DA49] (AR v2)
Track 7 accurately ripped (confidence 6) [16E0A353] (AR v2)
Track 8 accurately ripped (confidence 6) [DA1F5F3B] (AR v2)
Track 9 accurately ripped (confidence 6) [F92B59C2] (AR v2)
Track 10 accurately ripped (confidence 6) [77805A50] (AR v2)
Track 11 accurately ripped (confidence 6) [09DCD83A] (AR v2)
Track 12 accurately ripped (confidence 6) [3E555FBC] (AR v2)
Track 13 accurately ripped (confidence 6) [521F3E0D] (AR v2)
Track 14 accurately ripped (confidence 6) [CCF036E3] (AR v2)
Track 15 accurately ripped (confidence 6) [D8310608] (AR v2)

All tracks accurately ripped

End of status report

==== Log checksum 97A19B116DE4F433AA4A2CAFFEB253D35003874FAE8190F8CEB0B93073B0E537 ====


foobar2000 1.1.7 / Dynamic Range Meter 1.1.1
log date: 2012-05-29 19:21:19

––––––––––––––––––––––––––––––––––––––––
Analyzed: Narciso Yepes, Takashi & Silvia Ochi / Lute Concertos - Mandolin Concertos
––––––––––––––––––––––––––––––––––––––––

DR Peak RMS Duration Track
––––––––––––––––––––––––––––––––––––––––
DR13 -1.28 dB -18.65 dB 3:39 01-Concerto RV93 (Laute) - 1. Allegro Guisto
DR12 -6.23 dB -21.64 dB 4:56 02-Concerto RV93 (Laute) - 2. Largo
DR11 -1.52 dB -16.47 dB 2:36 03-Concerto RV93 (Laute) - 3. Allegro
DR11 -1.57 dB -17.96 dB 5:35 04-Concerto RV540 (Laute) - 1. Allegro
DR12 -11.07 dB -26.04 dB 4:14 05-Concerto RV540 (Laute) - 2. Largo
DR11 -1.74 dB -17.81 dB 3:27 06-Concerto RV540 (Laute) - 3. Allegro
DR15 -3.42 dB -22.04 dB 2:44 07-Concerto RV425 (Mandoline) - 1. Allegro
DR16 -7.80 dB -26.76 dB 3:08 08-Concerto RV425 (Mandoline) - 2. Largo
DR15 -5.74 dB -23.74 dB 2:17 09-Concerto RV425 (Mandoline) - 3. Allegro
DR13 -3.37 dB -21.05 dB 4:06 10-Concerto RV532 (Mandoline) - 1. Allegro
DR16 -15.17 dB -35.16 dB 3:20 11-Concerto RV532 (Mandoline) - 2. Andante
DR13 -2.64 dB -20.91 dB 3:55 12-Concerto RV532 (Mandoline) - 3. Allegro
DR12 -0.08 dB -17.30 dB 4:29 13-Concerto continuo - 1. Allegro Molto
DR12 -5.27 dB -21.96 dB 2:20 14-Concerto continuo - 2. Andante Molto
DR12 -3.54 dB -20.59 dB 3:06 15-Concerto continuo - 3. Allegro
––––––––––––––––––––––––––––––––––––––––

Number of tracks: 15
Official DR value: DR13

Samplerate: 44100 Hz
Channels: 2
Bits per sample: 16
Bitrate: 627 kbps
Codec: FLAC
================================================================================



CD Info:

Antonio Vivaldi - Narciso Yepes / Monique Frasca-Colombier / Takashi Ochi / Sylvia Ochi / Paul Kuentz Chamber Orchestra - Lute (Guitar) Concertos; Mandolin Concertos

Label: Deutsche Grammophon
Catalog#: 429 528-2
Format: CD, Album, Remastered
Country: Europe
Released: 1990, 1972
Genre: Classical
Style: Baroque

Tracklist:

1. Concerto For Lute, 2 Violins And Continuo In D, RV.93 - 1. (Allegro Giusto) Narciso Yepes 3:35
2. Concerto For Lute, 2 Violins And Continuo In D, RV.93 - 2. Largo Narciso Yepes 4:52
3. Concerto For Lute, 2 Violins And Continuo In D, RV.93 - 3. Allegro Narciso Yepes 2:28
4. Concerto For Viola D'amore, Lute, Strings And Continuo In D Minor , RV.540 - Arr. For Guitar Malpiero - 1. Allegro Monique Frasca-Colombier 5:30
5. Concerto For Viola D'amore, Lute, Strings And Continuo In D Minor , RV.540 - Arr. For Guitar Malpiero - 2. Largo Monique Frasca-Colombier 4:10
6. Concerto For Viola D'amore, Lute, Strings And Continuo In D Minor , RV.540 - Arr. For Guitar Malpiero - 3. Allegro Monique Frasca-Colombier 3:23
7. Mandolin Concerto In C, R.425 - 1. Allegro Takashi Ochi 2:41
8. Mandolin Concerto In C, R.425 - 2. Largo Takashi Ochi 3:04
9. Mandolin Concerto In C, R.425 - 3. (Allegro) Takashi Ochi 2:09
10. Concerto For 2 Mandolins, Strings And Continuo In G, R.532 - 1. Allegro Takashi Ochi 4:02
11. Concerto For 2 Mandolins, Strings And Continuo In G, R.532 - 2. Andante Takashi Ochi 3:17
12. Concerto For 2 Mandolins, Strings And Continuo In G, R.532 - 3. Allegro Takashi Ochi 3:47
13. Concerto In C, R.558 - ''Con Molti Stromenti'' - 1. Allegro Molto Orchestre de Chambre Paul Kuentz 4:25
14. Concerto In C, R.558 - ''Con Molti Stromenti'' - 2. Andante Molto Orchestre de Chambre Paul Kuentz 2:17
15. Concerto In C, R.558 - ''Con Molti Stromenti'' - 3. Allegro Orchestre de Chambre Paul Kuentz 3:06

Vivaldi - Yepes - Lute Concertos (1972, 1990, Deutsche Grammophon # 429 528-2) [RE-UP]


Narciso Yepes was one of the finest virtuoso classical guitarists of the twentieth century, generally ranked second after Andrés Segovia. Despite a strong interest in music from the Baroque period, his overwhelming preference was for the serious compositions of Spanish composers from the early twentieth century, though he also showed interest in flamenco music. He displayed a special fondness for the works of Joaquín Rodrigo and was instrumental in the rediscovery of many previously neglected Baroque compositions. He also achieved distinction as a composer, especially in the realm of film music. allmusicguide