Tags
Language
Tags

Vladimir Spivakov, English Chamber Orchestra - Mozart: Violin Concertos, Sinfonia Concertante (2005)

Posted By: ArlegZ
Vladimir Spivakov, English Chamber Orchestra - Mozart: Violin Concertos, Sinfonia Concertante (2005)

Vladimir Spivakov, English Chamber Orchestra - Mozart: Violin Concertos, Sinfonia Concertante (2005)
EAC | FLAC | Image (Cue & Log) ~ 735 Mb | Total time: 76:16+79:20 | Scans included
Classical | Label: EMI | # 5 86528 2 | Recorded: 1977, 1979, 1983

The answer to the question what would post-Oistrakh Soviet Mozart sound like? is Vladimir Spivakov. The answer to the question what does Spivakov's Mozart sound like? is lightly, lively, elegant, and, every once in a while, extremely intense. In these recordings from the late '70s and early '80s of Mozart's violin concertos and Sinfonia Concertante with the English Chamber Orchestra and violist Yuri Bashmet, Spivakov plays and conducts with graceful artistry, consummate virtuosity, and deep humanity. In opening Allegros, Spivakov is airborne in the zephyrs of spring. In the closing Rondos, Spivakov is dancing in the ballrooms of Europe. But sometimes, especially in the central Andantes, Spivakov can sing with an intimacy and intensity that reveal a more profound Mozart, a Mozart touched not only by eternity but by mortality. In the central Andante of the Sinfonia Concertante with the soulful Yuri Bashmet, Spivakov proves he is not only the best of the post-Oistrakh Soviet violinists, but also one of the most moving violinists of the past 30 years.
–James Leonard

Performer:
Vladimir Spivakov, violin
Yuri Bashmet, alto (cd1: 1-3)
English Chamber Orchestra

Track List:
CD1:
Sinfonia Concertante for Violin, Viola & Orchestra in E flat, K.364 (2005 Digital Remaster):
01. I. Allegro maestoso
02. II. Andante
03. III. Presto
Violin Concerto No. 1 in B flat, K207 (2005 Digital Remaster):
04. I. [Allegro moderato]
05. II. Adagio
06. III. Presto
Violin Concerto No. 2 in D, K211 [Cadenzas by Spivakov] (2005 Digital Remaster):
07. I. Allegro moderato
08. II. Andante
09. III. Rondeau (Allegro)
CD2:
Violin Concerto No. 3 in G, K216 [Cadenzas by Spivakov] (2005 Digital Remaster):
01. I. Allegro
02. II. Adagio
03. III. Rondeau (Allegro - Andante - Allegretto)
Violin Concerto No. 4 in D, K218 (2005 Digital Remaster):
04. I. Allegro
05. II. Andante cantabile
06. III. Rondeau (Andante grazioso - Allegro ma non troppo)
Violin Concerto No. 5 in A , K219 (cadenzas by J. Joachim) (2005 Digital Remaster):
07. I. Allegro aperto
08. II. Adagio
09. III. Rondeau (Tempo di Menuetto)


Exact Audio Copy V1.6 from 23. October 2020

EAC extraction logfile from 6. July 2021, 18:52

Vladimir Spivakov, English Chamber Orchestra / Mozart - Violin Concertos Nos. 1-2, Sinfonia Concertante

Used drive : PIONEER DVD-RW DVR-218L Adapter: 1 ID: 0

Read mode : Secure
Utilize accurate stream : Yes
Defeat audio cache : Yes
Make use of C2 pointers : No

Read offset correction : 6
Overread into Lead-In and Lead-Out : No
Fill up missing offset samples with silence : Yes
Delete leading and trailing silent blocks : No
Null samples used in CRC calculations : Yes
Used interface : Native Win32 interface for Win NT & 2000

Used output format : User Defined Encoder
Selected bitrate : 128 kBit/s
Quality : High
Add ID3 tag : No
Command line compressor : C:\Program Files\Exact Audio Copy\Flac\flac.exe
Additional command line options : -V -8 -T "Date=%year%" -T "Genre=%genre%" %source%


TOC of the extracted CD

Track | Start | Length | Start sector | End sector
––––––––––––––––––––––––––––-
1 | 0:00.00 | 13:26.38 | 0 | 60487
2 | 13:26.38 | 12:13.61 | 60488 | 115523
3 | 25:40.24 | 6:13.52 | 115524 | 143550
4 | 31:54.01 | 7:10.28 | 143551 | 175828
5 | 39:04.29 | 10:12.55 | 175829 | 221783
6 | 49:17.09 | 6:08.59 | 221784 | 249442
7 | 55:25.68 | 8:19.28 | 249443 | 286895
8 | 63:45.21 | 8:26.36 | 286896 | 324881
9 | 72:11.57 | 4:04.72 | 324882 | 343253


Range status and errors

Selected range

Filename C:\ArlegZ\Mozart - Violin Concertos Nos. 1-2, Sinfonia Concertante - Vladimir Spivakov.wav

Peak level 99.9 %
Extraction speed 2.1 X
Range quality 100.0 %
Test CRC A3CB7EEF
Copy CRC A3CB7EEF
Copy OK

No errors occurred


AccurateRip summary

Track 1 accurately ripped (confidence 4) [D705389F] (AR v2)
Track 2 accurately ripped (confidence 4) [A270CC93] (AR v2)
Track 3 accurately ripped (confidence 4) [69A34B75] (AR v2)
Track 4 accurately ripped (confidence 4) [A7A0200E] (AR v2)
Track 5 accurately ripped (confidence 4) [FD01BC77] (AR v2)
Track 6 accurately ripped (confidence 4) [30225985] (AR v2)
Track 7 accurately ripped (confidence 4) [0014144C] (AR v2)
Track 8 accurately ripped (confidence 4) [354AC6E1] (AR v2)
Track 9 accurately ripped (confidence 4) [D8D3ED9B] (AR v2)

All tracks accurately ripped

End of status report

–– CUETools DB Plugin V2.1.6

[CTDB TOCID: JOK8AjgIuckCTYU.giDWzv.ai5s-] found
Submit result: already submitted
Track | CTDB Status
1 | (9/9) Accurately ripped
2 | (9/9) Accurately ripped
3 | (9/9) Accurately ripped
4 | (9/9) Accurately ripped
5 | (9/9) Accurately ripped
6 | (9/9) Accurately ripped
7 | (9/9) Accurately ripped
8 | (9/9) Accurately ripped
9 | (9/9) Accurately ripped


==== Log checksum 2E735F882F0B06BBF6616E9DDC6F0FFD6BBE96D4CB6A29014B41AF7B8C5D6CD4 ====


Exact Audio Copy V1.6 from 23. October 2020

EAC extraction logfile from 6. July 2021, 20:12

Vladimir Spivakov, English Chamber Orchestra / Mozart - Violin Concertos Nos. 3-5

Used drive : PIONEER DVD-RW DVR-218L Adapter: 1 ID: 0

Read mode : Secure
Utilize accurate stream : Yes
Defeat audio cache : Yes
Make use of C2 pointers : No

Read offset correction : 6
Overread into Lead-In and Lead-Out : No
Fill up missing offset samples with silence : Yes
Delete leading and trailing silent blocks : No
Null samples used in CRC calculations : Yes
Used interface : Native Win32 interface for Win NT & 2000

Used output format : User Defined Encoder
Selected bitrate : 128 kBit/s
Quality : High
Add ID3 tag : No
Command line compressor : C:\Program Files\Exact Audio Copy\Flac\flac.exe
Additional command line options : -V -8 -T "Date=%year%" -T "Genre=%genre%" %source%


TOC of the extracted CD

Track | Start | Length | Start sector | End sector
––––––––––––––––––––––––––––-
1 | 0:00.00 | 9:00.64 | 0 | 40563
2 | 9:00.64 | 8:38.14 | 40564 | 79427
3 | 17:39.03 | 6:31.55 | 79428 | 108807
4 | 24:10.58 | 8:20.25 | 108808 | 146332
5 | 32:31.08 | 8:48.18 | 146333 | 185950
6 | 41:19.26 | 6:35.47 | 185951 | 215622
7 | 47:54.73 | 10:07.24 | 215623 | 261171
8 | 58:02.22 | 12:41.19 | 261172 | 318265
9 | 70:43.41 | 8:36.69 | 318266 | 357034


Range status and errors

Selected range

Filename C:\ArlegZ\Mozart - Violin Concertos Nos. 3-5 - Vladimir Spivakov.wav

Peak level 99.9 %
Extraction speed 2.2 X
Range quality 100.0 %
Test CRC 9E2A0926
Copy CRC 9E2A0926
Copy OK

No errors occurred


AccurateRip summary

Track 1 accurately ripped (confidence 2) [A3D6DF1F] (AR v1)
Track 2 accurately ripped (confidence 2) [3DB28DB1] (AR v1)
Track 3 accurately ripped (confidence 2) [91663478] (AR v1)
Track 4 accurately ripped (confidence 2) [011100B4] (AR v1)
Track 5 accurately ripped (confidence 2) [9CF0BD3D] (AR v1)
Track 6 accurately ripped (confidence 2) [C488462E] (AR v1)
Track 7 accurately ripped (confidence 3) [40C525F1] (AR v1)
Track 8 accurately ripped (confidence 3) [AA11EF0B] (AR v1)
Track 9 accurately ripped (confidence 3) [CA0CF1FC] (AR v1)

All tracks accurately ripped

End of status report

–– CUETools DB Plugin V2.1.6

[CTDB TOCID: gs3cTcsqRoxtJYYkN_9PdDH56fw-] found
Submit result: already submitted
Track | CTDB Status
1 | (10/10) Accurately ripped
2 | (10/10) Accurately ripped
3 | (10/10) Accurately ripped
4 | (10/10) Accurately ripped
5 | (10/10) Accurately ripped
6 | (10/10) Accurately ripped
7 | (10/10) Accurately ripped
8 | (10/10) Accurately ripped
9 | (10/10) Accurately ripped


==== Log checksum 1B578B40A625A30236679257C7CB356409DF22D650FEF2DB25242199245E29E4 ====

Vladimir Spivakov, English Chamber Orchestra - Mozart: Violin Concertos, Sinfonia Concertante (2005)