Subcategories

We Are Scientists - TV En Français (2014) {Dine Alone}

Posted By: TestTickles
We Are Scientists - TV En Français (2014) {Dine Alone}

We Are Scientists - TV En Français (2014) {Dine Alone}
EAC Rip | FLAC with CUE and LOG | scans | 239 mb
MP3 CBR 320 kbps | RAR | 78 mb
Genre: indie rock

TV En Français is the 2014 album by We Are Scientists. This was released by Dine Alone.

01. What You Do Best
02. Dumb Luck
03. Make It Easy
04. Sprinkles
05. Courage
06. Overreacting
07. Return The Favor
08. Slow Down
09. Don't Blow It
10. Take An Arrow

Exact Audio Copy V1.0 beta 3 from 29. August 2011

EAC extraction logfile from 9. November 2014, 10:16

We Are Scientists / TV En Français

Used drive : ASUS DRW-24B1ST a Adapter: 2 ID: 0

Read mode : Secure
Utilize accurate stream : Yes
Defeat audio cache : Yes
Make use of C2 pointers : No

Read offset correction : 6
Overread into Lead-In and Lead-Out : No
Fill up missing offset samples with silence : Yes
Delete leading and trailing silent blocks : No
Null samples used in CRC calculations : Yes
Used interface : Native Win32 interface for Win NT & 2000
Gap handling : Appended to previous track

Used output format : User Defined Encoder
Selected bitrate : 1024 kBit/s
Quality : High
Add ID3 tag : No
Command line compressor : C:\Program Files (x86)\FLAC\flac.exe
Additional command line options : -8 -V -T "ARTIST=%artist%" -T "TITLE=%title%" -T "ALBUM=%albumtitle%" -T "DATE=%year%" -T "TRACKNUMBER=%tracknr%" -T "GENRE=%genre%" -T "PERFORMER=%albuminterpret%" -T "COMPOSER=%composer%" %haslyrics%–tag-from-file=LYRICS="%lyricsfile%"%haslyrics% -T "ALBUMARTIST=%albumartist%" -T "DISCNUMBER=%cdnumber%" -T "TOTALDISCS=%totalcds%" -T "TOTALTRACKS=%numtracks%" -T "COMMENT=%comment%" %source% -o %dest%


TOC of the extracted CD

Track | Start | Length | Start sector | End sector
––––––––––––––––––––––––––––-
1 | 0:00.00 | 3:21.16 | 0 | 15090
2 | 3:21.16 | 2:41.23 | 15091 | 27188
3 | 6:02.39 | 4:25.25 | 27189 | 47088
4 | 10:27.64 | 3:47.72 | 47089 | 64185
5 | 14:15.61 | 2:28.27 | 64186 | 75312
6 | 16:44.13 | 3:36.31 | 75313 | 91543
7 | 20:20.44 | 3:14.11 | 91544 | 106104
8 | 23:34.55 | 3:25.23 | 106105 | 121502
9 | 27:00.03 | 3:54.56 | 121503 | 139108
10 | 30:54.59 | 3:39.24 | 139109 | 155557


Track 1

Filename C:\cuntfist\FLAC\We Are Scientists - TV En Français (2014) [FLAC] {Dine Alone}\01 - What You Do Best.wav

Pre-gap length 0:00:02.00

Peak level 98.8 %
Extraction speed 3.2 X
Track quality 100.0 %
Test CRC 994A1E64
Copy CRC 994A1E64
Track not present in AccurateRip database
Copy OK

Track 2

Filename C:\cuntfist\FLAC\We Are Scientists - TV En Français (2014) [FLAC] {Dine Alone}\02 - Dumb Luck.wav

Peak level 98.8 %
Extraction speed 2.5 X
Track quality 99.9 %
Test CRC 541591B1
Copy CRC 541591B1
Track not present in AccurateRip database
Copy OK

Track 3

Filename C:\cuntfist\FLAC\We Are Scientists - TV En Français (2014) [FLAC] {Dine Alone}\03 - Make It Easy.wav

Peak level 98.8 %
Extraction speed 4.0 X
Track quality 100.0 %
Test CRC DD407305
Copy CRC DD407305
Track not present in AccurateRip database
Copy OK

Track 4

Filename C:\cuntfist\FLAC\We Are Scientists - TV En Français (2014) [FLAC] {Dine Alone}\04 - Sprinkles.wav

Peak level 98.8 %
Extraction speed 4.2 X
Track quality 100.0 %
Test CRC 385DB864
Copy CRC 385DB864
Track not present in AccurateRip database
Copy OK

Track 5

Filename C:\cuntfist\FLAC\We Are Scientists - TV En Français (2014) [FLAC] {Dine Alone}\05 - Courage.wav

Peak level 98.8 %
Extraction speed 3.0 X
Track quality 99.9 %
Test CRC B7200479
Copy CRC B7200479
Track not present in AccurateRip database
Copy OK

Track 6

Filename C:\cuntfist\FLAC\We Are Scientists - TV En Français (2014) [FLAC] {Dine Alone}\06 - Overreacting.wav

Peak level 98.8 %
Extraction speed 4.6 X
Track quality 100.0 %
Test CRC F8D4B791
Copy CRC F8D4B791
Track not present in AccurateRip database
Copy OK

Track 7

Filename C:\cuntfist\FLAC\We Are Scientists - TV En Français (2014) [FLAC] {Dine Alone}\07 - Return The Favor.wav

Peak level 98.8 %
Extraction speed 4.7 X
Track quality 100.0 %
Test CRC 13BF2F25
Copy CRC 13BF2F25
Track not present in AccurateRip database
Copy OK

Track 8

Filename C:\cuntfist\FLAC\We Are Scientists - TV En Français (2014) [FLAC] {Dine Alone}\08 - Slow Down.wav

Peak level 97.7 %
Extraction speed 5.0 X
Track quality 100.0 %
Test CRC D060CBCF
Copy CRC D060CBCF
Track not present in AccurateRip database
Copy OK

Track 9

Filename C:\cuntfist\FLAC\We Are Scientists - TV En Français (2014) [FLAC] {Dine Alone}\09 - Don't Blow It.wav

Pre-gap length 0:00:01.17

Peak level 98.8 %
Extraction speed 5.3 X
Track quality 100.0 %
Test CRC 2C4997B7
Copy CRC 2C4997B7
Track not present in AccurateRip database
Copy OK

Track 10

Filename C:\cuntfist\FLAC\We Are Scientists - TV En Français (2014) [FLAC] {Dine Alone}\10 - Take An Arrow.wav

Peak level 98.8 %
Extraction speed 5.5 X
Track quality 100.0 %
Test CRC 82BE015C
Copy CRC 82BE015C
Track not present in AccurateRip database
Copy OK


None of the tracks are present in the AccurateRip database

No errors occurred

End of status report

–– CUETools DB Plugin V2.1.3

[CTDB TOCID: h5P474lGGrFq0DVYtgKGbm_S.AM-] found, Submit result: h5P474lGGrFq0DVYtgKGbm_S.AM- has been confirmed
[a9eb6abe] (2/2) Accurately ripped


==== Log checksum 3AB6575AAA910D48525ADAEAB2710825E37BB0897B0DBF1BC5B65CD19AD697D0 ====


We Are Scientists - TV En Français (2014) {Dine Alone}


Thank you to the original uploader.