Subcategories

W.A.S.P. - The Best Of The Best 1984-2000, Vol. 1 (2000)

Posted By: Andi_Deris
W.A.S.P. - The Best Of The Best 1984-2000, Vol. 1 (2000)

W.A.S.P. - The Best Of The Best 1984-2000, Vol. 1 (2000)
EAC Rip | FLAC: Image+Cue+Log | MP3 CBR 320 kbps | Scans
493 Mb | 154 Mb | 96 Mb | Time: 01:06:35
Apocalypse/Snapper Music | SMACD825
Heavy Metal

Blackie Lawless launched W.A.S.P. on the unsuspecting world in 1983 and before long tales of their outrageous music and intense stage shows were legendary. The 15 tracks featured on The Best Of The Best prove that while the theatrics and shock tactics of Blackie Lawless might have gained the headlines, it was what W.A.S.P. did on record that gained them legions of fans.

In the last few years of the old century W.A.S.P. made some of their most striking and brave albums. The ferocious, blood-splattered Kill Fuck Die and the celebratory sleazefest of Helldorado provided solid proof that Blackie Lawless' songwriting skills were as keen and unique as ever and, unlike the majority of his 80's contemporaries, this most dogged and determined of frontmen was entering a new era full of confidence, with that blazing inferno in his eyes clearly a long way from fizzling out.

W.A.S.P. - The Best Of The Best 1984-2000, Vol. 1 (2000)




Track Listing

01. Saturday Night's Alright For Fighting (04:45)
02. Animal (Fuck Like A Beast) (03:07)
03. I Wanna Be Somebody (03:43)
04. L.O.V.E. Machine (03:52)
05. On Your Knees (03:47)
06. Show No Mercy (03:38)
07. Blind In Texas (04:22)
08. Wild Child (05:12)
09. Sex Drive (03:02)
10. 9-5 N.A.S.T.Y. (04:47)
11. Mean Man (04:48)
12. Chainsaw Charlie (Murders In The New Morgue) (07:47)
13. Unreal (03:19)
14. Helldorado (05:06)
15. Dirty Balls (05:20)

Produced by Blackie Lawless

Exact Audio Copy V0.99 prebeta 4 from 23. January 2008

EAC extraction logfile from 15. January 2011, 21:00

W.A.S.P. / The Best Of The Best 1984-2000

Used drive : HL-DT-STDVDRAM GSA-T50F Adapter: 0 ID: 2

Read mode : Secure
Utilize accurate stream : Yes
Defeat audio cache : Yes
Make use of C2 pointers : No

Read offset correction : 667
Overread into Lead-In and Lead-Out : No
Fill up missing offset samples with silence : Yes
Delete leading and trailing silent blocks : No
Null samples used in CRC calculations : Yes
Used interface : Installed external ASPI interface

Used output format : Internal WAV Routines
Sample format : 44.100 Hz; 16 Bit; Stereo


TOC of the extracted CD

Track | Start | Length | Start sector | End sector
––––––––––––––––––––––––––––-
1 | 0:00.00 | 4:44.57 | 0 | 21356
2 | 4:44.57 | 3:06.40 | 21357 | 35346
3 | 7:51.22 | 3:43.10 | 35347 | 52081
4 | 11:34.32 | 3:51.65 | 52082 | 69471
5 | 15:26.22 | 3:47.30 | 69472 | 86526
6 | 19:13.52 | 3:37.53 | 86527 | 102854
7 | 22:51.30 | 4:21.57 | 102855 | 122486
8 | 27:13.12 | 5:11.65 | 122487 | 145876
9 | 32:25.02 | 3:02.10 | 145877 | 159536
10 | 35:27.12 | 4:47.13 | 159537 | 181074
11 | 40:14.25 | 4:47.45 | 181075 | 202644
12 | 45:01.70 | 7:47.15 | 202645 | 237684
13 | 52:49.10 | 3:19.12 | 237685 | 252621
14 | 56:08.22 | 5:05.63 | 252622 | 275559
15 | 61:14.10 | 5:19.40 | 275560 | 299524


Range status and errors

Selected range

Filename D:\Rip by Ballcrusher\W.A.S.P. - The Best Of The Best 1984-2000.wav

Peak level 100.0 %
Range quality 100.0 %
Copy CRC B2F9890A
Copy OK

No errors occurred


AccurateRip summary

Track 1 accurately ripped (confidence 7) [CB2D0840]
Track 2 accurately ripped (confidence 4) [95829B9C]
Track 3 accurately ripped (confidence 4) [37DC601C]
Track 4 accurately ripped (confidence 4) [93A98322]
Track 5 accurately ripped (confidence 7) [35CC96C2]
Track 6 accurately ripped (confidence 4) [B16D4E6B]
Track 7 accurately ripped (confidence 4) [F685F180]
Track 8 accurately ripped (confidence 3) [BB784A42]
Track 9 accurately ripped (confidence 3) [67F2953A]
Track 10 accurately ripped (confidence 3) [71790524]
Track 11 accurately ripped (confidence 3) [646F6374]
Track 12 accurately ripped (confidence 3) [90B18ADA]
Track 13 accurately ripped (confidence 4) [46EFD1A3]
Track 14 accurately ripped (confidence 3) [FCB47C45]
Track 15 accurately ripped (confidence 3) [D031CCCD]

All tracks accurately ripped

End of status report


Many thanks to the original uploader: Ballcrusher





Password: pass