Subcategories

W.E.T. - One Live - In Stockholm (2014) 2CD+DVD Box Set

Posted By: Andi_Deris
W.E.T. - One Live - In Stockholm (2014) 2CD+DVD Box Set

W.E.T. - One Live - In Stockholm (2014) 2CD+DVD Box Set
EAC Rip | FLAC: Image+Cue+Log | 731 Mb | MP3 CBR 320 kbps | 279 Mb | Scans | 76 Mb | Time: 49:08 + 46:48
DVD5 | Video: NTSC 16:9 (720x480) | Audio: Dolby AC3, 2 ch | 3.3 Gb | Scans | Time: 01:30:33
Melodic Hard Rock, AOR | Frontiers Records | FR CDVD 637

For those who have never heard of W.E.T. the band comprise of Jeff Scott Soto on lead vocals and keyboards, Erik Mårtensson on rhythm/lead guitar and backing/lead Vocals, Robert Säll on keyboards/guitar & backing vocals, Magnus Henriksson on rhythm/lead guitar and backing vocals, Robban Bäck on drums and Andreas Passmark on bass. So if any of those names means anything to you, you will know that the band has on paper the highest pedigree, being something of an AOR supergroup.

Although they have only released two studio albums, melodic rock supergroup W.E.T. have released an impressive live album that needs to be in the collection of every rocker who likes big hooks, big melodies and big choruses. The live album confirms everything we have heard from the band before. No-frills hardrock from high quality and hooks that are just amazing.

W.E.T. - One Live - In Stockholm (2014) 2CD+DVD Box Set




W.E.T. - One Live - In Stockholm (2014) 2CD+DVD Box Set


CD1

01. Walk Away (5:16)
02. Learn To Live Again (3:41)
03. Invincible (3:49)
04. I'll Be There (5:49)
05. Love Heals (4:34)
06. Rise Up (3:49)
07. Bleed & Scream (Eclipse) (4:18)
08. Bad Boy (4:12)
09. Still Unbroken (3:45)
10. Broken Wings (4:26)
11. I'll Be Waiting (Talisman) (5:28)

CD2

01. If I Fall (5:58)
02. Shot (4:37)
03. Comes Down Like Rain (4:47)
04. The Great Fall (Work Of Art) (4:07)
05. What You Want (3:30)
06. Brothers In Arms (6:24)
07. Mysterious (Talisman) (3:29)
08. One Love (5:52)
09. Poison (Numbing The Pain) (bonus studio track) (4:16)
10. Bigger Than Both Of Us (bonus studio track) (3:47)

DVD

01. Walk Away
02. Learn To Live Again
03. Invincible
04. I'll Be There
05. Love Heals
06. Rise Up
07. Bleed & Scream
08. Bad Boy
09. Still Unbroken
10. Broken Wings
11. I'll Be Waiting
12. If I Fall
13. Shot
14. Comes Down Like Rain
15. The Great Fall
16. What You Want
17. Brothers In Arms
18. Mysterious
19. One Love
- Love Heals (bonus videoclip)
- Learn to Live Again (bonus videoclip)

W.E.T. - One Live - In Stockholm (2014) 2CD+DVD Box Set

W.E.T. - One Live - In Stockholm (2014) 2CD+DVD Box Set
W.E.T. - One Live - In Stockholm (2014) 2CD+DVD Box Set
W.E.T. - One Live - In Stockholm (2014) 2CD+DVD Box Set
W.E.T. - One Live - In Stockholm (2014) 2CD+DVD Box Set

W.E.T. - One Live - In Stockholm (2014) 2CD+DVD Box Set


Produced by Erik Mårtensson

The Band

• Jeff Scott Soto (Talisman) - lead vocals & keyboards
• Eric Mårtensson (Eclipse) - lead & rhythm guitar, lead & backing vocals
• Robert Säll (Work Of Art) - keyboards, guitar & backing vocals
• Magnus Henriksson (Eclipse) - lead & rhythm guitar, backing vocals
• Robban Bäck (Eclipse) - drums

*****
• Lars Safsund (Work Of Art) - lead vocals on "The Great Fall"

W.E.T. - One Live - In Stockholm (2014) 2CD+DVD Box Set


Exact Audio Copy V1.0 beta 3 from 29. August 2011

EAC extraction logfile from 27. March 2014, 22:37

W.E.T. / One Live - In Stockholm CD1

Used drive : SlimtypeDVD A DS8A5SH Adapter: 0 ID: 1

Read mode : Secure
Utilize accurate stream : Yes
Defeat audio cache : Yes
Make use of C2 pointers : No

Read offset correction : 6
Overread into Lead-In and Lead-Out : No
Fill up missing offset samples with silence : Yes
Delete leading and trailing silent blocks : No
Null samples used in CRC calculations : Yes
Used interface : Native Win32 interface for Win NT & 2000

Used output format : User Defined Encoder
Selected bitrate : 320 kBit/s
Quality : High
Add ID3 tag : No
Command line compressor : C:\Program Files (x86)\Exact Audio Copy\Flac\flac.exe
Additional command line options : -V -8 -T "Date=%year%" -T "Genre=%genre%" %source%


TOC of the extracted CD

Track | Start | Length | Start sector | End sector
––––––––––––––––––––––––––––-
1 | 0:00.00 | 5:16.00 | 0 | 23699
2 | 5:16.00 | 3:41.06 | 23700 | 40280
3 | 8:57.06 | 3:48.45 | 40281 | 57425
4 | 12:45.51 | 5:49.24 | 57426 | 83624
5 | 18:35.00 | 4:33.56 | 83625 | 104155
6 | 23:08.56 | 3:49.31 | 104156 | 121361
7 | 26:58.12 | 4:17.73 | 121362 | 140709
8 | 31:16.10 | 4:12.19 | 140710 | 159628
9 | 35:28.29 | 3:44.36 | 159629 | 176464
10 | 39:12.65 | 4:26.02 | 176465 | 196416
11 | 43:38.67 | 5:27.66 | 196417 | 221007


Range status and errors

Selected range

Filename D:\My Music\W.E.T. - 2014 One Live-In Stockholm\CD1\W.E.T. - One Live - In Stockholm CD1.wav

Peak level 99.9 %
Extraction speed 4.3 X
Range quality 100.0 %
Test CRC DDCBCF95
Copy CRC DDCBCF95
Copy OK

No errors occurred


AccurateRip summary

Track 1 not present in database
Track 2 not present in database
Track 3 not present in database
Track 4 not present in database
Track 5 not present in database
Track 6 not present in database
Track 7 not present in database
Track 8 not present in database
Track 9 not present in database
Track 10 not present in database
Track 11 not present in database

None of the tracks are present in the AccurateRip database

End of status report

==== Log checksum F98FD60B185D4154744745D3DF7878D854C641F3B30DD017AF3EA20177014500 ====

Exact Audio Copy V1.0 beta 3 from 29. August 2011

EAC extraction logfile from 27. March 2014, 23:19

W.E.T. / One Live - In Stockholm CD2

Used drive : SlimtypeDVD A DS8A5SH Adapter: 0 ID: 1

Read mode : Secure
Utilize accurate stream : Yes
Defeat audio cache : Yes
Make use of C2 pointers : No

Read offset correction : 6
Overread into Lead-In and Lead-Out : No
Fill up missing offset samples with silence : Yes
Delete leading and trailing silent blocks : No
Null samples used in CRC calculations : Yes
Used interface : Native Win32 interface for Win NT & 2000

Used output format : User Defined Encoder
Selected bitrate : 320 kBit/s
Quality : High
Add ID3 tag : No
Command line compressor : C:\Program Files (x86)\Exact Audio Copy\Flac\flac.exe
Additional command line options : -V -8 -T "Date=%year%" -T "Genre=%genre%" %source%


TOC of the extracted CD

Track | Start | Length | Start sector | End sector
––––––––––––––––––––––––––––-
1 | 0:00.00 | 5:58.16 | 0 | 26865
2 | 5:58.16 | 4:36.51 | 26866 | 47616
3 | 10:34.67 | 4:47.23 | 47617 | 69164
4 | 15:22.15 | 4:07.17 | 69165 | 87706
5 | 19:29.32 | 3:29.36 | 87707 | 103417
6 | 22:58.68 | 6:24.28 | 103418 | 132245
7 | 29:23.21 | 3:29.23 | 132246 | 147943
8 | 32:52.44 | 5:51.33 | 147944 | 174301
9 | 38:44.02 | 4:16.12 | 174302 | 193513
10 | 43:00.14 | 3:46.55 | 193514 | 210518


Range status and errors

Selected range

Filename D:\My Music\W.E.T. - 2014 One Live-In Stockholm\CD2\W.E.T. - One Live - In Stockholm CD2.wav

Peak level 99.9 %
Extraction speed 1.8 X
Range quality 100.0 %
Test CRC A506F3E6
Copy CRC A506F3E6
Copy OK

No errors occurred


AccurateRip summary

Track 1 not present in database
Track 2 not present in database
Track 3 not present in database
Track 4 not present in database
Track 5 not present in database
Track 6 not present in database
Track 7 not present in database
Track 8 not present in database
Track 9 not present in database
Track 10 not present in database

None of the tracks are present in the AccurateRip database

End of status report

==== Log checksum 3B8A11DF30EE9527551CC1B832AAE7A0CAE99A7A64D330A2BF092E487196E240 ====

Size: 3.73 Gb ( 3 907 250,00 KBytes ) - DVD-5
Enabled regions: 1, 2, 3, 4, 5, 6, 7, 8

VTS_01 :
Play Length: 01:30:33
Video: NTSC 16:9 (720x480) VBR, Auto Letterboxed
Audio:
English (Dolby AC3, 2 ch)

VTS_02 :
Play Length: 00:00:22
Video: NTSC 16:9 (720x480) VBR, Auto Letterboxed
Audio:
English (Dolby AC3, 2 ch)

VTS_03 :
Play Length: 00:03:34
Video: NTSC 16:9 (720x480) VBR, Auto Letterboxed
Audio:
English (Dolby AC3, 2 ch)

VTS_04 :
Play Length: 00:04:20
Video: NTSC 16:9 (720x480) VBR, Auto Letterboxed
Audio:
English (Dolby AC3, 2 ch)


Many thanks to the original uploader: kolushew (CD)/meloman67 (DVD)


Axel Rudi Pell 2012 Circle Of The Oath [Limited Ed.]
Axel Rudi Pell 2014 Into The Storm [Limited Ed.]
Axel Rudi Pell 2015 Magic Moments - 25th Anniversary Special Show [3xDVD]
Axel Rudi Pell 2016 Game Of Sins [Limited Ed.]

Eclipse 2001 The Truth And A Little More
Eclipse 2008 Are You Ready To Rock [Japanese Ed.]
Eclipse 2008 Are You Ready To Rock - MMXIV [Reissue 2014]

Eyes 1990 Eyes [Japanese Ed. 1991]
Eyes 1993 Windows Of The Soul [Japanese Ed. 1994]

Jimi Jamison 1991, 1999, 2008 [3 Studio Albums]
Jimi Jamison & Jim Peterik 2010 Extra Moments
Jimi Jamison 2012 Never Too Late [Japanese Ed.]

Laneslide 2013 Flying High

Last Autumn's Dream 2003-2011 Studio Discography [Japanese Ed.]
Last Autumn's Dream 2012 Ten Tangerine Tales [Japanese Ed.]
Last Autumn's Dream 2013 Platform ~10th Anniversary Best~ [Japanese Ed.]
Last Autumn's Dream 2014 Level Eleven [Japanese Ed.] 2CD
Last Autumn's Dream 2015 Paintings [Japanese Ed.]

Lionville 2011 Lionville [Japanese Ed.]
Lionville 2012 II [Japanese Ed. 2013]

Pride Of Lions 2003 Pride Of Lions [Japanese Ed.]
Pride Of Lions 2004 The Destiny Stone [Japanese Ed.]
Pride Of Lions 2006 Live In Belgium [Japanese Ed.] 2CD
Pride Of Lions 2007 The Roaring Of Dreams [Japanese Ed.]
Pride Of Lions 2012 Immortal [Japanese Ed.]

Soto 2015 Inside The Vertigo [Digipak]

Talisman 1990 Talisman [Deluxe Ed. 2012] Digipak
Talisman 1993 Genesis [Deluxe Ed. 2012] Digipak
Talisman 1994 Live In Japan [Deluxe Ed. 2012] Digipak
Talisman 1994 Humanimal [Deluxe Ed. 2012] Digipak

Toby Hitchcock 2011 Mercury's Down

Two Fires 2000 Two Fires [Japanese Ed.]
Two Fires 2002 Ignition [Japanese Ed.]
Two Fires 2010 Burning Bright

W.E.T. 2009 W.E.T. [Japanese Ed. 2010]
W.E.T. 2013 Rise Up
W.E.T. 2013 Rise Up [Japanese Ed.]

Work Of Art 2008 Artwork [Japanese Ed.]
Work Of Art 2011 In Progress
Work Of Art 2011 In Progress [Japanese Ed.]
Work Of Art 2014 Framework [Japanese Ed.]
––-
CD
Oboom
DVD
Oboom