Subcategories

Ween - Chocolate and Cheese (1994) [Japan 1st Press]

Posted By: v3122
Ween - Chocolate and Cheese (1994) [Japan 1st Press]

Ween - Chocolate and Cheese (1994)
EAC | Flac(Image) + Cue + Log & MP3 CBR 320Kbps
Elektra, WPCR-143 | ~ 315 or 130 Mb | Scans(jpg) -> 36 Mb
Alternative Rock, Experimental, Abstract

A brilliant fusion of pop and gonzo humor, 1994's Chocolate and Cheese is arguably Ween's finest moment. Building on Pure Guava's more focused approach, the album proved for once and all that along with their twisted sense of humor and wide musical vocabulary, Dean and Gene are also impressive songwriters. Over the course of Chocolate and Cheese, Ween explore virtually every permutation of pop, rock, soul, and funk, from the opening song "Take Me Away"'s rootsy rock to "Roses Are Free"'s homage to Prince's shiny Paisley Park era. On the dreamy, British psych-inspired "What Deaner Was Talking About," the Afro-Caribbean funk of "Voodoo Lady," and "Freedom of '76," their funny, sexy tribute to '70s Philly soul, Ween don't so much parody these styles as reinvent them. Indeed, "Drifter in the Dark"'s surprisingly traditional country and "Joppa Road"'s spot-on soft rock foreshadow 12 Golden Country Greats and White Pepper, respectively. Despite Chocolate and Cheese's polish and prowess, Ween prove they're still proudly politically incorrect with "Spinal Meningitis (Got Me Down)" and "Mister Would You Please Help My Pony?" two of the creepiest songs about childhood ever recorded. "The HIV Song" revels in its questionable taste and "Don't Shit Where You Eat"'s laid-back pop is one of the album's subtler jokes. Old-school Ween weirdness surfaces on "Candi" (the shouting in the background was recorded from the trunk of Dean Ween's car) and the crazed stomp of "I Can't Put My Finger on It." "Buenas Tardes Amigo," an epic, spaghetti Western-inspired tale of murder and revenge, and "Baby Bitch," a wry but stinging retort to an ex-girlfriend, show how good Ween are at taking silly things seriously and serious things lightly. That's exactly what makes Chocolate and Cheese such a fun, exciting album.

by Heather Phares, AMG
Ween - Chocolate and Cheese (1994) [Japan 1st Press]


Ween - Chocolate and Cheese (1994):

Ween - Chocolate and Cheese (1994) [Japan 1st Press]

Tracklist:

01. Take Me Away
02. Spinal Meningitis (Got Me Down)
03. Freedom of '76
04. I Can't Put My Finger on It
05. A Tear For Eddie
06. Roses Are Free
07. Baby Bitch
08. Mister, Would You Please Help My Pony?
09. Drifter in The Dark
10. Voodoo Lady
11. Joppa Road
12. Candi
13. Buenas Tardes Amigo
14. The HIV Song
15. What Deaner Was Talkin' About
16. Don't Shit Where You Eat

Exact Audio Copy V1.0 beta 3 from 29. August 2011

EAC extraction logfile from 8. May 2015, 12:29

Ween / Chocolate and Cheese

Used drive : ASUS DRW-24F1ST a Adapter: 4 ID: 0

Read mode : Secure
Utilize accurate stream : Yes
Defeat audio cache : Yes
Make use of C2 pointers : No

Read offset correction : 6
Overread into Lead-In and Lead-Out : No
Fill up missing offset samples with silence : Yes
Delete leading and trailing silent blocks : No
Null samples used in CRC calculations : Yes
Used interface : Native Win32 interface for Win NT & 2000

Used output format : User Defined Encoder
Selected bitrate : 896 kBit/s
Quality : High
Add ID3 tag : Yes
Command line compressor : C:\Program Files (x86)\FLAC Frontend\tools\flac.exe
Additional command line options : -V -8 -T "Date=%year%" -T "Genre=%genre%" %source%


TOC of the extracted CD

Track | Start | Length | Start sector | End sector
––––––––––––––––––––––––––––-
1 | 0:00.00 | 3:00.55 | 0 | 13554
2 | 3:00.55 | 2:52.62 | 13555 | 26516
3 | 5:53.42 | 2:50.65 | 26517 | 39331
4 | 8:44.32 | 2:47.05 | 39332 | 51861
5 | 11:31.37 | 4:49.23 | 51862 | 73559
6 | 16:20.60 | 4:34.60 | 73560 | 94169
7 | 20:55.45 | 3:04.20 | 94170 | 107989
8 | 23:59.65 | 2:54.67 | 107990 | 121106
9 | 26:54.57 | 2:31.50 | 121107 | 132481
10 | 29:26.32 | 3:48.08 | 132482 | 149589
11 | 33:14.40 | 3:02.70 | 149590 | 163309
12 | 36:17.35 | 4:02.20 | 163310 | 181479
13 | 40:19.55 | 7:06.67 | 181480 | 213496
14 | 47:26.47 | 2:09.25 | 213497 | 223196
15 | 49:35.72 | 1:59.45 | 223197 | 232166
16 | 51:35.42 | 3:19.40 | 232167 | 247131


Range status and errors

Selected range

Filename G:\EAC - Hellixxx rip\Ween - 1994 - Chocolate and Cheese (WPCR-143).wav

Peak level 97.7 %
Extraction speed 2.9 X
Range quality 99.9 %
Test CRC 44111BE5
Copy CRC 44111BE5
Copy OK

No errors occurred


AccurateRip summary

Track 1 accurately ripped (confidence 2) [0EB2D3FD] (AR v2)
Track 2 accurately ripped (confidence 2) [07C6781B] (AR v2)
Track 3 accurately ripped (confidence 2) [A43688C7] (AR v2)
Track 4 accurately ripped (confidence 2) [0FFFCF86] (AR v2)
Track 5 accurately ripped (confidence 2) [AE9299A8] (AR v2)
Track 6 accurately ripped (confidence 2) [35371A9C] (AR v2)
Track 7 accurately ripped (confidence 2) [CB68B801] (AR v2)
Track 8 accurately ripped (confidence 2) [243088A2] (AR v2)
Track 9 accurately ripped (confidence 2) [D9A2124A] (AR v2)
Track 10 accurately ripped (confidence 2) [D6C30A3B] (AR v2)
Track 11 accurately ripped (confidence 2) [7C2DA628] (AR v2)
Track 12 accurately ripped (confidence 2) [277391A5] (AR v2)
Track 13 accurately ripped (confidence 2) [24F459D6] (AR v2)
Track 14 accurately ripped (confidence 2) [51408655] (AR v2)
Track 15 accurately ripped (confidence 2) [AB056B66] (AR v2)
Track 16 accurately ripped (confidence 2) [1E95063D] (AR v2)

All tracks accurately ripped

End of status report

==== Log checksum B70F7FA63606D71ACE191F645415A8AD62CFCB59BB2CA83BED8D181158D0923A ====

foobar2000 1.2.9 / Dynamic Range Meter 1.1.1
log date: 2016-07-08 01:19:56

––––––––––––––––––––––––––––––––––––––––
Analyzed: Ween / Chocolate and Cheese
––––––––––––––––––––––––––––––––––––––––

DR Peak RMS Duration Track
––––––––––––––––––––––––––––––––––––––––
DR12 -0.20 dB -15.05 dB 3:01 01-Take Me Away
DR12 -0.20 dB -15.68 dB 2:53 02-Spinal Meningitis (Got Me Down)
DR13 -0.20 dB -15.37 dB 2:51 03-Freedom of '76
DR13 -0.20 dB -15.68 dB 2:47 04-I Can't Put My Finger on It
DR12 -0.20 dB -15.57 dB 4:49 05-A Tear For Eddie
DR11 -0.20 dB -13.13 dB 4:35 06-Roses Are Free
DR11 -0.45 dB -13.80 dB 3:04 07-Baby Bitch
DR12 -0.20 dB -14.32 dB 2:55 08-Mister, Would You Please Help My Pony?
DR13 -3.61 dB -18.65 dB 2:32 09-Drifter in The Dark
DR13 -0.20 dB -15.24 dB 3:48 10-Voodoo Lady
DR15 -0.20 dB -17.50 dB 3:03 11-Joppa Road
DR15 -0.20 dB -18.18 dB 4:02 12-Candi
DR12 -0.20 dB -17.43 dB 7:07 13-Buenas Tardes Amigo
DR13 -0.20 dB -15.31 dB 2:09 14-The HIV Song
DR11 -0.20 dB -13.23 dB 2:00 15-What Deaner Was Talkin' About
DR12 -0.20 dB -14.77 dB 3:20 16-Don't Shit Where You Eat
––––––––––––––––––––––––––––––––––––––––

Number of tracks: 16
Official DR value: DR13

Samplerate: 44100 Hz
Channels: 2
Bits per sample: 16
Bitrate: 773 kbps
Codec: FLAC

[CUETools log; Date: 08.07.2016 1:20:19; Version: 2.1.4]
[CTDB TOCID: Jec2pfIAJ_AR3ZhaKX4RwxXthNo-] found.
Track | CTDB Status
1 | (2/2) Accurately ripped
2 | (2/2) Accurately ripped
3 | (2/2) Accurately ripped
4 | (2/2) Accurately ripped
5 | (2/2) Accurately ripped
6 | (2/2) Accurately ripped
7 | (2/2) Accurately ripped
8 | (2/2) Accurately ripped
9 | (2/2) Accurately ripped
10 | (2/2) Accurately ripped
11 | (2/2) Accurately ripped
12 | (2/2) Accurately ripped
13 | (2/2) Accurately ripped
14 | (2/2) Accurately ripped
15 | (2/2) Accurately ripped
16 | (2/2) Accurately ripped
[AccurateRip ID: 001f99a4-017f4c58-010cdf10] found.
Track [ CRC | V2 ] Status
01 [f0f9a51e|0eb2d3fd] (0+3/3) Accurately ripped
02 [3e9bddf2|07c6781b] (0+3/3) Accurately ripped
03 [73b91ed3|a43688c7] (0+3/3) Accurately ripped
04 [5df8a953|0fffcf86] (0+3/3) Accurately ripped
05 [f806277c|ae9299a8] (0+3/3) Accurately ripped
06 [399b91b7|35371a9c] (0+3/3) Accurately ripped
07 [6216e107|cb68b801] (0+3/3) Accurately ripped
08 [1af5a001|243088a2] (0+3/3) Accurately ripped
09 [4e7c78d2|d9a2124a] (0+3/3) Accurately ripped
10 [4f83db19|d6c30a3b] (0+3/3) Accurately ripped
11 [668e6d39|7c2da628] (0+3/3) Accurately ripped
12 [36dc7eaf|277391a5] (0+3/3) Accurately ripped
13 [a28f8ebb|24f459d6] (0+3/3) Accurately ripped
14 [a87c0471|51408655] (0+3/3) Accurately ripped
15 [024f4804|ab056b66] (0+3/3) Accurately ripped
16 [50b023a8|1e95063d] (0+3/3) Accurately ripped

Track Peak [ CRC32 ] [W/O NULL] [ LOG ]
– 97,7 [44111BE5] [3E6C1D3F] CRC32
01 97,7 [92E72BFE] [7A5CFC7C]
02 97,7 [92AC9EB5] [E8D3BEEC]
03 97,7 [43DBAF22] [8D89DD29]
04 97,7 [D7273FDF] [75B4ABE4]
05 97,7 [56B84EBD] [BC94601B]
06 97,7 [4D1D3B4C] [0B4FF09E]
07 94,9 [95B1CCFF] [06EC054F]
08 97,7 [197CD380] [F8A9DE57]
09 66,0 [C5871226] [70EFFDCA]
10 97,7 [F12DD02A] [EC0794EA]
11 97,7 [627A1B4B] [B1EFB342]
12 97,7 [1B26D779] [F623CE7B]
13 97,7 [4C3A68F7] [B1B340B1]
14 97,7 [DE8F386E] [4C0ED92A]
15 97,7 [B91143DA] [159EBD47]
16 97,7 [63C2650D] [10A6BB9B]

Ween - Chocolate and Cheese (1994) [Japan 1st Press]

All thanks go to Hellixxx

Ween in my Blog

Download Ween - Chocolate and Cheese (1994):