Subcategories
Tags
Language
Tags

When Rivers Meet - 2 Albums (2020)

Posted By: popsakov
When Rivers Meet - 2 Albums (2020)

When Rivers Meet - 2 Albums (2020)
EAC Rip | FLAC (Img) + Cue + Log ~ 561 Mb | MP3 CBR320 ~ 257 Mb
Full Scans | 00:30:22 + 00:45:26 | RAR 5% Recovery
Rock, Blues Rock | One Road Records #WRMCDEP01 / WRMCDLP01

Since bursting on to the UK Blues scene with their debut record ‘The Uprising EP’ in April 2019 followed by their second EP ‘Innocence Of Youth’ in May 2020, Grace and Aaron have been going from strength to strength. The British husband and wife duo have an ever-growing online fan base and have gained the attention of Cerys Matthews’ The Blues Show on BBC Radio 2.

Their unique harmonic vocal-led approach to song writing, dirty electric guitar, slide resonator mandolin and fiddle create a unique distinctive and contemporary blues rock sound that echoes 1970s classic rock with hints of the 1930s blues that inspire them.

Before lockdown, the duo toured the UK in their self-converted VW camper with an impressive tour schedule. Since the lockdown, the duo live stream on Facebook every Saturday at 8pm GMT for their ‘Rock The Lockdown’ series attracting hundreds of thousands of views.

On November 20th, 2020, the duo released their long-awaited debut album ‘We Fly Free’, to critical acclaim from the UK radio and rock music magazine media.

Chris Kimsey, the Rolling Stones record producer praised the album saying that “The performances are exemplary, the sound is magnificent, the songs are gorgeous. I love the drama. I love everything.”

In October, WRM’s first single from the album, ‘Battleground’, was added to the main playlist on the UK’s leading classic rock radio station Planet Rock.

In late November, the band followed up with a second single, ‘Did I Break The Law’, that was played on BBC Radio 2’s The Rock Show with Johnnie Walker. The single was also played on Planet Rock throughout December 2020 and into January 2021.

The UK rock music press were unanimous by praising ‘We Fly Free’ as one of the most striking, refreshing, and impressive debut blues rock albums of 2020.

Classic Rock said of the band’s debut, “Wheel-spinning out of Dodge like Bonnie and Clyde on opener ‘Did I Break The Law’, Grace and Aaron Bond prove capable getaway drivers on a debut album that unfolds like a road movie,” while Blues in Britain described it as “A stunning album of pure alchemy.”

Vive Le Rock said that ‘We Fly Free’ was “urban blues with the brakes off,” and gave the album with a 9/10 rating, while Guitarist Magazine described at album as “electrifying, it’s a great debut.” Fireworks Magazine praised it as “One of the best blues rock albums of the year.”

On October 26th, ‘Battleground’ won “Tracks of the Week” on Classic Rock’s Louder Sound website, who described it as “Primal old-school blues (more John Lee Hooker than Stevie Ray Vaughan) – dressed up in biker leathers and wreathed in arthouse smoke.”

November 2020 saw two more accolades when WRM graced the magazine covers of Blues Matters and Blues in Britain featuring stylish photographs taken by one of the UK’s leading rock photographers, Rob Blackham.

Blues Rock Review voted ‘We Fly Free’ #9 in their Top 20 Albums of 2020 poll.

The album was also made Rock and Blues Muse’s “Top 20 Blues, Rock and Roots Albums of 2020,” alongside Joe Bonamassa, Larkin Poe, Walter Trout, Shemekia Copeland, The Allman Betts Band, Marcus King, Kirk Fletcher, Savoy Brown, Bernard Allison, and King King.

When Rivers Meet’s debut album cemented their name and signified a bold move in their trajectory that singled them out as innovative risk takers, willing to take their influences, and putting their own stamp over it.

After two years of hard work, everything came together. The WRM buzz was in full swing.

Jamie Dickson, the editor of Guitarist Magazine, was quick to catch on to this when he reviewed the debut album by saying, “It’s a tough job to make a new blues-based record that really arrests the listener’s attention, however, WRM’s sound is built of simple but powerful elements, handled with taste but delivered from the gut.”

The music magazine reviews continued to pour in. Adam Kennedy of HRH Magazine proclaimed, “For blues lovers, ‘We Fly Free’ is a purist’s paradise,” while Steve Swift at Powerplay Magazine said, “They may be a duo, but they make a big noise.”

Maverick Magazine said, “This is the start of what should be a hugely successful career, while RNR Magazine focussed on the album’s production standards by saying, “The use of authentic techniques, including tube tape echoes and reverbs, adds to the overall production, reproducing a splendid live, vintage sound that reinforces the appeal.”

When Rivers Meet will release their third single ‘Walking On The Wire’ in early February 2021. The third single taken from the ‘We Fly Free’ album, it will be accompanied by a music video.

In Spring 2022, When Rivers Meet will embark on their debut UK tour as a five-piece.

~ Peter Noble, Noble PR

***************

Track List CD1 - The EP Collection (2020):

The Uprising EP (2019)
01. Free Man [3:21]
02. Like What You See? [2:50]
03. Tomorrow [3:13]
04. Kill For Your Love [3:18]
Innocence Of Youth (2020)
05. Innocence Of Youth [4:10]
06. A Dead Man Doesn't Lie [5:18]
07. My Babe Says That He Loves Me [2:57]
08. Fire [1:38]
09. Want Your Love [3:41]

Exact Audio Copy V1.3 from 2. September 2016

Отчёт EAC об извлечении, выполненном 9. июня 2021, 21:51

When Rivers Meet / The EP Collection

Дисковод: HL-DT-STDVD+-RW GH82N Adapter: 1 ID: 0

Режим чтения : Достоверность
Использование точного потока : Да
Отключение кэша аудио : Да
Использование указателей C2 : Нет

Коррекция смещения при чтении : 667
Способность читать области Lead-in и Lead-out : Нет
Заполнение пропущенных сэмплов тишиной : Да
Удаление блоков с тишиной в начале и конце : Нет
При вычислениях CRC использовались нулевые сэмплы : Да
Интерфейс : Встроенный Win32-интерфейс для Win NT/2000

Выходной формат : Пользовательский кодировщик
Выбранный битрейт : 1024 kBit/s
Качество : Высокий
Добавление ID3-тега : Нет
Утилита сжатия : C:\Program Files (x86)\Exact Audio Copy\FLAC\FLAC.EXE
Дополнительные параметры : -8 -V -T "ARTIST=%artist%" -T "ALBUM=%albumtitle%" -T "DATE=%year%" -T "GENRE=%genre%" -T "COMMENT=ripped by Los Pistoleros" %source%


TOC извлечённого CD

Трек | Старт | Длительность | Начальный сектор | Конечный сектор
––––––––––––––––––––––––––––––––––-
1 | 0:00.00 | 3:20.02 | 0 | 15001
2 | 3:20.02 | 2:49.23 | 15002 | 27699
3 | 6:09.25 | 3:13.00 | 27700 | 42174
4 | 9:22.25 | 3:17.42 | 42175 | 56991
5 | 12:39.67 | 4:09.63 | 56992 | 75729
6 | 16:49.55 | 5:17.33 | 75730 | 99537
7 | 22:07.13 | 2:56.21 | 99538 | 112758
8 | 25:03.34 | 1:37.32 | 112759 | 120065
9 | 26:40.66 | 3:40.48 | 120066 | 136613


Характеристики диапазона извлечения и сообщения об ошибках

Выбранный диапазон

Имя файла E:\BitComet\When Rivers Meet (flac)\2020 - The EP Collection\When Rivers Meet - The EP Collection.wav

Пиковый уровень 100.0 %
Скорость извлечения 6.5 X
Качество диапазона 100.0 %
CRC теста 43437127
CRC копии 43437127
Копирование… OK

Ошибок не произошло


AccurateRip: сводка

Трек 1 отсутствует в базе данных
Трек 2 отсутствует в базе данных
Трек 3 отсутствует в базе данных
Трек 4 отсутствует в базе данных
Трек 5 отсутствует в базе данных
Трек 6 отсутствует в базе данных
Трек 7 отсутствует в базе данных
Трек 8 отсутствует в базе данных
Трек 9 отсутствует в базе данных

Ни одного трека нет в базе AccurateRip

Конец отчёта

==== Контрольная сумма отчёта 8703F9DFACA965C0B1E346EFF5095F82612647057688913A7CF5A4176C10276B ====

Track List CD2 - We Fly Free (2020):

01. Did I Break The Law [4:07]
02. Bound For Nowhere [4:00]
03. Walking On The Wire [3:30]
04. I'd Have Fallen [3:34]
05. Battleground [3:54]
06. Kissing The Sky [3:43]
07. Breaker Of Chains [4:03]
08. I Will Fight [3:49]
09. Bury My Body [5:26]
10. Take Me To The River [3:14]
11. Friend Of Mine [3:30]
12. We Fly Free [2:41]

Exact Audio Copy V1.3 from 2. September 2016

Отчёт EAC об извлечении, выполненном 9. июня 2021, 22:15

When Rivers Meet / We Fly Free

Дисковод: HL-DT-STDVD+-RW GH82N Adapter: 1 ID: 0

Режим чтения : Достоверность
Использование точного потока : Да
Отключение кэша аудио : Да
Использование указателей C2 : Нет

Коррекция смещения при чтении : 667
Способность читать области Lead-in и Lead-out : Нет
Заполнение пропущенных сэмплов тишиной : Да
Удаление блоков с тишиной в начале и конце : Нет
При вычислениях CRC использовались нулевые сэмплы : Да
Интерфейс : Встроенный Win32-интерфейс для Win NT/2000

Выходной формат : Пользовательский кодировщик
Выбранный битрейт : 1024 kBit/s
Качество : Высокий
Добавление ID3-тега : Нет
Утилита сжатия : C:\Program Files (x86)\Exact Audio Copy\FLAC\FLAC.EXE
Дополнительные параметры : -8 -V -T "ARTIST=%artist%" -T "ALBUM=%albumtitle%" -T "DATE=%year%" -T "GENRE=%genre%" -T "COMMENT=ripped by Los Pistoleros" %source%


TOC извлечённого CD

Трек | Старт | Длительность | Начальный сектор | Конечный сектор
––––––––––––––––––––––––––––––––––-
1 | 0:00.00 | 4:06.53 | 0 | 18502
2 | 4:06.53 | 3:59.29 | 18503 | 36456
3 | 8:06.07 | 3:29.47 | 36457 | 52178
4 | 11:35.54 | 3:33.20 | 52179 | 68173
5 | 15:08.74 | 3:53.19 | 68174 | 85667
6 | 19:02.18 | 3:42.30 | 85668 | 102347
7 | 22:44.48 | 4:02.59 | 102348 | 120556
8 | 26:47.32 | 3:48.33 | 120557 | 137689
9 | 30:35.65 | 5:25.11 | 137690 | 162075
10 | 36:01.01 | 3:13.71 | 162076 | 176621
11 | 39:14.72 | 3:29.33 | 176622 | 192329
12 | 42:44.30 | 2:40.50 | 192330 | 204379


Характеристики диапазона извлечения и сообщения об ошибках

Выбранный диапазон

Имя файла E:\BitComet\When Rivers Meet (flac)\2020 - We Fly Free\When Rivers Meet - We Fly Free.wav

Пиковый уровень 98.7 %
Скорость извлечения 7.2 X
Качество диапазона 99.9 %
CRC теста 59421118
CRC копии 59421118
Копирование… OK

Ошибок не произошло


AccurateRip: сводка

Трек 1 точность не определена (достоверность 4) [03B648A1], AccurateRip вернул [1F75C9A8] (AR v2)
Трек 2 точность не определена (достоверность 4) [47642A69], AccurateRip вернул [98DCE5E8] (AR v2)
Трек 3 точность не определена (достоверность 4) [E9803366], AccurateRip вернул [C393211A] (AR v2)
Трек 4 точность не определена (достоверность 4) [67C86383], AccurateRip вернул [1D419F67] (AR v2)
Трек 5 точность не определена (достоверность 4) [7C58DFC6], AccurateRip вернул [6BA666DF] (AR v2)
Трек 6 точность не определена (достоверность 4) [34409590], AccurateRip вернул [D53D7CE9] (AR v2)
Трек 7 точность не определена (достоверность 4) [20D18462], AccurateRip вернул [2756CE61] (AR v2)
Трек 8 точность не определена (достоверность 4) [9E53C349], AccurateRip вернул [08A502C2] (AR v2)
Трек 9 точность не определена (достоверность 4) [EB785695], AccurateRip вернул [13AD2C10] (AR v2)
Трек 10 точность не определена (достоверность 4) [EF917C4A], AccurateRip вернул [C63E2BDB] (AR v2)
Трек 11 точность не определена (достоверность 4) [E7515C97], AccurateRip вернул [975D62A5] (AR v2)
Трек 12 точность не определена (достоверность 4) [AEB5D748], AccurateRip вернул [EE34DB94] (AR v2)

Ни один трек не прошёл проверки на точность
В вашей базе может быть иной вариант штамповки диска

Конец отчёта

==== Контрольная сумма отчёта F763F0A8EACF8D7B14DAA9C9AFD0952FA11E11FD09FE9F002F8EDFBDF2314F2E ====

All thanks go to Los Pistoleros (aka izia 1956)

>>> My Blog <<<

DOWNLOAD: