Subcategories

Will Bernard - Medicine Hat (1998) {Antilles}

Posted By: tiburon
Will Bernard - Medicine Hat (1998) {Antilles}

Will Bernard - Medicine Hat (1998) {Antilles}
EAC 1.1 | FLAC tracks level 8 | Cue+Log+M3U | Full Scans 300dpi | 314MB + 5% Recovery
MP3 CBR 320 Kbps | 131MB + 5% Recovery
Genre: Jazz, Fusion, Jazz-Rock
Will Bernard - Medicine Hat (1998) {Antilles}

Medicine Hat, the debut recording from the Will Bernard 4-Tet, is an engagingly eclectic set of adventurous contemporary jazz. Much like Medeski, Martin and Wood, Bernard has a rootsy worldbeat groove that draws heavily from soul-jazz, but his solos are far more ambitious and risky than those of the trio. There are a few moments on Medicine Hat where Bernard and his mates meander instead of explore, but on the whole, it's a first-class debut.
Track List
01 Close Shave (Part 1) 5:41
02 Boomtown 4:07
03 Medicine Hat 5:27
04 Prankster 5:50
05 3-Ply 4:50
06 Koko A Poko 3:44
07 Trap Door Spider 4:11
08 Nobody's Looking 4:15
09 Tank Top 6:11
10 Pollyanna 5:56
11 Do Not Bend 3:43

musicians
Guitar, Slide Guitar Will Bernard
Accordion, Organ Rob Burger
Bass John Shifflett
Drums Scott Amendola
Bass Clarinet, Clarinet Beth Custer
Trombone Jeff Cressman
Arrangements (Percussion) Peter Apfelbaum

Produced by Lee Townsend


Exact Audio Copy V1.1 from 23. June 2015

EAC extraction logfile from 21. October 2017, 16:54

Will Bernard / Medicine Hat

Used drive : MATSHITADVD+-RW SW830 Adapter: 1 ID: 0

Read mode : Secure
Utilize accurate stream : Yes
Defeat audio cache : Yes
Make use of C2 pointers : No

Read offset correction : 6
Overread into Lead-In and Lead-Out : No
Fill up missing offset samples with silence : Yes
Delete leading and trailing silent blocks : No
Null samples used in CRC calculations : Yes
Used interface : Native Win32 interface for Win NT & 2000
Gap handling : Appended to previous track

Used output format : User Defined Encoder
Selected bitrate : 896 kBit/s
Quality : High
Add ID3 tag : No
Command line compressor : C:\Program Files (x86)\Exact Audio Copy\Flac\flac.exe
Additional command line options : -8 -V -T "ARTIST=%artist%" -T "TITLE=%title%" -T "ALBUM=%albumtitle%" -T "DATE=%year%" -T "TRACKNUMBER=%tracknr%" -T "TOTALTRACKS=%numtracks%" -T "GENRE=%genre%" -T "ALBUMARTIST=%albumartist%" -T "ALBUM ARTIST=%albumartist%" -T "COMMENT=EAC Secure Mode, Test & Copy, AccurateRip, FLAC -8" %source%


TOC of the extracted CD

Track | Start | Length | Start sector | End sector
––––––––––––––––––––––––––––-
1 | 0:00.00 | 5:40.60 | 0 | 25559
2 | 5:40.60 | 4:07.35 | 25560 | 44119
3 | 9:48.20 | 5:26.52 | 44120 | 68621
4 | 15:14.72 | 5:49.55 | 68622 | 94851
5 | 21:04.52 | 4:49.70 | 94852 | 116596
6 | 25:54.47 | 3:43.50 | 116597 | 133371
7 | 29:38.22 | 4:10.68 | 133372 | 152189
8 | 33:49.15 | 4:15.07 | 152190 | 171321
9 | 38:04.22 | 6:11.30 | 171322 | 199176
10 | 44:15.52 | 5:56.18 | 199177 | 225894
11 | 50:11.70 | 3:43.65 | 225895 | 242684


Track 1

Filename G:\New Rips\Will Bernard - Medicine Hat (1998) [FLAC]\01 - Close Shave 01.wav

Pre-gap length 0:00:02.00

Peak level 100.0 %
Extraction speed 4.5 X
Track quality 100.0 %
Test CRC DD27F97C
Copy CRC DD27F97C
Accurately ripped (confidence 9) [9B25660B] (AR v2)
Copy OK

Track 2

Filename G:\New Rips\Will Bernard - Medicine Hat (1998) [FLAC]\02 - Boomtown.wav

Pre-gap length 0:00:03.70

Peak level 97.8 %
Extraction speed 4.9 X
Track quality 100.0 %
Test CRC 1FC85659
Copy CRC 1FC85659
Accurately ripped (confidence 10) [22F5FCC3] (AR v2)
Copy OK

Track 3

Filename G:\New Rips\Will Bernard - Medicine Hat (1998) [FLAC]\03 - Medicine Hat.wav

Peak level 100.0 %
Extraction speed 4.8 X
Track quality 99.9 %
Test CRC E189051B
Copy CRC E189051B
Accurately ripped (confidence 10) [7E844FC1] (AR v2)
Copy OK

Track 4

Filename G:\New Rips\Will Bernard - Medicine Hat (1998) [FLAC]\04 - Prankster.wav

Peak level 100.0 %
Extraction speed 6.1 X
Track quality 100.0 %
Test CRC 82867AF7
Copy CRC 82867AF7
Accurately ripped (confidence 10) [C3DB92A1] (AR v2)
Copy OK

Track 5

Filename G:\New Rips\Will Bernard - Medicine Hat (1998) [FLAC]\05 - 3 Ply.wav

Pre-gap length 0:00:01.37

Peak level 100.0 %
Extraction speed 6.5 X
Track quality 100.0 %
Test CRC 225FDE6A
Copy CRC 225FDE6A
Accurately ripped (confidence 10) [358D3E44] (AR v2)
Copy OK

Track 6

Filename G:\New Rips\Will Bernard - Medicine Hat (1998) [FLAC]\06 - Koko A Poco.wav

Pre-gap length 0:00:01.12

Peak level 95.7 %
Extraction speed 6.5 X
Track quality 100.0 %
Test CRC D9C7DA5D
Copy CRC D9C7DA5D
Accurately ripped (confidence 10) [DB5D0A26] (AR v2)
Copy OK

Track 7

Filename G:\New Rips\Will Bernard - Medicine Hat (1998) [FLAC]\07 - Trap Door Spider.wav

Peak level 100.0 %
Extraction speed 6.9 X
Track quality 100.0 %
Test CRC 5137C7D1
Copy CRC 5137C7D1
Accurately ripped (confidence 10) [FF00EB56] (AR v2)
Copy OK

Track 8

Filename G:\New Rips\Will Bernard - Medicine Hat (1998) [FLAC]\08 - Nobody's Looking.wav

Pre-gap length 0:00:01.28

Peak level 100.0 %
Extraction speed 7.3 X
Track quality 100.0 %
Test CRC 0E49E04C
Copy CRC 0E49E04C
Accurately ripped (confidence 10) [0898415D] (AR v2)
Copy OK

Track 9

Filename G:\New Rips\Will Bernard - Medicine Hat (1998) [FLAC]\09 - Tank Top.wav

Pre-gap length 0:00:02.42

Peak level 100.0 %
Extraction speed 7.9 X
Track quality 100.0 %
Test CRC 5ED24EA8
Copy CRC 5ED24EA8
Accurately ripped (confidence 10) [D10713C2] (AR v2)
Copy OK

Track 10

Filename G:\New Rips\Will Bernard - Medicine Hat (1998) [FLAC]\10 - Pollyanna.wav

Pre-gap length 0:00:03.00

Peak level 100.0 %
Extraction speed 7.2 X
Track quality 99.9 %
Test CRC 705B32E7
Copy CRC 705B32E7
Accurately ripped (confidence 10) [AF6C353E] (AR v2)
Copy OK

Track 11

Filename G:\New Rips\Will Bernard - Medicine Hat (1998) [FLAC]\11 - Do Not Bend.wav

Peak level 96.4 %
Extraction speed 8.1 X
Track quality 100.0 %
Test CRC FC46E3C6
Copy CRC FC46E3C6
Accurately ripped (confidence 10) [F40ADAA2] (AR v2)
Copy OK


All tracks accurately ripped

No errors occurred

End of status report

–– CUETools DB Plugin V2.1.6

[CTDB TOCID: V8qZxt5lU5gwq0twjKx1kgLVMJs-] found
Submit result: V8qZxt5lU5gwq0twjKx1kgLVMJs- has been confirmed
Track | CTDB Status
1 | (8/9) Accurately ripped
2 | (9/9) Accurately ripped
3 | (9/9) Accurately ripped
4 | (9/9) Accurately ripped
5 | (9/9) Accurately ripped
6 | (9/9) Accurately ripped
7 | (9/9) Accurately ripped
8 | (9/9) Accurately ripped
9 | (9/9) Accurately ripped
10 | (9/9) Accurately ripped
11 | (9/9) Accurately ripped


==== Log checksum DB5DA6BDABD6EE87E503FD6441D89D41E44C57A34C3FADA31A60B90F816F059D ====

Will Bernard - Medicine Hat (1998) {Antilles}
Will Bernard - Medicine Hat (1998) {Antilles}