Tags
Language
Tags

William Christie, Les Arts Florissants, Lorraine Hunt - Charpentier: Médée (1995)

Posted By: ArlegZ
William Christie, Les Arts Florissants, Lorraine Hunt - Charpentier: Médée (1995)

William Christie, Les Arts Florissants, Lorraine Hunt - Charpentier: Médée (1995)
EAC | FLAC | Image (Cue & Log) ~ 955 Mb | Total time: 61:17+74:36+58:39 | Scans included
Classical | Label: Erato ‎| 4509-96558-2 | Recorded: 1994

Charpentier’s Médée is one of the glories of the Baroque. Medea’s betrayal by Jason, her comprehensive revenge and the plight of those caught up in this epic tragedy prompted Charpentier to compose music of devastating power. Transcending the constraints of the Lullian tragédie lyrique, he produced characterisations of astonishing complexity and invested vast stretches of music with a dramatic pace and a harmonic richness rivalled among contemporaries only by Purcell. The electrifying exchanges of the third act, mingling pathos with extreme violence, alone put Charpentier on the same imaginative level as Rameau and Berlioz. The machinations of the fourth act and the dénouement in the fifth maintain the same captivating impetus.
This is William Christie’s second recording of Médée, and it far surpasses the earlier one on Harmonia Mundi. Unlike its predecessor, it is, but for a tuck in the first-act finale, complete. The level of understanding of all the performers is also vastly superior. Lorraine Hunt is simply breathtaking as Médée and she is partnered superbly by Mark Padmore’s Jason and Jean-Marc Salzmann’s sterling Oronte.
–BBC Music Magazine

Performer:
Médée - Lorraine Hunt
Jason - Mark Padmore
Créon - Bernard Deletré
Créuse - Monique Zanetti
Oronte - Jean-Marc Salzmann
Nérine - Noémi Rime
Cléone - Isabelle Desrochers
Arcas - François Bazola
Les Arts Florissants
Conducter - William Christie

Track List:
CD1:
01. Ouverture
02. Prologue. “Louis est triomphant” (Chef du peuple, chœurs d’habitants et de bergers)
03. “Paroissez, charmante Victoire” (Deux bergers, un habitant, chœurs)
04. “Le Ciel dans vos vœux s’intéresse” (La Victoire, Bellone, La Gloire, chœurs)
05. Loure
06. “Dans le bel âge si l’on n’est pas volage” (Berger, Deux Bergères)
07. Passepied, “Le bruit de tambours” (Chœurs)
08. Ouverture (reprise)
09. Premier Acte. Scène 1. Ritournelle, “Pour flatter mes ennemis” (Médée, Nérine)
10. “Qu’il le cherche, mais qu’il me craigne” (Médée, Nérine)
11. Scène 2. “D’où vous vient cet air sombre?” (Médée, Jason)
12. Scène 3. “Que je serois heureux, si j’étais moins aimé” (Jason, Arcas)
13. “Que ne peut demander la Gloire” (Jason, chœur de Corinthiens)
14. Scène 4. “L’Allégresse en ces lieux” (Créon), Fanfare
15. Scène 5. “Seigneur, la Thessalie attaquant vos Estats” (Oronte, Créon, Jason), Fanfare
16. Scène 6. “Courez aux champs de Mars” (Un Corinthien, Oronte, chœur de Corinthiens)
17. “Que d’épais bataillons, sur nos rêves descendent” (Chœur de Corinthiens et d’Argiens)
18. Rondeau pour les Corinthiens, Second Air pour les Argiens
19. “Quel bonheur suit la tendresse” (Un Corinthien, un Argien), Sarabande
20. “Que d’épais bataillons, sur nos rêves descendent” (reprise) (Chœur de Corinthiens et d’Argiens)
21. Entracte
CD2:
01. Deuxième Acte. Scène 1. Ritournelle, “Il est temps de parler sans feindre” (Créon, Médée)
02. “Vos reproches, Seigneur, ne sont pas légitimes” (Médée, Créon)
03. Scène 2. “Princesse, c’est sur vous que mon espoir se fonde” (Médée)
04. Scène 3. “Enfin à ton amour tout espoir est permis” (Créon, Créuse)
05. Scène 4. “Prince, venez apprendre une heureuse nouvelle” (Créon, Médée)
06. Scène 5. “Qu’ay-je à résoudre encor?” (Jason, Créuse)
07. “Quand son amour seroit extrême” (Créuse, Jason), Ritournelle
08. Scène 6. “Puisqu’un fier Ennemy” (Oronte, Créuse)
09. Scène 7. Prélude, “Qu’elle est charmante” (Chœur des captifs d’Amour, L’Amour, Créuse)
10. Chaconne, “Chi temer d’amore” (Une Captive, chœur)
11. Passacaille, “D’un amant qui veut plaire” (Trois autres captifs, chœur)
12. “Vous, voyez à quoi j’aspire” (L’Amour, Oronte, Jason, Créuse, chœur)
13. Troisième Acte. Scène 1. Ritournelle, “L’orage est violent” (Oronte, Médée)
14. “Souffrirez vous qu’on enlève ce cher object de vos désirs?” (Médée, Oronte)
15. Scène 2. Ritournelle pour les flûtes, “Vous sçavez l’exil qu’on m’ordonne” (Médée, Jason)
16. Scène 3. “Quel prix de mon amour” (Médée)
17. Scène 4. “Croiras-tu mon malheur?” (Médée, Nérine)
18. Scène 5. Préludes, “Noires filles du Stix” (Médée)
19. Scène 6. “L’Enfer obéit à ta voix” (Chœur de démons, Médée)
20. Scène 7. “Je voy le don fatal qu’exige ma rivale” (Médée, chœur)
21. Premier Air pour le Démons
22. “Dieu de Cocyte & des royaumes sombres” (Médée, chœur)
23. Seconde entrée des Démons, “Non, non, les plus hereux amans” (Chœur), Intermède
CD3:
01. Quatrième Acte. Scène 1. “Jamais on ne la vit si belle” (Cléone, Jason)
02. Scène 2. “Ah! Que d’attraits” (Jason, Créuse)
03. Scène 3. “Si-tost que je parois” (Oronte, Jason)
04. Scène 4. “Vos soupçons estoient vrais” (Oronte, Médée)
05. Scène 5. “D’où me vient cette horreur?” (Médée, Nérine)
06. Scène 6. “Vos adieux sont-ils faits?” (Créon, Médée)
07. Scène 7. Prélude tendre, “Objets agréables” (Médée)
08. Premier Air pour les Phantômes, “Aprés de mortelles alarmes“ (Une Fantôme, Chœur des Phantômes)
09. “Parquel prodige” (Créon)
10. “Tu resent le pouvoir” (Deux Phantômes, chœur), Ritournelle
11. Scène 8. “Mon pouvoir s’est connu” (Médée, Créon)
12. Scène 9. “Noires Divinités” (Créon), Intermède
13. Cinquième Acte. Scène 1. Prélude, “On ne peut sans effroy” (Médée, Nérine)
14. “Ne le épargnons pas”
15. Scène 2. “Si la pitié vous peut trouver sensible” (Créuse, Médée, Chœur de Corinthiens)
16. Scène 3. “Venez, parlez” (Créuse, Cléone)
17. “Ah, funeste revers!” (Chœur de Corinthiens), “C’est assez, laissez-moy” (Creuse)
18. Scène 4. “Eh bien, barbare” (Créuse, Médée)
19. Scène 5. “Quel feu dans mes veines s’allume?” (Créuse)
20. Scène 6. “Ah, Roy trop malheureux” (Jason, Créuse)
21. Scène 7. “Elle est morte, et je vis!” (Jason), Prélude
22. Scène 8. “C’est peu, pour contenter la douleur” (Médée, Jason)


Exact Audio Copy V1.5 from 20. February 2020

EAC extraction logfile from 18. June 2020, 15:58

William Christie, Les Arts Florissants / Charpentier - Médée CD1

Used drive : PIONEER DVD-RW DVR-218L Adapter: 1 ID: 1

Read mode : Secure
Utilize accurate stream : Yes
Defeat audio cache : Yes
Make use of C2 pointers : No

Read offset correction : 6
Overread into Lead-In and Lead-Out : No
Fill up missing offset samples with silence : Yes
Delete leading and trailing silent blocks : No
Null samples used in CRC calculations : Yes
Used interface : Native Win32 interface for Win NT & 2000

Used output format : User Defined Encoder
Selected bitrate : 128 kBit/s
Quality : High
Add ID3 tag : No
Command line compressor : C:\Program Files\Exact Audio Copy\Flac\flac.exe
Additional command line options : -V -8 -T "Date=%year%" -T "Genre=%genre%" %source%


TOC of the extracted CD

Track | Start | Length | Start sector | End sector
––––––––––––––––––––––––––––-
1 | 0:00.00 | 1:58.12 | 0 | 8861
2 | 1:58.12 | 3:09.53 | 8862 | 23089
3 | 5:07.65 | 3:08.60 | 23090 | 37249
4 | 8:16.50 | 5:53.30 | 37250 | 63754
5 | 14:10.05 | 2:55.07 | 63755 | 76886
6 | 17:05.12 | 2:59.25 | 76887 | 90336
7 | 20:04.37 | 2:34.70 | 90337 | 101956
8 | 22:39.32 | 2:22.03 | 101957 | 112609
9 | 25:01.35 | 3:58.15 | 112610 | 130474
10 | 28:59.50 | 2:39.57 | 130475 | 142456
11 | 31:39.32 | 6:57.20 | 142457 | 173751
12 | 38:36.52 | 2:40.23 | 173752 | 185774
13 | 41:17.00 | 2:14.05 | 185775 | 195829
14 | 43:31.05 | 1:25.27 | 195830 | 202231
15 | 44:56.32 | 2:47.68 | 202232 | 214824
16 | 47:44.25 | 2:36.32 | 214825 | 226556
17 | 50:20.57 | 4:33.68 | 226557 | 247099
18 | 54:54.50 | 1:14.00 | 247100 | 252649
19 | 56:08.50 | 2:46.20 | 252650 | 265119
20 | 58:54.70 | 1:40.37 | 265120 | 272656
21 | 60:35.32 | 0:36.43 | 272657 | 275399


Range status and errors

Selected range

Filename C:\ArlegZ\Charpentier - Médée CD1.wav

Peak level 87.5 %
Extraction speed 2.0 X
Range quality 100.0 %
Test CRC 68AB59BC
Copy CRC 68AB59BC
Copy OK

No errors occurred


AccurateRip summary

Track 1 cannot be verified as accurate (confidence 15) [042FFC8B], AccurateRip returned [0F6E1B0E] (AR v2)
Track 2 cannot be verified as accurate (confidence 16) [7FD26F9A], AccurateRip returned [E9A1C7DB] (AR v2)
Track 3 cannot be verified as accurate (confidence 16) [8EC3E161], AccurateRip returned [B4D4223C] (AR v2)
Track 4 cannot be verified as accurate (confidence 16) [94783297], AccurateRip returned [BE730240] (AR v2)
Track 5 cannot be verified as accurate (confidence 16) [7D04FF1B], AccurateRip returned [39C1935E] (AR v2)
Track 6 cannot be verified as accurate (confidence 16) [20F1946E], AccurateRip returned [674E32E0] (AR v2)
Track 7 cannot be verified as accurate (confidence 16) [3BBD0AAB], AccurateRip returned [241DAEA1] (AR v2)
Track 8 cannot be verified as accurate (confidence 16) [B5740FA0], AccurateRip returned [7EEFAA2C] (AR v2)
Track 9 cannot be verified as accurate (confidence 16) [959E1763], AccurateRip returned [30659947] (AR v2)
Track 10 cannot be verified as accurate (confidence 16) [FFD7981D], AccurateRip returned [8405B6CD] (AR v2)
Track 11 cannot be verified as accurate (confidence 16) [DAE5106F], AccurateRip returned [8EFA8FCB] (AR v2)
Track 12 cannot be verified as accurate (confidence 16) [0CA3D00D], AccurateRip returned [60382EDE] (AR v2)
Track 13 cannot be verified as accurate (confidence 16) [30C08262], AccurateRip returned [14408A12] (AR v2)
Track 14 cannot be verified as accurate (confidence 16) [88126578], AccurateRip returned [3C340DB1] (AR v2)
Track 15 cannot be verified as accurate (confidence 16) [BE1A4B2D], AccurateRip returned [89F0BEE7] (AR v2)
Track 16 cannot be verified as accurate (confidence 16) [44749732], AccurateRip returned [FC921B44] (AR v2)
Track 17 cannot be verified as accurate (confidence 16) [7DD73135], AccurateRip returned [0EF08E83] (AR v2)
Track 18 cannot be verified as accurate (confidence 16) [E1E8D545], AccurateRip returned [E9E73248] (AR v2)
Track 19 cannot be verified as accurate (confidence 16) [F5BBE74B], AccurateRip returned [EF91F760] (AR v2)
Track 20 cannot be verified as accurate (confidence 16) [CC83F738], AccurateRip returned [749BEF71] (AR v2)
Track 21 cannot be verified as accurate (confidence 16) [7E2D05B1], AccurateRip returned [BB64742E] (AR v2)

No tracks could be verified as accurate
You may have a different pressing from the one(s) in the database

End of status report

–– CUETools DB Plugin V2.1.6

[CTDB TOCID: FIWfoCf3bZExi1SUke.FPZVqx0w-] found
Submit result: FIWfoCf3bZExi1SUke.FPZVqx0w- has been confirmed
Track | CTDB Status
1 | (53/53) Accurately ripped
2 | (53/53) Accurately ripped
3 | (53/53) Accurately ripped
4 | (52/53) Accurately ripped
5 | (53/53) Accurately ripped
6 | (53/53) Accurately ripped
7 | (53/53) Accurately ripped
8 | (53/53) Accurately ripped
9 | (53/53) Accurately ripped
10 | (52/53) Accurately ripped
11 | (53/53) Accurately ripped
12 | (52/53) Accurately ripped
13 | (52/53) Accurately ripped
14 | (52/53) Accurately ripped
15 | (53/53) Accurately ripped
16 | (53/53) Accurately ripped
17 | (52/53) Accurately ripped
18 | (53/53) Accurately ripped
19 | (53/53) Accurately ripped
20 | (53/53) Accurately ripped
21 | (52/53) Accurately ripped


==== Log checksum 4C1877017DAC4B959590A6F3FAE0C72076F165F17D4CC810B2D239D7CB3DFB0F ====


Exact Audio Copy V1.5 from 20. February 2020

EAC extraction logfile from 18. June 2020, 17:22

William Christie, Les Arts Florissants / Charpentier - Médée CD2

Used drive : PIONEER DVD-RW DVR-218L Adapter: 1 ID: 1

Read mode : Secure
Utilize accurate stream : Yes
Defeat audio cache : Yes
Make use of C2 pointers : No

Read offset correction : 6
Overread into Lead-In and Lead-Out : No
Fill up missing offset samples with silence : Yes
Delete leading and trailing silent blocks : No
Null samples used in CRC calculations : Yes
Used interface : Native Win32 interface for Win NT & 2000

Used output format : User Defined Encoder
Selected bitrate : 128 kBit/s
Quality : High
Add ID3 tag : No
Command line compressor : C:\Program Files\Exact Audio Copy\Flac\flac.exe
Additional command line options : -V -8 -T "Date=%year%" -T "Genre=%genre%" %source%


TOC of the extracted CD

Track | Start | Length | Start sector | End sector
––––––––––––––––––––––––––––-
1 | 0:00.00 | 4:46.55 | 0 | 21504
2 | 4:46.55 | 2:03.07 | 21505 | 30736
3 | 6:49.62 | 3:21.03 | 30737 | 45814
4 | 10:10.65 | 2:07.60 | 45815 | 55399
5 | 12:18.50 | 0:54.62 | 55400 | 59511
6 | 13:13.37 | 4:56.00 | 59512 | 81711
7 | 18:09.37 | 2:11.25 | 81712 | 91561
8 | 20:20.62 | 2:32.03 | 91562 | 102964
9 | 22:52.65 | 4:15.72 | 102965 | 122161
10 | 27:08.62 | 4:32.00 | 122162 | 142561
11 | 31:40.62 | 5:17.73 | 142562 | 166409
12 | 36:58.60 | 3:10.05 | 166410 | 180664
13 | 40:08.65 | 4:27.15 | 180665 | 200704
14 | 44:36.05 | 1:24.57 | 200705 | 207061
15 | 46:00.62 | 7:33.73 | 207062 | 241109
16 | 53:34.60 | 4:58.00 | 241110 | 263459
17 | 58:32.60 | 4:14.02 | 263460 | 282511
18 | 62:46.62 | 1:22.00 | 282512 | 288661
19 | 64:08.62 | 1:48.48 | 288662 | 296809
20 | 65:57.35 | 0:47.45 | 296810 | 300379
21 | 66:45.05 | 1:34.70 | 300380 | 307499
22 | 68:20.00 | 3:44.62 | 307500 | 324361
23 | 72:04.62 | 2:33.13 | 324362 | 335849


Range status and errors

Selected range

Filename C:\ArlegZ\Charpentier - Médée CD2.wav

Peak level 94.2 %
Extraction speed 2.1 X
Range quality 99.9 %
Test CRC A03C5F32
Copy CRC A03C5F32
Copy OK

No errors occurred


AccurateRip summary

Track 1 cannot be verified as accurate (confidence 23) [BBE7040C], AccurateRip returned [23C58BE3] (AR v2)
Track 2 cannot be verified as accurate (confidence 24) [3DA032CD], AccurateRip returned [D55B947B] (AR v2)
Track 3 cannot be verified as accurate (confidence 24) [3C0FA2AF], AccurateRip returned [06732A98] (AR v2)
Track 4 cannot be verified as accurate (confidence 24) [4521F4F0], AccurateRip returned [65DAF519] (AR v2)
Track 5 cannot be verified as accurate (confidence 24) [4DC7243B], AccurateRip returned [213A8B34] (AR v2)
Track 6 cannot be verified as accurate (confidence 24) [BB64214A], AccurateRip returned [B77BBA9A] (AR v2)
Track 7 cannot be verified as accurate (confidence 24) [530D1180], AccurateRip returned [87C337F6] (AR v2)
Track 8 cannot be verified as accurate (confidence 24) [D1DDD608], AccurateRip returned [4AEC8EC3] (AR v2)
Track 9 cannot be verified as accurate (confidence 24) [9C63EEB4], AccurateRip returned [540B6169] (AR v2)
Track 10 cannot be verified as accurate (confidence 24) [D6B8BC42], AccurateRip returned [F4962CD6] (AR v2)
Track 11 cannot be verified as accurate (confidence 24) [316EF493], AccurateRip returned [1B4C6F5B] (AR v2)
Track 12 cannot be verified as accurate (confidence 24) [418F6E75], AccurateRip returned [15599F13] (AR v2)
Track 13 cannot be verified as accurate (confidence 24) [2D58D76F], AccurateRip returned [B8449AF7] (AR v2)
Track 14 cannot be verified as accurate (confidence 23) [AEBB778C], AccurateRip returned [EE3C21E6] (AR v2)
Track 15 cannot be verified as accurate (confidence 24) [726B112B], AccurateRip returned [7FE3365D] (AR v2)
Track 16 cannot be verified as accurate (confidence 24) [56A1AD59], AccurateRip returned [210C12E1] (AR v2)
Track 17 cannot be verified as accurate (confidence 24) [7CBFE4C0], AccurateRip returned [115D5C3E] (AR v2)
Track 18 cannot be verified as accurate (confidence 24) [985634E0], AccurateRip returned [199DF5E9] (AR v2)
Track 19 cannot be verified as accurate (confidence 24) [0471CA5D], AccurateRip returned [CAFDDA97] (AR v2)
Track 20 cannot be verified as accurate (confidence 24) [2818796B], AccurateRip returned [59781457] (AR v2)
Track 21 cannot be verified as accurate (confidence 24) [610E5DF1], AccurateRip returned [FB2429A9] (AR v2)
Track 22 cannot be verified as accurate (confidence 24) [B755F724], AccurateRip returned [5B97593C] (AR v2)
Track 23 cannot be verified as accurate (confidence 23) [445B8C50], AccurateRip returned [891D935D] (AR v2)

No tracks could be verified as accurate
You may have a different pressing from the one(s) in the database

End of status report

–– CUETools DB Plugin V2.1.6

[CTDB TOCID: BZ_A82zBViVYfrj7CYntvO2hq7U-] found
Submit result: BZ_A82zBViVYfrj7CYntvO2hq7U- has been confirmed
Track | CTDB Status
1 | (53/54) Accurately ripped
2 | (53/54) Accurately ripped
3 | (54/54) Accurately ripped
4 | (53/54) Accurately ripped
5 | (54/54) Accurately ripped
6 | (53/54) Accurately ripped
7 | (54/54) Accurately ripped
8 | (54/54) Accurately ripped
9 | (54/54) Accurately ripped
10 | (54/54) Accurately ripped
11 | (52/54) Accurately ripped
12 | (53/54) Accurately ripped
13 | (53/54) Accurately ripped
14 | (53/54) Accurately ripped
15 | (52/54) Accurately ripped
16 | (53/54) Accurately ripped
17 | (52/54) Accurately ripped
18 | (52/54) Accurately ripped
19 | (53/54) Accurately ripped
20 | (53/54) Accurately ripped
21 | (54/54) Accurately ripped
22 | (53/54) Accurately ripped
23 | (53/54) Accurately ripped


==== Log checksum 9DD114FBDADB7D8BEE1C0632C700420BD9FF744405858109BFA1F6536CF2D27B ====


Exact Audio Copy V1.5 from 20. February 2020

EAC extraction logfile from 18. June 2020, 18:44

William Christie, Les Arts Florissants / Charpentier - Médée CD3

Used drive : PIONEER DVD-RW DVR-218L Adapter: 1 ID: 1

Read mode : Secure
Utilize accurate stream : Yes
Defeat audio cache : Yes
Make use of C2 pointers : No

Read offset correction : 6
Overread into Lead-In and Lead-Out : No
Fill up missing offset samples with silence : Yes
Delete leading and trailing silent blocks : No
Null samples used in CRC calculations : Yes
Used interface : Native Win32 interface for Win NT & 2000

Used output format : User Defined Encoder
Selected bitrate : 128 kBit/s
Quality : High
Add ID3 tag : No
Command line compressor : C:\Program Files\Exact Audio Copy\Flac\flac.exe
Additional command line options : -V -8 -T "Date=%year%" -T "Genre=%genre%" %source%


TOC of the extracted CD

Track | Start | Length | Start sector | End sector
––––––––––––––––––––––––––––-
1 | 0:00.00 | 2:42.15 | 0 | 12164
2 | 2:42.15 | 4:18.52 | 12165 | 31566
3 | 7:00.67 | 2:08.70 | 31567 | 41236
4 | 9:09.62 | 2:44.55 | 41237 | 53591
5 | 11:54.42 | 2:34.55 | 53592 | 65196
6 | 14:29.22 | 4:47.65 | 65197 | 86786
7 | 19:17.12 | 1:18.68 | 86787 | 92704
8 | 20:36.05 | 3:41.45 | 92705 | 109324
9 | 24:17.50 | 3:02.65 | 109325 | 123039
10 | 27:20.40 | 2:31.62 | 123040 | 134426
11 | 29:52.27 | 0:56.70 | 134427 | 138696
12 | 30:49.22 | 3:11.33 | 138697 | 153054
13 | 34:00.55 | 2:40.72 | 153055 | 165126
14 | 36:41.52 | 3:06.35 | 165127 | 179111
15 | 39:48.12 | 4:25.25 | 179112 | 199011
16 | 44:13.37 | 1:36.00 | 199012 | 206211
17 | 45:49.37 | 1:59.55 | 206212 | 215191
18 | 47:49.17 | 1:18.48 | 215192 | 221089
19 | 49:07.65 | 1:19.52 | 221090 | 227066
20 | 50:27.42 | 5:55.65 | 227067 | 253756
21 | 56:23.32 | 0:40.25 | 253757 | 256781
22 | 57:03.57 | 1:41.48 | 256782 | 264404


Range status and errors

Selected range

Filename C:\ArlegZ\Charpentier - Médée CD3.wav

Peak level 93.8 %
Extraction speed 1.9 X
Range quality 100.0 %
Test CRC 4C00F2AD
Copy CRC 4C00F2AD
Copy OK

No errors occurred


AccurateRip summary

Track 1 cannot be verified as accurate (confidence 23) [0E122979], AccurateRip returned [75380077] (AR v2)
Track 2 cannot be verified as accurate (confidence 23) [19B5C091], AccurateRip returned [CE1FCB76] (AR v2)
Track 3 cannot be verified as accurate (confidence 23) [6304A2F0], AccurateRip returned [8C84E101] (AR v2)
Track 4 cannot be verified as accurate (confidence 23) [FCE9BEA4], AccurateRip returned [279538BC] (AR v2)
Track 5 cannot be verified as accurate (confidence 23) [87636B70], AccurateRip returned [4E9E87B8] (AR v2)
Track 6 cannot be verified as accurate (confidence 23) [244AE0FD], AccurateRip returned [2E5FAC69] (AR v2)
Track 7 cannot be verified as accurate (confidence 23) [2716E44A], AccurateRip returned [49815844] (AR v2)
Track 8 cannot be verified as accurate (confidence 23) [DF726DBF], AccurateRip returned [D0CD5CB3] (AR v2)
Track 9 cannot be verified as accurate (confidence 23) [22CC2A5D], AccurateRip returned [BFBDE0A9] (AR v2)
Track 10 cannot be verified as accurate (confidence 23) [06EFED11], AccurateRip returned [7453FE08] (AR v2)
Track 11 cannot be verified as accurate (confidence 23) [6BA00C7D], AccurateRip returned [4ADEAF99] (AR v2)
Track 12 cannot be verified as accurate (confidence 23) [F21BCD37], AccurateRip returned [51BB48B0] (AR v2)
Track 13 cannot be verified as accurate (confidence 23) [96733B3B], AccurateRip returned [FDFD1A3D] (AR v2)
Track 14 cannot be verified as accurate (confidence 23) [604B38EF], AccurateRip returned [804FE6D8] (AR v2)
Track 15 cannot be verified as accurate (confidence 23) [D6FF62D4], AccurateRip returned [AB9DD82A] (AR v2)
Track 16 cannot be verified as accurate (confidence 23) [D6BB311F], AccurateRip returned [C96A2D1E] (AR v2)
Track 17 cannot be verified as accurate (confidence 23) [B8F5D976], AccurateRip returned [67D8937D] (AR v2)
Track 18 cannot be verified as accurate (confidence 23) [0892D8AE], AccurateRip returned [0BFDBBE1] (AR v2)
Track 19 cannot be verified as accurate (confidence 23) [8309E1D9], AccurateRip returned [F2E8BF35] (AR v2)
Track 20 cannot be verified as accurate (confidence 23) [2A59D6C6], AccurateRip returned [7D4B5F1F] (AR v2)
Track 21 cannot be verified as accurate (confidence 23) [2702E536], AccurateRip returned [725449A8] (AR v2)
Track 22 cannot be verified as accurate (confidence 23) [568F0FF0], AccurateRip returned [5CEA3F4C] (AR v2)

No tracks could be verified as accurate
You may have a different pressing from the one(s) in the database

End of status report

–– CUETools DB Plugin V2.1.6

[CTDB TOCID: fZWLowJnyNlAGzD1M2KoH7esd1g-] found
Submit result: fZWLowJnyNlAGzD1M2KoH7esd1g- has been confirmed
Track | CTDB Status
1 | (53/53) Accurately ripped
2 | (53/53) Accurately ripped
3 | (53/53) Accurately ripped
4 | (52/53) Accurately ripped
5 | (53/53) Accurately ripped
6 | (53/53) Accurately ripped
7 | (53/53) Accurately ripped
8 | (53/53) Accurately ripped
9 | (53/53) Accurately ripped
10 | (52/53) Accurately ripped
11 | (53/53) Accurately ripped
12 | (53/53) Accurately ripped
13 | (53/53) Accurately ripped
14 | (52/53) Accurately ripped
15 | (52/53) Accurately ripped
16 | (53/53) Accurately ripped
17 | (53/53) Accurately ripped
18 | (53/53) Accurately ripped
19 | (53/53) Accurately ripped
20 | (53/53) Accurately ripped
21 | (53/53) Accurately ripped
22 | (52/53) Accurately ripped


==== Log checksum 8FF55715B3298E288EF19DE6196CB71A3085DF8F72E5D7F6243E935A37C672A6 ====

William Christie, Les Arts Florissants, Lorraine Hunt - Charpentier: Médée (1995)