Subcategories

Paul McCartney & Wings - Wings At The Speed Of Sound (1976) [2014, 2CD + DVD Deluxe Box Set]

Posted By: v3122
Paul McCartney & Wings - Wings At The Speed Of Sound (1976) [2014, 2CD + DVD Deluxe Box Set]

Paul McCartney & Wings - Wings At The Speed Of Sound (1976)
EAC | Flac(Image) + Cue + Log & MP3 CBR 320Kbps
2CD | Hear Music, HRM-35673-00 | ~ 419 or 163 Mb | Scans(jpg) -> 1.74 Gb
DVD5: NTSC 4:3 (720x480) VBR | LinearPCM, 2 ch, 1536 kbps - > 1.48 Gb
Pop Rock / Classic Rock

The original 11 track album, remastered at Abbey Road Studios in London. 7 previously unreleased bonus audio tracks, including a version of Beware My Love featuring John Bonham. DVD featuring previously unreleased footage of Wings in Venice in 1976, a new behind-the-scenes edit from the 1976 Wembley shows, as well as the original music video for Silly Love Songs.

~ amazon

Paul McCartney & Wings - Wings At The Speed Of Sound (1976) [2014, 2CD + DVD Deluxe Box Set]

WINGS AT THE SPEED OF SOUND, released in 1976, was Paul McCartney's seventh album after The Beatles, the fifth album for Wings, and the second with the lineup of Paul and Linda McCartney, Denny Laine, Jimmy McCulloch, and Joe English. For this album, Paul wanted Wings to be a full-fledged group, as The Beatles were, not just his backup band, so he gave all of the group members a chance to sing lead vocal, and in three cases, allowed them to write their own songs. The album was released twice on CD - in 1989 and 1993 - with the same bonus tracks: the Wings B-side "Sally G," and both sides of the instrumental single by the ad hoc group The Country Hams - "Walking In The Park With Eloise," written by Paul's dad Jim, and Paul's own "Bridge On The River Suite." All three of these tracks are now available on the new version of 1975's Venus and Mars.

The best-known songs on this album are the mega-hits "Silly Love Songs" and "Let 'Em In," but there are other gems, including Paul's rocker "Beware My Love," which I always considered a shot at the "Paul is dead" people; the funky "She's My Baby" and the gorgeous "Warm And Beautiful," both of which were redone for Paul's 1999 baroque work Working Classical; and the jazzy "San Ferry Anne." Denny Laine does two songs: Macca's "The Note You Never Wrote," which features an unkind reference to "The Mayor Of Baltimore" (probably the only time the late William Donald Schaefer was mentioned in a pop song, albeit indirectly), and Laine's own "Time To Hide," one of his best rockers. The late Jimmy McCulloch follows up "Medicine Jar," from VENUS AND MARS, with another anti-drug song, "Wino Junko." Unfortunately, Jimmy didn't follow his own advice; in 1979, two years after leaving Wings, he died of a drug overdose. Drummer Joe English does well on Macca's "Must Do Something About It," and the lovely Linda chips in with her first lead vocal on her own composition "Cook Of The House," an entertaining 1950s-style rocker. A year later, Linda would get a solo single of her very own, "Seaside Woman/B-Side To Seaside," released on Epic Records in the States (and in 1979 in the U.K., on A&M Records) under the pseudonym "Suzy And The Red Stripes." All three songs can be found on Linda's posthumous 1998 CD, Wide Prairie, which is better than a lot of people think.

Because WINGS AT THE SPEED OF SOUND was recorded during the mid-'70s vinyl shortage, when most single releases were album cuts, there is not much bonus material available. Disc 2 (Bonus Audio) features demos of "Silly Love Songs," "She's My Baby," "Let 'Em In," and "Warm And Beautiful" (an instrumental); a 24-second "Message To Joe" [English], spoken by Paul on a vocoder, sounding a lot like the "talking guitar" on an old Alvino Rey record; an alternate take of "Beware My Love," featuring the late Led Zeppelin drummer John Bonham; and Macca's guide vocal on "Must Do Something About It."

The bonus DVD features the "Silly Love Songs" music video, with its original soundtrack, not the remastered stereo/5.1 version from The McCartney Years, and two mini-documentaries, "Wings Over Wembley" and "Wings In Venice," both filmed during the 1975/76 world tour.

Again, the sound quality is superb, better than any previous release: the Universal Abbey Road team did their usual amazing job. Packaging is lavish, with a beautiful hard-cover book containing rare photos, new essays, and lots of souvenirs, including glossy photos, ticket stubs, handwritten lyric sheets, backstage passes, and more. As with VENUS AND MARS, the pouches holding the memorabilia are open at both ends, so the stuff does tend to fall out; be careful if you don't want to lose anything.

A high-resolution download of the audio material is also included for your enjoyment.

While not as good as its two illustrious predecessors, WINGS AT THE SPEED OF SOUND is still a very enjoyable album and is worth purchasing. Four stars.

By steve_manassas, amazon
Paul McCartney & Wings - Wings At The Speed Of Sound (1976):

Paul McCartney & Wings - Wings At The Speed Of Sound (1976) [2014, 2CD + DVD Deluxe Box Set]

Tracklist CD1 - Original Album Remastered:

01. Let 'Em In 05:11
02. The Note You Never Wrote 04:20
03. She's My Baby 03:08
04. Beware My Love 06:28
05. Wino Junko 05:21
06. Silly Love Songs 05:54
07. Cook Of The House 02:39
08. Time To Hide 04:32
09. Must Do Something About It 03:43
10. San Ferry Anne 02:07
11. Warm And Beautiful 03:15

Exact Audio Copy V1.0 beta 3 from 29. August 2011

EAC extraction logfile from 21. November 2014, 11:31

Paul McCartney And Wings / At The Speed Of Sound

Used drive : PLEXTOR BD-R PX-B950SA Adapter: 6 ID: 0

Read mode : Secure
Utilize accurate stream : Yes
Defeat audio cache : Yes
Make use of C2 pointers : No

Read offset correction : 6
Overread into Lead-In and Lead-Out : No
Fill up missing offset samples with silence : Yes
Delete leading and trailing silent blocks : No
Null samples used in CRC calculations : Yes
Used interface : Native Win32 interface for Win NT & 2000

Used output format : Internal WAV Routines
Sample format : 44.100 Hz; 16 Bit; Stereo


TOC of the extracted CD

Track | Start | Length | Start sector | End sector
––––––––––––––––––––––––––––-
1 | 0:00.00 | 5:11.66 | 0 | 23390
2 | 5:11.66 | 4:20.74 | 23391 | 42964
3 | 9:32.65 | 3:08.27 | 42965 | 57091
4 | 12:41.17 | 6:28.11 | 57092 | 86202
5 | 19:09.28 | 5:21.25 | 86203 | 110302
6 | 24:30.53 | 5:54.18 | 110303 | 136870
7 | 30:24.71 | 2:39.13 | 136871 | 148808
8 | 33:04.09 | 4:32.10 | 148809 | 169218
9 | 37:36.19 | 3:43.20 | 169219 | 185963
10 | 41:19.39 | 2:07.61 | 185964 | 195549
11 | 43:27.25 | 3:15.47 | 195550 | 210221


Range status and errors

Selected range

Filename C:\Users\Meijin\Desktop\ALLexxess\Paul McCartney\1976 At The Speed Of Sound (2CD + DVD Box Set Hear Music 2014)\CD1 Original Album\Paul McCartney And Wings - At The Speed Of Sound.wav

Peak level 99.5 %
Extraction speed 7.3 X
Range quality 100.0 %
Test CRC 79693EA9
Copy CRC 79693EA9
Copy OK

No errors occurred


AccurateRip summary

Track 1 accurately ripped (confidence 1) [4F821135] (AR v2)
Track 2 accurately ripped (confidence 1) [948BE69F] (AR v1)
Track 3 accurately ripped (confidence 1) [2E41F66F] (AR v1)
Track 4 accurately ripped (confidence 1) [1A695C90] (AR v1)
Track 5 accurately ripped (confidence 1) [338C7DB7] (AR v1)
Track 6 accurately ripped (confidence 1) [26F2CD86] (AR v2)
Track 7 accurately ripped (confidence 1) [22C6283E] (AR v1)
Track 8 accurately ripped (confidence 1) [22BEB211] (AR v1)
Track 9 accurately ripped (confidence 1) [AA495A74] (AR v1)
Track 10 accurately ripped (confidence 1) [382159BC] (AR v1)
Track 11 accurately ripped (confidence 1) [1FACCBF6] (AR v1)

All tracks accurately ripped

End of status report

foobar2000 1.2.9 / Dynamic Range Meter 1.1.1
log date: 2014-11-22 03:19:15

––––––––––––––––––––––––––––––––––––––––
Analyzed: Paul McCartney And Wings / At The Speed Of Sound
––––––––––––––––––––––––––––––––––––––––

DR Peak RMS Duration Track
––––––––––––––––––––––––––––––––––––––––
DR11 -0.15 dB -12.68 dB 5:12 01-Let 'Em In
DR10 -0.12 dB -14.10 dB 4:21 02-The Note You Never Wrote
DR10 -0.13 dB -11.90 dB 3:08 03-She's My Baby
DR8 -0.11 dB -11.36 dB 6:28 04-Beware My Love
DR9 -0.04 dB -11.46 dB 5:21 05-Wino Junko
DR10 -0.06 dB -12.59 dB 5:54 06-Silly Love Songs
DR10 -0.22 dB -12.56 dB 2:39 07-Cook Of The House
DR9 -0.17 dB -10.91 dB 4:32 08-Time To Hide
DR11 -0.21 dB -12.59 dB 3:43 09-Must Do Something About It
DR11 -0.22 dB -12.20 dB 2:08 10-San Ferry Anne
DR11 -0.97 dB -15.16 dB 3:16 11-Warm And Beautiful
––––––––––––––––––––––––––––––––––––––––

Number of tracks: 11
Official DR value: DR10

Samplerate: 44100 Hz
Channels: 2
Bits per sample: 16
Bitrate: 853 kbps
Codec: FLAC

[CUETools log; Date: 22.11.2014 1:58:23; Version: 2.1.4]
[CTDB TOCID: OYDehgHz1e6V7vzRDrQu2PCjyLw-] found.
Track | CTDB Status
1 | (15/15) Accurately ripped
2 | (15/15) Accurately ripped
3 | (15/15) Accurately ripped
4 | (15/15) Accurately ripped
5 | (15/15) Accurately ripped
6 | (15/15) Accurately ripped
7 | (15/15) Accurately ripped
8 | (15/15) Accurately ripped
9 | (15/15) Accurately ripped
10 | (15/15) Accurately ripped
11 | (15/15) Accurately ripped
[AccurateRip ID: 0014da3d-00b28e0d-990af20b] found.
Track [ CRC | V2 ] Status
01 [b3ea8b39|4f821135] (1+1/2) Accurately ripped
02 [948be69f|6812987d] (1+0/1) Accurately ripped
03 [2e41f66f|9d80775c] (1+0/1) Accurately ripped
04 [1a695c90|39321ba8] (1+0/1) Accurately ripped
05 [338c7db7|8ddb9579] (1+0/1) Accurately ripped
06 [b9049cbf|26f2cd86] (1+1/2) Accurately ripped
07 [22c6283e|a7c27e78] (1+0/1) Accurately ripped
08 [22beb211|dffb2a86] (1+0/1) Accurately ripped
09 [aa495a74|eebdb66d] (1+0/1) Accurately ripped
10 [382159bc|8e9b1fd9] (1+0/1) Accurately ripped
11 [1faccbf6|6b6080b4] (1+0/1) Accurately ripped

Track Peak [ CRC32 ] [W/O NULL] [ LOG ]
– 99,5 [79693EA9] [6F70F19A] CRC32
01 98,2 [E661F1E2] [C8B8BF3D]
02 98,6 [4F55BA94] [16D97E24]
03 98,5 [84E96889] [47248C3E]
04 98,7 [2C2150DA] [36AF0699]
05 99,5 [9F0C74A0] [760CDF5E]
06 99,3 [177E98F6] [FFC8AA49]
07 97,4 [CD3037F4] [0AD17575]
08 98,0 [520D8978] [9B04C0E1]
09 97,5 [76521529] [FE23D46C]
10 97,5 [D384E2B1] [793FA602]
11 89,4 [C7A645B1] [1941FD1B]

Paul McCartney & Wings - Wings At The Speed Of Sound (1976) [2014, 2CD + DVD Deluxe Box Set]

Tracklist CD2 - Bonus Audio:

01. Silly Love Songs (Demo) 02:45
02. She's My Baby (Demo) 03:46
03. Message To Joe 00:24
04. Beware My Love (John Bonham Version) 05:35
05. Must Do Something About It (Paul's Version) 03:37
06. Let 'Em In (Demo) 04:18
07. Warm And Beautiful (Instrumental Demo) 01:29

Exact Audio Copy V1.0 beta 3 from 29. August 2011

EAC extraction logfile from 21. November 2014, 11:09

Paul McCartney And Wings / At The Speed Of Sound Bonus

Used drive : PLEXTOR BD-R PX-B950SA Adapter: 6 ID: 0

Read mode : Secure
Utilize accurate stream : Yes
Defeat audio cache : Yes
Make use of C2 pointers : No

Read offset correction : 6
Overread into Lead-In and Lead-Out : No
Fill up missing offset samples with silence : Yes
Delete leading and trailing silent blocks : No
Null samples used in CRC calculations : Yes
Used interface : Native Win32 interface for Win NT & 2000

Used output format : Internal WAV Routines
Sample format : 44.100 Hz; 16 Bit; Stereo


TOC of the extracted CD

Track | Start | Length | Start sector | End sector
––––––––––––––––––––––––––––-
1 | 0:00.00 | 2:45.57 | 0 | 12431
2 | 2:45.57 | 3:46.62 | 12432 | 29443
3 | 6:32.44 | 0:24.07 | 29444 | 31250
4 | 6:56.51 | 5:35.25 | 31251 | 56400
5 | 12:32.01 | 3:37.47 | 56401 | 72722
6 | 16:09.48 | 4:18.23 | 72723 | 92095
7 | 20:27.71 | 1:29.56 | 92096 | 98826


Range status and errors

Selected range

Filename C:\Users\Meijin\Desktop\ALLexxess\Paul McCartney\1976 At The Speed Of Sound (2CD + DVD Box Set Hear Music 2014)\CD2 Bonus Audio\Paul McCartney And Wings - At The Speed Of Sound Bonus.wav

Peak level 98.4 %
Extraction speed 6.0 X
Range quality 99.9 %
Test CRC AECF5D69
Copy CRC AECF5D69
Copy OK

No errors occurred


AccurateRip summary

Track 1 accurately ripped (confidence 1) [3A5C04C6] (AR v1)
Track 2 accurately ripped (confidence 1) [47750BDF] (AR v1)
Track 3 accurately ripped (confidence 1) [C2FE3E69] (AR v1)
Track 4 accurately ripped (confidence 1) [B613C738] (AR v1)
Track 5 accurately ripped (confidence 1) [7D93BD00] (AR v1)
Track 6 accurately ripped (confidence 1) [39317A62] (AR v1)
Track 7 accurately ripped (confidence 1) [159107B2] (AR v1)

All tracks accurately ripped

End of status report

foobar2000 1.2.9 / Dynamic Range Meter 1.1.1
log date: 2014-11-22 03:18:57

––––––––––––––––––––––––––––––––––––––––
Analyzed: Paul McCartney And Wings / At The Speed Of Sound Bonus
––––––––––––––––––––––––––––––––––––––––

DR Peak RMS Duration Track
––––––––––––––––––––––––––––––––––––––––
DR11 -0.75 dB -13.67 dB 2:46 01-Silly Love Songs (Demo)
DR10 -3.74 dB -16.45 dB 3:47 02-She's My Baby (Demo)
DR10 -2.88 dB -16.49 dB 0:24 03-Message To Joe
DR11 -0.14 dB -13.02 dB 5:35 04-Beware My Love (John Bonham Version)
DR11 -1.40 dB -13.97 dB 3:38 05-Must Do Something About It (Paul's Version)
DR9 -2.90 dB -12.71 dB 4:18 06-Let 'Em In (Demo)
DR8 -4.38 dB -14.01 dB 1:30 07-Warm And Beautiful (Instrumental Demo)
––––––––––––––––––––––––––––––––––––––––

Number of tracks: 7
Official DR value: DR10

Samplerate: 44100 Hz
Channels: 2
Bits per sample: 16
Bitrate: 772 kbps
Codec: FLAC

[CUETools log; Date: 22.11.2014 1:58:37; Version: 2.1.4]
[CTDB TOCID: FwMGPOSHNo7IcGH4DOxLTDgjgbU-] found.
Track | CTDB Status
1 | (14/15) Accurately ripped
2 | (15/15) Accurately ripped
3 | (15/15) Accurately ripped
4 | (15/15) Accurately ripped
5 | (15/15) Accurately ripped
6 | (14/15) Accurately ripped
7 | (15/15) Accurately ripped
[AccurateRip ID: 0005ffd6-00247f18-5c052507] found.
Track [ CRC | V2 ] Status
01 [3a5c04c6|7db317e8] (1+0/1) Accurately ripped
02 [47750bdf|0a936360] (1+0/1) Accurately ripped
03 [c2fe3e69|f8218ee4] (1+0/1) Accurately ripped
04 [b613c738|846f5f97] (1+0/1) Accurately ripped
05 [7d93bd00|41765dcf] (1+0/1) Accurately ripped
06 [39317a62|28fbecc6] (1+0/1) Accurately ripped
07 [159107b2|6cdf2a00] (1+0/1) Accurately ripped

Track Peak [ CRC32 ] [W/O NULL] [ LOG ]
– 98,4 [AECF5D69] [C38EC4DE] CRC32
01 91,7 [D20236AB] [372215AC]
02 65,0 [E4C76BB4] [FAB1EBB0]
03 71,7 [DB694118] [155947EA]
04 98,4 [949849C4] [139CCCA2]
05 85,0 [302280F5] [CFBF4749]
06 71,6 [AB9F0CB6] [F1FC3EED]
07 60,4 [E515CCD6] [45079DCF]

Paul McCartney & Wings - Wings At The Speed Of Sound (1976) [2014, 2CD + DVD Deluxe Box Set]

Tracklist DVD - Bonus Film:

01 Silly Love Songs
02 Wings Over Wembley
03 Wings Over

Title: Paul McCartney And Wings 1976 - At The Speed Of Sound - DVD
Size: 1.41 Gb ( 1 480 096,00 KBytes ) - DVD-5
Enabled regions: 1, 2, 3, 4, 5, 6, 7, 8

VTS_01 :
Play Length: 00:00:10+00:00:14
Video: NTSC 4:3 (720x480) VBR

VTS_02 :
Play Length: 00:22:15+{00:05:45}+00:13:22+{00:03:10}+00:00:20
Video: NTSC 4:3 (720x480) VBR
Audio:
English (LinearPCM, 2 ch)


Paul McCartney & Wings - Wings At The Speed Of Sound (1976) [2014, 2CD + DVD Deluxe Box Set]

Paul McCartney & Wings - Wings At The Speed Of Sound (1976) [2014, 2CD + DVD Deluxe Box Set]

Paul McCartney & Wings - Wings At The Speed Of Sound (1976) [2014, 2CD + DVD Deluxe Box Set]

Paul McCartney & Wings - Wings At The Speed Of Sound (1976) [2014, 2CD + DVD Deluxe Box Set]

All thanks go to ALLexxess