Subcategories
Tags
Language
Tags

Wintersun - Time I (2012) [Limited Ed.] CD+DVD

Posted By: Andi_Deris
Wintersun - Time I (2012) [Limited Ed.] CD+DVD

Wintersun - Time I (2012) [Limited Ed.] CD+DVD
EAC Rip | FLAC: Image+Cue+Log | 310 Mb | MP3 CBR 320 kbps | 113 Mb | Scans | 96 Mb | Time: 43:56
DVD5 | Video: PAL 16:9 (720x576) | Audio: PCM Stereo | 4.1 Gb | Time: 86 min
Nuclear Blast Rec. | 27361 21060
Melodic Death Metal, Symphonic/Epic Metal

Over the course of eight years the band have taken both music and visuals to yet another level and while listening to their new effort you´ll be taken on a journey through the doors of time, a journey beyond the stars, beyond the birth of the worlds to an infinite universe. Epic Metal that breaks through the boundaries not only of music, but the universe! The main goal was to make an album that would be really astonishing to listen to, because the concept of time itself is simply just that: astonishing, overwhelming, staggering.

Wintersun - Time I (2012) [Limited Ed.] CD+DVD




Wintersun - Time I (2012) [Limited Ed.] CD+DVD


CD

01. When Time Fades Away (4:07)
02. Sons of Winter and Stars (13:31)
I: Rain of Stars
II: Surrounded by Darkness
III: Journey Inside a Dream
IV: Sons of Winter and Stars
03. Land of Snow and Sorrow (8:21)
04. Darkness and Frost (2:23)
05. Time (11:44)
06. Hidden Track (Bonus) (3:50)

Wintersun - Time I (2012) [Limited Ed.] CD+DVD


DVD

"Time I" Live Rehearsals at Sonic Pump Studios (34:30)
01. Land Of Snow And Sorrow
02. Darkness And Frost & Time
03. Sons Of Winter And Stars

Licks & Tricks of TIME I with Each Band Member
"Sons Of Winter and Stars" - Project Demonstration (Interview at Jari´s Home Studio) (26:02)
Photo Gallery (Live At Rehearsals, Helsinki)

Wintersun - Time I (2012) [Limited Ed.] CD+DVD

Wintersun - Time I (2012) [Limited Ed.] CD+DVD
Wintersun - Time I (2012) [Limited Ed.] CD+DVD
Wintersun - Time I (2012) [Limited Ed.] CD+DVD
Wintersun - Time I (2012) [Limited Ed.] CD+DVD
Wintersun - Time I (2012) [Limited Ed.] CD+DVD


Produced by Jari Mäenpää

The Band

• Jari Mäenpää - Vocals, Guitar, Computer
• Teemu Mäntysaari - Guitar
• Jukka Koskinen - Bass
• Kai Hahto - Drums

Exact Audio Copy V0.99 prebeta 5 from 4. May 2009

EAC extraction logfile from 20. October 2012, 15:56

Wintersun / Time I

Used drive : ATAPI iHAS624 B Adapter: 2 ID: 0

Read mode : Secure
Utilize accurate stream : Yes
Defeat audio cache : Yes
Make use of C2 pointers : No

Read offset correction : 6
Overread into Lead-In and Lead-Out : No
Fill up missing offset samples with silence : Yes
Delete leading and trailing silent blocks : No
Null samples used in CRC calculations : Yes
Used interface : Installed external ASPI interface

Used output format : User Defined Encoder
Selected bitrate : 40 kBit/s
Quality : High
Add ID3 tag : No
Command line compressor : C:\Program Files\Exact Audio Copy\Flac\flac.exe
Additional command line options : -6 -V %s


TOC of the extracted CD

Track | Start | Length | Start sector | End sector
––––––––––––––––––––––––––––-
1 | 0:00.00 | 4:07.60 | 0 | 18584
2 | 4:07.60 | 13:31.05 | 18585 | 79414
3 | 17:38.65 | 8:21.51 | 79415 | 117040
4 | 26:00.41 | 2:23.74 | 117041 | 127839
5 | 28:24.40 | 11:44.54 | 127840 | 180693
6 | 40:09.19 | 3:50.31 | 180694 | 197974


Range status and errors

Selected range

Filename D:\Download\Wintersun - Time I.wav

Peak level 98.8 %
Range quality 100.0 %
Copy CRC ACF28FF6
Copy OK

No errors occurred


AccurateRip summary

Track 1 not present in database
Track 2 not present in database
Track 3 not present in database
Track 4 not present in database
Track 5 not present in database
Track 6 not present in database

None of the tracks are present in the AccurateRip database

End of status report

Enabled regions: 1, 2, 3, 4, 5, 6, 7, 8

VTS_01 :
Play Length: 00:00:10+00:00:43
Video: PAL 16:9 (720x576) VBR, Auto Letterboxed
Audio:
Not specified (LinearPCM, 2 ch)

VTS_02 :
Play Length: 00:34:30
Video: PAL 16:9 (720x576) VBR, Auto Letterboxed
Audio:
Not specified, LPCM, Delay = 0 mSec


VTS_03 :
Play Length: 00:03:24+00:08:30+00:04:59+00:05:07
Video: PAL 16:9 (720x576) VBR, Auto Letterboxed
Audio:
Not specified, LPCM, Delay = 0 mSec


VTS_04 :
Play Length: 00:26:02
Video: PAL 16:9 (720x576) VBR, Auto Letterboxed
Audio:
Not specified, LPCM, Delay = 0 mSec


VTS_05 :
Play Length: 00:03:07
Video: PAL 16:9 (720x576) VBR, Auto Letterboxed
Audio:
Not specified, LPCM, Delay = 0 mSec


Many thanks to the original uploader: Ilijan

SEE also:
Cain's Offering 2009 Gather The Faithful [Japanese Ed.]

Trees Of Eternity 2016 Hour Of The Nightingale [Limited Ed.] Digipak

Wintersun 2004 Wintersun [Japanese Ed.]
Wintersun 2017 The Forest Seasons [Japanese Ed.] 2CD