Tags
Language
Tags
November 2022
Su Mo Tu We Th Fr Sa
30 31 1 2 3 4 5
6 7 8 9 10 11 12
13 14 15 16 17 18 19
20 21 22 23 24 25 26
27 28 29 30 1 2 3

Wishbone Ash - Wishbone Four (1973) {1994, Remastered}

Posted By: popsakov
Wishbone Ash - Wishbone Four (1973) {1994, Remastered}

Wishbone Ash - Wishbone Four (1973) {1994, Remastered}
EAC Rip | FLAC (Img) + Cue + Log ~ 285 Mb | MP3 CBR320 ~ 133 Mb
Full Scans | 00:43:38 | RAR 5% Recovery
Hard Rock, Classic Rock | MCA Records #MCLD 19149

Wishbone Four is the fourth studio album by British rock band Wishbone Ash, released in 1973. It was a departure from their previous album, Argus, in that it lacked that recording's overall cohesion and atmosphere and the loose conceptual framework of a stately, pastoral and warring medieval England. Containing only hints of the extended twin-lead guitar harmonies, Wishbone Four's stylistic variety found its footing in acoustic folk elements in half of the eight-song set ("Ballad of the Beacon", "Everybody Needs a Friend", "Sorrel" and "Sing Out the Song"), two aggressive and melodic starters on each side of the vinyl release (Side 1: So Many Things to Say" and Side 2: "Doctor"), and the band's first use of horns on the semi-autobiographical "rave-up" touring song "No Easy Road".

Although the sombre, sensitive and rather more fragile acoustic songs contained the wistful intro elements that featured on the previous album, the lead guitars lacked the slow climb of the band's trademark duelling crescendos and energetic fretwork expected from the band at the time, tending to a more subtle and subdued interplay on the longer tracks. Wishbone Four was popular among fans upon its release as it implied musical growth and a willingness to experiment in the band's divergence of a successful formula (similar at the time to the effect of Led Zeppelin III's contrast to that band's previous efforts).

Wishbone Four was also the first release not produced by Derek Lawrence but by the band themselves. There's the Rub, the band's next and fifth studio album' was the first album to feature guitarist-vocalist Laurie Wisefield, who would be a major part of the band's creative direction for the next 11 years, as founding member Ted Turner left the band after the subsequent Wishbone Four tour.

~ Wiki

The progressive aspirations were put aside for Wishbone Four, the group's most solid-rocking album, though the folk-based element is still there, more solid than ever. "Ballad of the Beacon" is a genuinely beautiful song, and might have come from any number of electric folk-rock bands – the fact that it came from Wishbone Ash indicates just how serious they were in wanting to explore some of these sounds. Their most mature and successful album.

~ Bruce Eder, All Music

***************

Wishbone Ash - Wishbone Four (1973) {1994, Remastered}

Wishbone Ash - Wishbone Four (1973) {1994, Remastered}

Track List:

01. So many Things to Say [05:06]
02. Ballad of the Beacon [05:05]
03. No Easy Road [03:49]
04. Everybody Needs a Friend [08:25]
05. Doctor [05:54]
06. Sorrel [05:04]
07. Sing Out the Song [04:25]
08. Rock'n Roll Widow [05:52]

Exact Audio Copy V1.0 beta 1 from 15. November 2010

EAC extraction logfile from 5. January 2015, 22:42

Wishbone Ash / Wishbone Four

Used drive : MATSHITADVD-RAM UJ8A0AS Adapter: 0 ID: 1

Read mode : Secure
Utilize accurate stream : Yes
Defeat audio cache : Yes
Make use of C2 pointers : No

Read offset correction : 102
Overread into Lead-In and Lead-Out : No
Fill up missing offset samples with silence : Yes
Delete leading and trailing silent blocks : No
Null samples used in CRC calculations : Yes
Used interface : Native Win32 interface for Win NT & 2000

Used output format : Internal WAV Routines
Sample format : 44.100 Hz; 16 Bit; Stereo


TOC of the extracted CD

Track | Start | Length | Start sector | End sector
––––––––––––––––––––––––––––-
1 | 0:00.45 | 5:05.50 | 45 | 22969
2 | 5:06.20 | 5:04.72 | 22970 | 45841
3 | 10:11.17 | 3:48.45 | 45842 | 62986
4 | 13:59.62 | 8:24.53 | 62987 | 100839
5 | 22:24.40 | 5:53.40 | 100840 | 127354
6 | 28:18.05 | 5:03.45 | 127355 | 150124
7 | 33:21.50 | 4:24.67 | 150125 | 169991
8 | 37:46.42 | 5:51.23 | 169992 | 196339


Range status and errors

Selected range

Filename C:\Users\Alex\Music\Wishbone Ash - Wishbone Four.wav

Peak level 92.1 %
Extraction speed 0.1 X
Range quality 100.0 %
Test CRC C07A185A
Copy CRC C07A185A
Copy OK

No errors occurred


AccurateRip summary

Track 1 accurately ripped (confidence 3) [1A93F58E]
Track 2 accurately ripped (confidence 3) [6D569440]
Track 3 accurately ripped (confidence 3) [2E531029]
Track 4 accurately ripped (confidence 3) [D8C16904]
Track 5 accurately ripped (confidence 3) [4DA52131]
Track 6 accurately ripped (confidence 3) [C793C650]
Track 7 accurately ripped (confidence 3) [D69F8317]
Track 8 accurately ripped (confidence 3) [E7B28493]

All tracks accurately ripped

End of status report

==== Log checksum 5471DED75FD0D9B3952BA8A857065D5C84FF86141042F471CF8F766FBFE9C6A2 ====

[CUETools log; Date: 17.07.2019 18:00:28; Version: 2.1.6]
Pregap length 00:00:45.
[CTDB TOCID: .ax3J1W4G_AV6Zgi6IVMnVnSJJk-] found.
Track | CTDB Status
1 | (48/49) Accurately ripped
2 | (48/49) Accurately ripped
3 | (48/49) Accurately ripped
4 | (47/49) Accurately ripped
5 | (47/49) Accurately ripped
6 | (48/49) Accurately ripped
7 | (48/49) Accurately ripped
8 | (47/49) Accurately ripped
[AccurateRip ID: 000d5fd0-0059bf3c-510a3908] found.
Track [ CRC | V2 ] Status
01 [1a93f58e|b2817bf0] (00+06/41) Accurately ripped
02 [6d569440|a18983e8] (00+06/41) Accurately ripped
03 [2e531029|d652ffbd] (00+06/41) Accurately ripped
04 [d8c16904|ce46fbfc] (00+06/41) Accurately ripped
05 [4da52131|4070991c] (00+06/41) Accurately ripped
06 [c793c650|b9df2ced] (00+06/41) Accurately ripped
07 [d69f8317|604e3902] (00+06/40) Accurately ripped
08 [e7b28493|c2f84316] (00+06/41) Accurately ripped
Offsetted by -1321:
01 [6469f9bd] (05/41) Accurately ripped
02 [4f929e86] (05/41) Accurately ripped
03 [9cbb30cb] (05/41) Accurately ripped
04 [f55dc249] (05/41) Accurately ripped
05 [db008761] (05/41) Accurately ripped
06 [4185abee] (05/41) Accurately ripped
07 [908bd310] (05/40) Accurately ripped
08 [e345272a] (05/41) Accurately ripped
Offsetted by -657:
01 [95d557e8] (02/41) Accurately ripped
02 [d394d8fc] (02/41) Accurately ripped
03 [15fb7cbd] (02/41) Accurately ripped
04 [06169148] (02/41) Accurately ripped
05 [2bb17a7b] (02/41) Accurately ripped
06 [b44f0600] (02/41) Accurately ripped
07 [3332f8e8] (02/40) Accurately ripped
08 [55889aa2] (02/41) Accurately ripped
Offsetted by -675:
01 [e788288e] (00/41) No match (V2 was not tested)
02 [5b4cfaf6] (00/41) No match (V2 was not tested)
03 [0f431973] (00/41) No match (V2 was not tested)
04 [fefb609e] (00/41) No match (V2 was not tested)
05 [e73b67b9] (00/41) No match (V2 was not tested)
06 [4c13ea28] (00/41) No match (V2 was not tested)
07 [572c3d1a] (00/40) No match (V2 was not tested)
08 [bf11a66e] (00/41) No match (V2 was not tested)

Track Peak [ CRC32 ] [W/O NULL] [ LOG ]
– 92,1 [C07A185A] [08437ACB] CRC32
01 92,1 [9D65B220] [CF0E1885]
02 79,6 [E20F57C0] [9291FFFB]
03 87,6 [B7ADC777] [199B0CD6]
04 82,8 [B614601F] [3BC5A1ED]
05 72,0 [64DCB6CB] [1A135425]
06 53,1 [B31FD7BE] [23F3D099]
07 61,1 [B0D999D8] [DFC8F7C7]
08 76,1 [854A3D47] [292EB45B]

Wishbone Ash - Wishbone Four (1973) {1994, Remastered}


All thanks go to alexharvey

>>> Wishbone Ash in my Blog <<<

DOWNLOAD: