Tags
Language
Tags

Wlhelm Backhaus - Beethoven: Piano Sonatas 1-32 (8 CD) (1999)

Posted By: tirexiss
Wlhelm Backhaus - Beethoven: Piano Sonatas 1-32 (8 CD) (1999)

Wlhelm Backhaus - Beethoven: Piano Sonatas 1-32 (8 CD) (1999)
EAC | FLAC (image+.cue, log) | Covers Included | 09:02:23 | 2.4 Gb
Genre: Classical | Label: Decca | Catalog: 433882

Wilhelm Backhaus recorded Beethoven’s complete piano sonatas in mono for Decca in the early 1950s, and with the advent of stereo he began the process anew in 1958. Although he managed to finish 31 out of the 32, the pianist died before he got around to remaking the Hammerklavier (Op. 106). Consequently, the mono Hammerklavier fills out Backhaus’ stereo cycle that Decca now reissues in its Original Masters series.

Although numerous piano mavens hold Backhaus’ Beethoven in high, nearly iconic esteem, I’ve always had mixed reactions to these recordings. In general, the pianist’s cavalier attitude toward Beethoven’s dynamics, articulation, and phrasing obscures the composer’s clearly specified linear trajectory and implicit drama. Slow movements tend to be perfunctorily brisk and overly loud (the pianist rarely achieves a true pianissimo), and many repeats are omitted. I also suspect that the stylistic anachronisms characterizing Backhaus’ pianism (de-synchronized hands, added bass octaves, arpeggiated chords) arise more out of habit than intent.

Furthermore, most comparisons between the present set and Backhaus’ mono versions (last available as Japanese imports) reveal the pianist’s fingers to be past their once unassailable prime. Op. 10 No. 2’s finale, Op. 10 No. 3’s charging octaves, Op. 27 No. 2’s scampering passages, and the last three sonatas illustrate my point. The Op. 81a “Les Adieux” sonata is as heavy handed and pounded out as the pianist’s earlier HMV shellac edition was musically forthright and technically shipshape. The sharp accentuation and dry wit that dissimilar pianists like Goode and Kempff bring out in Op. 31 No. 1’s first movement fall by the wayside in Backhaus’ overly robust interpretation.

However, despite my cavils, you cannot deny Backhaus’ sincerity, his ripe, well-modulated sonority, and the communicative immediacy he often achieves. In this sense, the three so-called “name” sonatas (Pathétique, Moonlight, and Appassionata) succeed with little qualification, and so does the Waldstein (with first-movement repeat intact!). And it was a joy to reconnect with Backhaus’ deeply felt and well played renditions of Op. 90 and Op. 101.

Rehearing the 1952 Hammerklavier led me to rethink and respect (if not love) Backhaus’ tough-skinned, grantic sobriety, which reminds me of Rudolf Serkin, albeit without the latter’s raw-nerve intensity and linear cogency. When all is said and done, it’s important that the work of this highly regarded keyboard master is accessible to students, music lovers, and scholars alike–and the pianist’s admirers also will welcome this reissue with open arms. – Jed Distler

Wlhelm Backhaus - Beethoven: Piano Sonatas 1-32 (8 CD) (1999)

Track List:

CD 1:
01. Piano Sonata No. 1 in F minor, Op. 2/1: 1. Allegro [0:03:03.62]
02. Piano Sonata No. 1 in F minor, Op. 2/1: 2. Adagio [0:03:58.33]
03. Piano Sonata No. 1 in F minor, Op. 2/1: 3. Menuetto & Trio: Allegretto [0:02:24.45]
04. Piano Sonata No. 1 in F minor, Op. 2/1: 4. Prestissimo [0:03:54.10]
05. Piano Sonata No. 2 in A major, Op. 2/2: 1. Allegro vivace [0:04:56.35]
06. Piano Sonata No. 2 in A major, Op. 2/2: 2. Largo appassionato [0:04:59.47]
07. Piano Sonata No. 2 in A major, Op. 2/2: 3. Scherzo & Trio: Allegretto [0:02:46.63]
08. Piano Sonata No. 2 in A major, Op. 2/2: 4. Rondo: Grazioso [0:06:23.05]
09. Piano Sonata No. 3 in C major, Op. 2/3: 1. Allegro con brio [0:07:22.12]
10. Piano Sonata No. 3 in C major, Op. 2/3: 2. Adagio [0:05:57.23]
11. Piano Sonata No. 3 in C major, Op. 2/3: 3. Scherzo & Trio: Allegro [0:03:04.25]
12. Piano Sonata No. 3 in C major, Op. 2/3: 4. Allegro assai [0:05:32.15]
13. Piano Sonata No. 5 in C minor, Op. 10/1: 1. Allegro molto e con brio [0:04:08.12]
14. Piano Sonata No. 5 in C minor, Op. 10/1: 2. Adagio molto [0:05:51.40]
15. Piano Sonata No. 5 in C minor, Op. 10/1: 3. Finale: Prestissimo [0:03:18.08]

CD 2:
01. Piano Sonata No.4 in E flat major, op.7 - I. Allegro molto e con brio [0:06:21.35]
02. Piano Sonata No.4 in E flat major, op.7 - II. Largo, con gran espressione [0:06:11.45]
03. Piano Sonata No.4 in E flat major, op.7 - III. Allegro [0:03:48.15]
04. Piano Sonata No.4 in E flat major, op.7 - IV. Rondo (Poco allegretto e grazio) [0:06:42.55]
05. Piano Sonata No.6 in F major, op.10 no.2 - I. Allegro [0:04:27.00]
06. Piano Sonata No.6 in F major, op.10 no.2 - II. Allegretto [0:03:27.05]
07. Piano Sonata No.6 in F major, op.10 no.2 - III. Presto [0:02:26.70]
08. Piano Sonata No.7 in D major, op.10 no.3 - I. Presto [0:04:55.17]
09. Piano Sonata No.7 in D major, op.10 no.3 - II. Largo e mesto [0:06:36.50]
10. Piano Sonata No.7 in D major, op.10 no.3 - III. Menuetto & Trio (Allegro) [0:02:35.33]
11. Piano Sonata No.7 in D major, op.10 no.3 - IV. Rondo (Allegro) [0:04:08.50]
12. Piano Sonata No.8 in C minor, op.13 - I. Grave (Allego di molto e con brio) [0:06:16.02]
13. Piano Sonata No.8 in C minor, op.13 - I. Adagio cantabile [0:04:46.63]
14. Piano Sonata No.8 in C minor, op.13 - I. Rondo (Allegro) [0:04:28.12]

CD 3:
01. Piano Sonata No.9 in E major, op.14 no.1 - I. Allegro [0:04:31.25]
02. Piano Sonata No.9 in E major, op.14 no.1 - II. Allegretto [0:03:12.67]
03. Piano Sonata No.9 in E major, op.14 no.1 - III. Rondo (Allegro comodo) [0:03:33.58]
04. Piano Sonata No.10 in G major, op.14 no.2 - I. Allegro [0:04:57.62]
05. Piano Sonata No.10 in G major, op.14 no.2 - II. Andante [0:05:31.13]
06. Piano Sonata No.10 in G major, op.14 no.2 - III. Scherzo (Allegro assai) [0:03:27.00]
07. Piano Sonata No.11 in B flat major, op.22 - I. Allegro con brio [0:05:40.37]
08. Piano Sonata No.11 in B flat major, op.22 - II. Adagio con molta espressione [0:07:12.43]
09. Piano Sonata No.11 in B flat major, op.22 - III. Menuetto [0:03:07.60]
10. Piano Sonata No.11 in B flat major, op.22 - IV. Rondo (Allegreto) [0:05:43.10]
11. Piano Sonata No.12 in A flat major, op.26 - I. Andante con Variazioni [0:07:08.25]
12. Piano Sonata No.12 in A flat major, op.26 - II. Scherzo & Trio ( Allegro molto) [0:02:42.50]
13. Piano Sonata No.12 in A flat major, op.26 - III. Marcia fuebre sulla d'n Eroe [0:05:15.67]
14. Piano Sonata No.12 in A flat major, op.26 - IV. Allegro [0:02:48.28]

CD 4:
01. Piano Sonata No.13 in E flat major, op.27 no.1 - Andante Allegro Tempo I attacca [0:04:53.23]
02. Piano Sonata No.13 in E flat major, op.27 no.1 - Allegro molto e vivace attacca [0:02:10.40]
03. Piano Sonata No.13 in E flat major, op.27 no.1 - Adagio con espressione attacca [0:02:13.66]
04. Piano Sonata No.13 in E flat major, op.27 no.1 - Allegro vivace Adagio Presto [0:05:29.33]
05. Piano Sonata No.14 in C sharp minor, op.27 no.2 - Adagio sotenuto attacca [0:05:45.41]
06. Piano Sonata No.14 in C sharp minor, op.27 no.2 - Allegretto & Trio [0:02:21.19]
07. Piano Sonata No.14 in C sharp minor, op.27 no.2 - Presto agitato [0:07:31.29]
08. Piano Sonata No.15 in D major, op.28 - Allegro [0:06:47.41]
09. Piano Sonata No.15 in D major, op.28 - Andante [0:06:28.73]
10. Piano Sonata No.15 in D major, op.28 - Scherzo & Trio (Allegro vivace) [0:01:54.52]
11. Piano Sonata No.15 in D major, op.28 - Rondo (Allegro ma non tropo) [0:04:20.00]
12. Piano Sonata No.16 in G major, op.31 no.1 - Allegro vivace [0:05:02.17]
13. Piano Sonata No.16 in G major, op.31 no.1 - Allegro grazio [0:08:24.14]
14. Piano Sonata No.16 in G major, op.31 no.1 - Rondo (Allegretto) [0:06:10.29]

CD 5:
01. Piano Sonata No.17 in D minor, op.31 no.1 - I. Largo - Allegro [0:08:29.52]
02. Piano Sonata No.17 in D minor, op.31 no.1 - II. Adagio [0:06:16.73]
03. Piano Sonata No.17 in D minor, op.31 no.1 - III. Allegretto [0:06:34.25]
04. Piano Sonata No.18 in E flat major, op.31 no.3 - I. Allegro [0:06:16.40]
05. Piano Sonata No.18 in E flat major, op.31 no.3 - II. Scherzo. Allegretto vivace [0:03:46.72]
06. Piano Sonata No.18 in E flat major, op.31 no.3 - III. Menuetto & Trio. Moderato e grazioso [0:04:06.50]
07. Piano Sonata No.18 in E flat major, op.31 no.3 - IV. Presto con fuoco [0:04:53.63]
08. Piano Sonata No.19 in G minor, op.49 no.1 - I. Andante [0:03:27.72]
09. Piano Sonata No.19 in G minor, op.49 no.1 - II. Rondo. Allegro [0:03:36.03]
10. Piano Sonata No.20 in G major, op.49 no.2 - I. Allegro, ma non troppo [0:02:59.45]
11. Piano Sonata No.20 in G major, op.49 no.2 - II. Tempo di Menuetto [0:03:19.30]
12. Piano Sonata No.21 in C major, op.53 - I. Allegro con brio [0:08:52.37]
13. Piano Sonata No.21 in C major, op.53 - II. Introduzione. Adagio molto - attacca [0:03:12.18]
14. Piano Sonata No.21 in C major, op.53 - III. Rondo. Allegretto moderato - Prestissimo [0:09:41.07]

CD 6:
01. Piano Sonata No.22 in F minor, op.54 - I. In Tempo d'un Menuetto [0:05:17.12]
02. Piano Sonata No.22 in F minor, op.54 - II. Allegretto - Piu Allegro [0:05:19.63]
03. Piano Sonata No.23 in F minor, op.57 - I. Allegro assai [0:09:37.15]
04. Piano Sonata No.23 in F minor, op.57 - II. Andante con moto - attacca [0:05:55.60]
05. Piano Sonata No.23 in F minor, op.57 - III. Allegro ma non troppo - Presto [0:05:34.00]
06. Piano Sonata No.24 in F sharp major, op.78 - I. Adagio cantabile - Allegro ma non troppo [0:06:48.20]
07. Piano Sonata No.24 in F sharp major, op.78 - II. Allegro vivace [0:03:18.55]
08. Piano Sonata No.25 in G major, op.79 - I. Presto alla tedesca [0:04:18.32]
09. Piano Sonata No.25 in G major, op.79 - II. Andante [0:02:55.60]
10. Piano Sonata No.25 in G major, op.79 - III. Vivace [0:01:56.58]
11. Piano Sonata No.26 in E flat major, op.81a - I. Das Lebewohl. Adagio - Allegro [0:06:59.52]
12. Piano Sonata No.26 in E flat major, op.81a - II. Abwesenheit. Andante espressivo] [0:03:06.63]
13. Piano Sonata No.26 in E flat major, op.81a - III. Das Wiedersehen. Vivacissimamente - Poco andante - Tempo I [0:06:04.50]

CD 7:
01. Piano Sonata No. 27 in E minor, Op. 90- 1. Mit Lebhaftigkeit und durchaus mit Empfindung und Ausdruck [0:05:03.52]
02. Piano Sonata No. 27 in E minor, Op. 90- 2. Nicht zu geschwind und sehr singbar vorzutragen [0:07:41.23]
03. Piano Sonata No. 28 in A major, Op. 101- 1. Etwas lebhaft und mit der innigsten Empfingung (Allegretto, ma non troppo) [0:03:16.25]
04. Piano Sonata No. 28 in A major, Op. 101- 2. Lebhaft. Marschmäßig (Vivace alla marcia) [0:06:07.30]
05. Piano Sonata No. 28 in A major, Op. 101- 3. Langsam und sehnsuchtsvoll (Adagio, ma non troppo, con affetto) - Zeitmaß des ersten Stückes (Te [0:09:38.20]
06. Piano Sonata No. 29 in B flat major (-Hammerklavier-), Op. 106- 1. Allegro [0:11:49.00]
07. Piano Sonata No. 29 in B flat major (-Hammerklavier-), Op. 106- 2. Scherzo- Assai vivace - Presto - Tempo 1 [0:02:41.30]
08. Piano Sonata No. 29 in B flat major (-Hammerklavier-), Op. 106- 3. Adagio sostenuto- Appassionato e con molto sentimento [0:16:36.45]
09. Piano Sonata No. 29 in B flat major (-Hammerklavier-), Op. 106- 4. Largo - Allegro - Allegro risoluto [0:11:01.20]

CD 8:
01. Piano Sonata No. 30 in E major, Op. 109- 1. Vivace (ma non troppo) - adagio espressivo - tempo 1 - 2. Prestissimo [0:05:16.02]
02. Piano Sonata No. 30 in E major, Op. 109- 3. Gesangvoll, mit innigster Empfindung (Andante molto cantabile ed espressivo) - [0:07:55.23]
03. Piano Sonata No. 30 in E major, Op. 109- Allegro ma non troppo [0:04:39.50]
04. Piano Sonata No. 31 in A flat major, Op. 110- 1. Moderato cantabile molto espressivo - [0:05:24.35]
05. Piano Sonata No. 31 in A flat major, Op. 110- 2. Allegro molto [0:02:04.32]
06. Piano Sonata No. 31 in A flat major, Op. 110- 3. Adagio ma non troppo - Recitativo - Adagio ma non troppo- Arioso dolente (Klagender Gesang) - [0:02:51.20]
07. Piano Sonata No. 31 in A flat major, Op. 110- Fuga- Allegro ma non troppo - L'istesso tempo di Arioso - L'istesso tempo della Fuga - Meno allegro [0:06:14.63]
08. Piano Sonata No. 32 in C minor, Op. 111- 1. Maestoso - Allegro con brio ed appassionato [0:08:17.37]
09. Piano Sonata No. 32 in C minor, Op. 111- 2. Arietta- Adagio molto semplice e cantabile [0:13:09.18]

Performers:
Wlhelm Backhaus – piano

Exact Audio Copy V1.0 beta 3 from 29. August 2011

EAC extraction logfile from 25. July 2012, 10:06

Wilhelm Backhaus / Beethoven - Piano Sonatas 1-32 - Backhaus (Vol.1) (Disc 1)

Used drive : HL-DT-STDVDRAM GSA-H10A Adapter: 0 ID: 0

Read mode : Secure
Utilize accurate stream : Yes
Defeat audio cache : Yes
Make use of C2 pointers : No

Read offset correction : 667
Overread into Lead-In and Lead-Out : No
Fill up missing offset samples with silence : Yes
Delete leading and trailing silent blocks : No
Null samples used in CRC calculations : Yes
Used interface : Native Win32 interface for Win NT & 2000

Used output format : User Defined Encoder
Selected bitrate : 1024 kBit/s
Quality : High
Add ID3 tag : No
Command line compressor : C:\Program Files\Exact Audio Copy\Flac\flac.exe
Additional command line options : -8 -V -T "TITLE=%title%" -T "ARTIST=%artist%" -T "ALBUMARTIST=%albumartist%" -T "ALBUM=%albumtitle%" -T "DATE=%year%" -T "TRACKNUMBER=%tracknr%" -T "TRACKTOTAL=%numtracks%" -T "GENRE=%genre%" -T "COMMENT=%comment%" -T "PERFORMER=%albuminterpret%" -T "COMPOSER=%composer%" %source% -o %dest%


TOC of the extracted CD

Track | Start | Length | Start sector | End sector
––––––––––––––––––––––––––––-
1 | 0:00.33 | 3:03.62 | 33 | 13819
2 | 3:04.20 | 3:58.33 | 13820 | 31702
3 | 7:02.53 | 2:24.45 | 31703 | 42547
4 | 9:27.23 | 3:54.10 | 42548 | 60107
5 | 13:21.33 | 4:56.35 | 60108 | 82342
6 | 18:17.68 | 4:59.47 | 82343 | 104814
7 | 23:17.40 | 2:46.63 | 104815 | 117327
8 | 26:04.28 | 6:23.05 | 117328 | 146057
9 | 32:27.33 | 7:22.12 | 146058 | 179219
10 | 39:49.45 | 5:57.23 | 179220 | 206017
11 | 45:46.68 | 3:04.25 | 206018 | 219842
12 | 48:51.18 | 5:32.15 | 219843 | 244757
13 | 54:23.33 | 4:08.12 | 244758 | 263369
14 | 58:31.45 | 5:51.40 | 263370 | 289734
15 | 64:23.10 | 3:18.08 | 289735 | 304592


Range status and errors

Selected range

Filename F:\Ripped general\[0966] Beethoven - Piano Sonatas 1-32 - Backhaus (Vol.1)\cd1\Beethoven - Piano Sonatas 1-32 - Backhaus (Vol.1) (Disc 1).wav

Peak level 99.9 %
Extraction speed 3.2 X
Range quality 100.0 %
Copy CRC 418F6826
Copy OK

No errors occurred


AccurateRip summary

Track 1 accurately ripped (confidence 2) [063F0C0B] (AR v2)
Track 2 accurately ripped (confidence 2) [C56DE54A] (AR v2)
Track 3 accurately ripped (confidence 2) [5795DD1C] (AR v2)
Track 4 accurately ripped (confidence 2) [406ECBC1] (AR v2)
Track 5 accurately ripped (confidence 2) [AB24541B] (AR v2)
Track 6 accurately ripped (confidence 2) [0A2E7943] (AR v2)
Track 7 accurately ripped (confidence 2) [785D1441] (AR v2)
Track 8 accurately ripped (confidence 2) [AA46DAC1] (AR v2)
Track 9 accurately ripped (confidence 2) [9D7CDB09] (AR v2)
Track 10 accurately ripped (confidence 2) [AA691538] (AR v2)
Track 11 accurately ripped (confidence 2) [F7B201B6] (AR v2)
Track 12 accurately ripped (confidence 5) [95E910E4] (AR v1)
Track 13 accurately ripped (confidence 2) [8C2797C0] (AR v2)
Track 14 accurately ripped (confidence 2) [CCDC0C24] (AR v2)
Track 15 accurately ripped (confidence 2) [D6DE11F9] (AR v2)

All tracks accurately ripped

End of status report

Exact Audio Copy V1.0 beta 3 from 29. August 2011

EAC extraction logfile from 25. July 2012, 11:14

Wilhelm Backhaus / Beethoven - Piano Sonatas 1-32 - Backhaus (Vol.1) (Disc 2)

Used drive : HL-DT-STDVDRAM GSA-H10A Adapter: 0 ID: 0

Read mode : Secure
Utilize accurate stream : Yes
Defeat audio cache : Yes
Make use of C2 pointers : No

Read offset correction : 667
Overread into Lead-In and Lead-Out : No
Fill up missing offset samples with silence : Yes
Delete leading and trailing silent blocks : No
Null samples used in CRC calculations : Yes
Used interface : Native Win32 interface for Win NT & 2000

Used output format : User Defined Encoder
Selected bitrate : 1024 kBit/s
Quality : High
Add ID3 tag : No
Command line compressor : C:\Program Files\Exact Audio Copy\Flac\flac.exe
Additional command line options : -8 -V -T "TITLE=%title%" -T "ARTIST=%artist%" -T "ALBUMARTIST=%albumartist%" -T "ALBUM=%albumtitle%" -T "DATE=%year%" -T "TRACKNUMBER=%tracknr%" -T "TRACKTOTAL=%numtracks%" -T "GENRE=%genre%" -T "COMMENT=%comment%" -T "PERFORMER=%albuminterpret%" -T "COMPOSER=%composer%" %source% -o %dest%


TOC of the extracted CD

Track | Start | Length | Start sector | End sector
––––––––––––––––––––––––––––-
1 | 0:00.33 | 6:21.35 | 33 | 28642
2 | 6:21.68 | 6:11.45 | 28643 | 56512
3 | 12:33.38 | 3:48.15 | 56513 | 73627
4 | 16:21.53 | 6:42.55 | 73628 | 103832
5 | 23:04.33 | 4:27.00 | 103833 | 123857
6 | 27:31.33 | 3:27.05 | 123858 | 139387
7 | 30:58.38 | 2:26.70 | 139388 | 150407
8 | 33:25.33 | 4:55.17 | 150408 | 172549
9 | 38:20.50 | 6:36.50 | 172550 | 202299
10 | 44:57.25 | 2:35.33 | 202300 | 213957
11 | 47:32.58 | 4:08.50 | 213958 | 232607
12 | 51:41.33 | 6:16.02 | 232608 | 260809
13 | 57:57.35 | 4:46.63 | 260810 | 282322
14 | 62:44.23 | 4:28.12 | 282323 | 302434


Range status and errors

Selected range

Filename F:\Ripped general\[0966] Beethoven - Piano Sonatas 1-32 - Backhaus (Vol.1)\cd2\Beethoven - Piano Sonatas 1-32 - Backhaus (Vol.1) (Disc 2).wav

Peak level 99.5 %
Extraction speed 2.0 X
Range quality 99.9 %
Test CRC C12A93AB
Copy CRC C12A93AB
Copy OK

No errors occurred


AccurateRip summary

Track 1 accurately ripped (confidence 3) [E4EC0264] (AR v2)
Track 2 accurately ripped (confidence 3) [0779C044] (AR v2)
Track 3 accurately ripped (confidence 3) [759E490B] (AR v2)
Track 4 accurately ripped (confidence 3) [FBA1DA36] (AR v2)
Track 5 accurately ripped (confidence 3) [720A0D5C] (AR v2)
Track 6 accurately ripped (confidence 3) [D334E235] (AR v2)
Track 7 accurately ripped (confidence 3) [D9DBBDF0] (AR v2)
Track 8 accurately ripped (confidence 3) [6CA1D49B] (AR v2)
Track 9 accurately ripped (confidence 3) [77D4E8DD] (AR v2)
Track 10 accurately ripped (confidence 3) [9088FEDD] (AR v2)
Track 11 accurately ripped (confidence 3) [E8D6FAFE] (AR v2)
Track 12 accurately ripped (confidence 3) [C0EEFE96] (AR v2)
Track 13 accurately ripped (confidence 3) [F7C92220] (AR v2)
Track 14 accurately ripped (confidence 3) [89C39A7D] (AR v2)

All tracks accurately ripped

End of status report

Exact Audio Copy V1.0 beta 3 from 29. August 2011

EAC extraction logfile from 25. July 2012, 12:21

Wilhelm Backhaus / Beethoven - Piano Sonatas 1-32 - Backhaus (Vol.1) (Disc 3)

Used drive : HL-DT-STDVDRAM GSA-H10A Adapter: 0 ID: 0

Read mode : Secure
Utilize accurate stream : Yes
Defeat audio cache : Yes
Make use of C2 pointers : No

Read offset correction : 667
Overread into Lead-In and Lead-Out : No
Fill up missing offset samples with silence : Yes
Delete leading and trailing silent blocks : No
Null samples used in CRC calculations : Yes
Used interface : Native Win32 interface for Win NT & 2000

Used output format : User Defined Encoder
Selected bitrate : 1024 kBit/s
Quality : High
Add ID3 tag : No
Command line compressor : C:\Program Files\Exact Audio Copy\Flac\flac.exe
Additional command line options : -8 -V -T "TITLE=%title%" -T "ARTIST=%artist%" -T "ALBUMARTIST=%albumartist%" -T "ALBUM=%albumtitle%" -T "DATE=%year%" -T "TRACKNUMBER=%tracknr%" -T "TRACKTOTAL=%numtracks%" -T "GENRE=%genre%" -T "COMMENT=%comment%" -T "PERFORMER=%albuminterpret%" -T "COMPOSER=%composer%" %source% -o %dest%


TOC of the extracted CD

Track | Start | Length | Start sector | End sector
––––––––––––––––––––––––––––-
1 | 0:00.33 | 4:31.25 | 33 | 20382
2 | 4:31.58 | 3:12.67 | 20383 | 34849
3 | 7:44.50 | 3:33.58 | 34850 | 50882
4 | 11:18.33 | 4:57.62 | 50883 | 73219
5 | 16:16.20 | 5:31.13 | 73220 | 98057
6 | 21:47.33 | 3:27.00 | 98058 | 113582
7 | 25:14.33 | 5:40.37 | 113583 | 139119
8 | 30:54.70 | 7:12.43 | 139120 | 171562
9 | 38:07.38 | 3:07.60 | 171563 | 185647
10 | 41:15.23 | 5:43.10 | 185648 | 211382
11 | 46:58.33 | 7:08.25 | 211383 | 243507
12 | 54:06.58 | 2:42.50 | 243508 | 255707
13 | 56:49.33 | 5:15.67 | 255708 | 279399
14 | 62:05.25 | 2:48.28 | 279400 | 292027


Range status and errors

Selected range

Filename F:\Ripped general\[0966] Beethoven - Piano Sonatas 1-32 - Backhaus (Vol.1)\cd3\Beethoven - Piano Sonatas 1-32 - Backhaus (Vol.1) (Disc 3).wav

Peak level 96.9 %
Extraction speed 1.9 X
Range quality 99.9 %
Test CRC 5C28E918
Copy CRC 5C28E918
Copy OK

No errors occurred


AccurateRip summary

Track 1 accurately ripped (confidence 2) [57669B07] (AR v2)
Track 2 accurately ripped (confidence 2) [678DA097] (AR v2)
Track 3 accurately ripped (confidence 2) [D33EF607] (AR v2)
Track 4 accurately ripped (confidence 2) [7D3AFE04] (AR v2)
Track 5 accurately ripped (confidence 2) [1ECD1EDF] (AR v2)
Track 6 accurately ripped (confidence 2) [E54455D7] (AR v2)
Track 7 accurately ripped (confidence 2) [9057FE07] (AR v2)
Track 8 accurately ripped (confidence 2) [7B99934E] (AR v2)
Track 9 accurately ripped (confidence 2) [95C0DC87] (AR v2)
Track 10 accurately ripped (confidence 2) [E5889567] (AR v2)
Track 11 accurately ripped (confidence 2) [6B1960C1] (AR v2)
Track 12 accurately ripped (confidence 2) [3B5C0441] (AR v2)
Track 13 accurately ripped (confidence 2) [99F9697C] (AR v2)
Track 14 accurately ripped (confidence 2) [7C36434D] (AR v2)

All tracks accurately ripped

End of status report

Exact Audio Copy V1.0 beta 3 from 29. August 2011

EAC extraction logfile from 25. July 2012, 16:45

Wilhelm Backhaus / Beethoven - Piano Sonatas 1-32 - Backhaus (Vol.1) (Disc 4)

Used drive : HL-DT-STDVDRAM GSA-H10A Adapter: 0 ID: 0

Read mode : Secure
Utilize accurate stream : Yes
Defeat audio cache : Yes
Make use of C2 pointers : No

Read offset correction : 667
Overread into Lead-In and Lead-Out : No
Fill up missing offset samples with silence : Yes
Delete leading and trailing silent blocks : No
Null samples used in CRC calculations : Yes
Used interface : Native Win32 interface for Win NT & 2000

Used output format : User Defined Encoder
Selected bitrate : 1024 kBit/s
Quality : High
Add ID3 tag : No
Command line compressor : C:\Program Files\Exact Audio Copy\Flac\flac.exe
Additional command line options : -8 -V -T "TITLE=%title%" -T "ARTIST=%artist%" -T "ALBUMARTIST=%albumartist%" -T "ALBUM=%albumtitle%" -T "DATE=%year%" -T "TRACKNUMBER=%tracknr%" -T "TRACKTOTAL=%numtracks%" -T "GENRE=%genre%" -T "COMMENT=%comment%" -T "PERFORMER=%albuminterpret%" -T "COMPOSER=%composer%" %source% -o %dest%


TOC of the extracted CD

Track | Start | Length | Start sector | End sector
––––––––––––––––––––––––––––-
1 | 0:00.00 | 4:53.23 | 0 | 21997
2 | 4:53.23 | 2:10.40 | 21998 | 31787
3 | 7:03.63 | 2:13.66 | 31788 | 41828
4 | 9:17.54 | 5:29.33 | 41829 | 66536
5 | 14:47.12 | 5:45.41 | 66537 | 92452
6 | 20:32.53 | 2:21.19 | 92453 | 103046
7 | 22:53.72 | 7:31.29 | 103047 | 136900
8 | 30:25.26 | 6:47.41 | 136901 | 167466
9 | 37:12.67 | 6:28.73 | 167467 | 196639
10 | 43:41.65 | 1:54.52 | 196640 | 205241
11 | 45:36.42 | 4:20.00 | 205242 | 224741
12 | 49:56.42 | 5:02.17 | 224742 | 247408
13 | 54:58.59 | 8:24.14 | 247409 | 285222
14 | 63:22.73 | 6:10.29 | 285223 | 313001


Range status and errors

Selected range

Filename F:\Ripped general\[0966] Beethoven - Piano Sonatas 1-32 - Backhaus (Vol.1)\cd4\Beethoven - Piano Sonatas 1-32 - Backhaus (Vol.1) (Disc 4).wav

Peak level 99.9 %
Extraction speed 7.4 X
Range quality 100.0 %
Test CRC 1F9186BE
Copy CRC 1F9186BE
Copy OK

No errors occurred


AccurateRip summary

Track 1 not present in database
Track 2 not present in database
Track 3 not present in database
Track 4 not present in database
Track 5 not present in database
Track 6 not present in database
Track 7 not present in database
Track 8 not present in database
Track 9 not present in database
Track 10 not present in database
Track 11 not present in database
Track 12 not present in database
Track 13 not present in database
Track 14 not present in database

None of the tracks are present in the AccurateRip database

End of status report

Exact Audio Copy V1.0 beta 3 from 29. August 2011

EAC extraction logfile from 25. July 2012, 15:46

Wilhelm Backhaus / Beethoven - Piano Sonatas 1-32 - Backhaus (Vol.2) (Disc 5)

Used drive : HL-DT-STDVDRAM GSA-H10A Adapter: 0 ID: 0

Read mode : Secure
Utilize accurate stream : Yes
Defeat audio cache : Yes
Make use of C2 pointers : No

Read offset correction : 667
Overread into Lead-In and Lead-Out : No
Fill up missing offset samples with silence : Yes
Delete leading and trailing silent blocks : No
Null samples used in CRC calculations : Yes
Used interface : Native Win32 interface for Win NT & 2000

Used output format : User Defined Encoder
Selected bitrate : 1024 kBit/s
Quality : High
Add ID3 tag : No
Command line compressor : C:\Program Files\Exact Audio Copy\Flac\flac.exe
Additional command line options : -8 -V -T "TITLE=%title%" -T "ARTIST=%artist%" -T "ALBUMARTIST=%albumartist%" -T "ALBUM=%albumtitle%" -T "DATE=%year%" -T "TRACKNUMBER=%tracknr%" -T "TRACKTOTAL=%numtracks%" -T "GENRE=%genre%" -T "COMMENT=%comment%" -T "PERFORMER=%albuminterpret%" -T "COMPOSER=%composer%" %source% -o %dest%


TOC of the extracted CD

Track | Start | Length | Start sector | End sector
––––––––––––––––––––––––––––-
1 | 0:00.33 | 8:29.52 | 33 | 38259
2 | 8:30.10 | 6:16.73 | 38260 | 66532
3 | 14:47.08 | 6:34.25 | 66533 | 96107
4 | 21:21.33 | 6:16.40 | 96108 | 124347
5 | 27:37.73 | 3:46.72 | 124348 | 141369
6 | 31:24.70 | 4:06.50 | 141370 | 159869
7 | 35:31.45 | 4:53.63 | 159870 | 181907
8 | 40:25.33 | 3:27.72 | 181908 | 197504
9 | 43:53.30 | 3:36.03 | 197505 | 213707
10 | 47:29.33 | 2:59.45 | 213708 | 227177
11 | 50:29.03 | 3:19.30 | 227178 | 242132
12 | 53:48.33 | 8:52.37 | 242133 | 282069
13 | 62:40.70 | 3:12.18 | 282070 | 296487
14 | 65:53.13 | 9:41.07 | 296488 | 340069


Range status and errors

Selected range

Filename F:\Ripped general\[0967] Beethoven - Piano Sonatas 1-32 - Backhaus (Vol.2)\cd5\Wilhelm Backhaus - Beethoven - Piano Sonatas 1-32 - Backhaus (Vol.2) (Disc 5).wav

Peak level 88.3 %
Extraction speed 6.3 X
Range quality 100.0 %
Test CRC 7D47040F
Copy CRC 7D47040F
Copy OK

No errors occurred


AccurateRip summary

Track 1 accurately ripped (confidence 2) [86232B2E] (AR v2)
Track 2 accurately ripped (confidence 2) [FA8BBE23] (AR v2)
Track 3 accurately ripped (confidence 2) [8FD83830] (AR v2)
Track 4 accurately ripped (confidence 2) [6A122248] (AR v2)
Track 5 accurately ripped (confidence 2) [E25480E0] (AR v2)
Track 6 accurately ripped (confidence 2) [4BFEB152] (AR v2)
Track 7 accurately ripped (confidence 2) [47CAAF80] (AR v2)
Track 8 accurately ripped (confidence 2) [61A6910A] (AR v2)
Track 9 accurately ripped (confidence 2) [AA937F36] (AR v2)
Track 10 accurately ripped (confidence 2) [EE9FA1D7] (AR v2)
Track 11 accurately ripped (confidence 2) [3C9CE5AF] (AR v2)
Track 12 accurately ripped (confidence 2) [8B757F1B] (AR v2)
Track 13 accurately ripped (confidence 2) [2C4C5A5A] (AR v2)
Track 14 accurately ripped (confidence 2) [4DF50375] (AR v2)

All tracks accurately ripped

End of status report

Exact Audio Copy V1.0 beta 3 from 29. August 2011

EAC extraction logfile from 25. July 2012, 17:08

Ludwig van Beethoven / Beethoven - Piano Sonatas 1-32 - Backhaus (Vol.2) (Disc 6)

Used drive : HL-DT-STDVDRAM GSA-H10A Adapter: 0 ID: 0

Read mode : Secure
Utilize accurate stream : Yes
Defeat audio cache : Yes
Make use of C2 pointers : No

Read offset correction : 667
Overread into Lead-In and Lead-Out : No
Fill up missing offset samples with silence : Yes
Delete leading and trailing silent blocks : No
Null samples used in CRC calculations : Yes
Used interface : Native Win32 interface for Win NT & 2000

Used output format : User Defined Encoder
Selected bitrate : 1024 kBit/s
Quality : High
Add ID3 tag : No
Command line compressor : C:\Program Files\Exact Audio Copy\Flac\flac.exe
Additional command line options : -8 -V -T "TITLE=%title%" -T "ARTIST=%artist%" -T "ALBUMARTIST=%albumartist%" -T "ALBUM=%albumtitle%" -T "DATE=%year%" -T "TRACKNUMBER=%tracknr%" -T "TRACKTOTAL=%numtracks%" -T "GENRE=%genre%" -T "COMMENT=%comment%" -T "PERFORMER=%albuminterpret%" -T "COMPOSER=%composer%" %source% -o %dest%


TOC of the extracted CD

Track | Start | Length | Start sector | End sector
––––––––––––––––––––––––––––-
1 | 0:00.33 | 5:17.12 | 33 | 23819
2 | 5:17.45 | 5:19.63 | 23820 | 47807
3 | 10:37.33 | 9:37.15 | 47808 | 91097
4 | 20:14.48 | 5:55.60 | 91098 | 117782
5 | 26:10.33 | 5:34.00 | 117783 | 142832
6 | 31:44.33 | 6:48.20 | 142833 | 173452
7 | 38:32.53 | 3:18.55 | 173453 | 188357
8 | 41:51.33 | 4:18.32 | 188358 | 207739
9 | 46:09.65 | 2:55.60 | 207740 | 220924
10 | 49:05.50 | 1:56.58 | 220925 | 229682
11 | 51:02.33 | 6:59.52 | 229683 | 261159
12 | 58:02.10 | 3:06.63 | 261160 | 275172
13 | 61:08.73 | 6:04.50 | 275173 | 302522


Range status and errors

Selected range

Filename F:\Ripped general\[0967] Beethoven - Piano Sonatas 1-32 - Backhaus (Vol.2)\cd6\Beethoven - Piano Sonatas 1-32 - Backhaus (Vol.2) (Disc 6).wav

Peak level 100.0 %
Extraction speed 7.5 X
Range quality 100.0 %
Test CRC FAD0C4FE
Copy CRC FAD0C4FE
Copy OK

No errors occurred


AccurateRip summary

Track 1 accurately ripped (confidence 3) [CAB0062D] (AR v2)
Track 2 accurately ripped (confidence 3) [EA38DA81] (AR v2)
Track 3 accurately ripped (confidence 3) [558A5778] (AR v2)
Track 4 accurately ripped (confidence 3) [564B63CE] (AR v2)
Track 5 accurately ripped (confidence 3) [B602FCE8] (AR v2)
Track 6 accurately ripped (confidence 3) [50456D4C] (AR v2)
Track 7 accurately ripped (confidence 3) [F73831CC] (AR v2)
Track 8 accurately ripped (confidence 3) [683D0118] (AR v2)
Track 9 accurately ripped (confidence 3) [8D837010] (AR v2)
Track 10 accurately ripped (confidence 3) [7B65FBEA] (AR v2)
Track 11 accurately ripped (confidence 3) [D3B00ED5] (AR v2)
Track 12 accurately ripped (confidence 3) [7C1771A0] (AR v2)
Track 13 accurately ripped (confidence 3) [2A372F7F] (AR v2)

All tracks accurately ripped

End of status report

Exact Audio Copy V1.0 beta 3 from 29. August 2011

EAC extraction logfile from 25. July 2012, 17:43

Wilhelm Backhaus / Beethoven - Piano Sonatas 1-32 - Backhaus (Vol.2) (Disc 7)

Used drive : HL-DT-STDVDRAM GSA-H10A Adapter: 0 ID: 0

Read mode : Secure
Utilize accurate stream : Yes
Defeat audio cache : Yes
Make use of C2 pointers : No

Read offset correction : 667
Overread into Lead-In and Lead-Out : No
Fill up missing offset samples with silence : Yes
Delete leading and trailing silent blocks : No
Null samples used in CRC calculations : Yes
Used interface : Native Win32 interface for Win NT & 2000

Used output format : User Defined Encoder
Selected bitrate : 1024 kBit/s
Quality : High
Add ID3 tag : No
Command line compressor : C:\Program Files\Exact Audio Copy\Flac\flac.exe
Additional command line options : -8 -V -T "TITLE=%title%" -T "ARTIST=%artist%" -T "ALBUMARTIST=%albumartist%" -T "ALBUM=%albumtitle%" -T "DATE=%year%" -T "TRACKNUMBER=%tracknr%" -T "TRACKTOTAL=%numtracks%" -T "GENRE=%genre%" -T "COMMENT=%comment%" -T "PERFORMER=%albuminterpret%" -T "COMPOSER=%composer%" %source% -o %dest%


TOC of the extracted CD

Track | Start | Length | Start sector | End sector
––––––––––––––––––––––––––––-
1 | 0:00.33 | 5:03.52 | 33 | 22809
2 | 5:04.10 | 7:41.23 | 22810 | 57407
3 | 12:45.33 | 3:16.25 | 57408 | 72132
4 | 16:01.58 | 6:07.30 | 72133 | 99687
5 | 22:09.13 | 9:38.20 | 99688 | 143057
6 | 31:47.33 | 11:49.00 | 143058 | 196232
7 | 43:36.33 | 2:41.30 | 196233 | 208337
8 | 46:17.63 | 16:36.45 | 208338 | 283082
9 | 62:54.33 | 11:01.20 | 283083 | 332677


Range status and errors

Selected range

Filename F:\Ripped general\[0967] Beethoven - Piano Sonatas 1-32 - Backhaus (Vol.2)\cd7\Beethoven - Piano Sonatas 1-32 - Backhaus (Vol.2) (Disc 7).wav

Peak level 98.4 %
Extraction speed 4.7 X
Range quality 100.0 %
Test CRC 719EB112
Copy CRC 719EB112
Copy OK

No errors occurred


AccurateRip summary

Track 1 accurately ripped (confidence 3) [BE0137AC] (AR v2)
Track 2 accurately ripped (confidence 3) [CD69938B] (AR v2)
Track 3 accurately ripped (confidence 3) [2506C6BE] (AR v2)
Track 4 accurately ripped (confidence 3) [10046A5C] (AR v2)
Track 5 accurately ripped (confidence 3) [1248E859] (AR v2)
Track 6 accurately ripped (confidence 3) [ED574044] (AR v2)
Track 7 accurately ripped (confidence 3) [2023C9BA] (AR v2)
Track 8 accurately ripped (confidence 3) [55BC43CC] (AR v2)
Track 9 accurately ripped (confidence 3) [0D67AF1A] (AR v2)

All tracks accurately ripped

End of status report

Exact Audio Copy V1.0 beta 3 from 29. August 2011

EAC extraction logfile from 25. July 2012, 18:00

Wilhelm Backhaus / Beethoven - Piano Sonatas 1-32 - Backhaus (Vol.2) (Disc 8)

Used drive : HL-DT-STDVDRAM GSA-H10A Adapter: 0 ID: 0

Read mode : Secure
Utilize accurate stream : Yes
Defeat audio cache : Yes
Make use of C2 pointers : No

Read offset correction : 667
Overread into Lead-In and Lead-Out : No
Fill up missing offset samples with silence : Yes
Delete leading and trailing silent blocks : No
Null samples used in CRC calculations : Yes
Used interface : Native Win32 interface for Win NT & 2000

Used output format : User Defined Encoder
Selected bitrate : 1024 kBit/s
Quality : High
Add ID3 tag : No
Command line compressor : C:\Program Files\Exact Audio Copy\Flac\flac.exe
Additional command line options : -8 -V -T "TITLE=%title%" -T "ARTIST=%artist%" -T "ALBUMARTIST=%albumartist%" -T "ALBUM=%albumtitle%" -T "DATE=%year%" -T "TRACKNUMBER=%tracknr%" -T "TRACKTOTAL=%numtracks%" -T "GENRE=%genre%" -T "COMMENT=%comment%" -T "PERFORMER=%albuminterpret%" -T "COMPOSER=%composer%" %source% -o %dest%


TOC of the extracted CD

Track | Start | Length | Start sector | End sector
––––––––––––––––––––––––––––-
1 | 0:00.33 | 5:16.02 | 33 | 23734
2 | 5:16.35 | 7:55.23 | 23735 | 59382
3 | 13:11.58 | 4:39.50 | 59383 | 80357
4 | 17:51.33 | 5:24.35 | 80358 | 104692
5 | 23:15.68 | 2:04.32 | 104693 | 114024
6 | 25:20.25 | 2:51.20 | 114025 | 126869
7 | 28:11.45 | 6:14.63 | 126870 | 154982
8 | 34:26.33 | 8:17.37 | 154983 | 192294
9 | 42:43.70 | 13:09.18 | 192295 | 251487


Range status and errors

Selected range

Filename F:\Ripped general\[0967] Beethoven - Piano Sonatas 1-32 - Backhaus (Vol.2)\cd8\Beethoven - Piano Sonatas 1-32 - Backhaus (Vol.2) (Disc 8).wav

Peak level 88.5 %
Extraction speed 7.4 X
Range quality 100.0 %
Test CRC E3FE041E
Copy CRC E3FE041E
Copy OK

No errors occurred


AccurateRip summary

Track 1 accurately ripped (confidence 3) [8AB8ED59] (AR v2)
Track 2 accurately ripped (confidence 3) [E22A240C] (AR v2)
Track 3 accurately ripped (confidence 3) [C7B954F0] (AR v2)
Track 4 accurately ripped (confidence 3) [5FC8B40A] (AR v2)
Track 5 accurately ripped (confidence 3) [160ACFD0] (AR v2)
Track 6 accurately ripped (confidence 3) [4B145B23] (AR v2)
Track 7 accurately ripped (confidence 3) [A30A9A64] (AR v2)
Track 8 accurately ripped (confidence 3) [1E6278C2] (AR v2)
Track 9 accurately ripped (confidence 3) [1A10A96B] (AR v2)

All tracks accurately ripped

End of status report

Thanks to the Original ripper (unknown)!

Welcome to my blog!

Download: