Tags
Language
Tags

Wolfgang Gonnenwein, Consortium musicum, Suddeutscher Madrigalchor - Bach: Matthaus-Passion (1989)

Posted By: ArlegZ
Wolfgang Gonnenwein, Consortium musicum, Suddeutscher Madrigalchor - Bach: Matthaus-Passion (1989)

Wolfgang Gönnenwein, Consortium musicum, Süddeutscher Madrigalchor - Bach: Matthäus-Passion (1989)
EAC | FLAC | Image (Cue & Log) ~ 912 Mb | Total time: 74:10+73:47+48:36 | Scans included
Classical | Label: EMI | # CZS 7 62588 2 | Recorded: 1968

Among traditional modern-instrument versions of Bach’s St. Matthew Passion, Wolfgang Gönnenwein’s 1968 recording has a lot to offer. Not least is the excellent choral singing from top to bottom. The texts are always clear, and the pacing for the chorales is governed by the story’s dramatic unfolding. You can’t help but be hooked by Evangelist Theo Altmeyer’s warm tone and vivid portrayal, complemented by Franz Crass’ sonorous, touching Jesus. What a joy it is to hear Teresa Zylis-Gara, Julia Hamari, and Hermann Prey at the peak of their respective powers. Tenor Nicolai Gedda is heard to better advantage with Gönnenwein than in Otto Klemperer’s recording, where he struggled with that conductor’s craggy tempos. The orchestra plays beautifully, and the engineering does full justice to Bach’s antiphonal interplay. All the recitatives are accompanied by rather dutiful chordal backing from the organ and cello (Bach adds a “halo” of strings, of course, whenever Jesus opens his mouth). A harpsichordist with a bent for improvisation would have spruced up the texture. Lovers of great Bach singing, however, will treasure this release.
(Jed Distler)

Performer:
Evangelist - Theo Altmeyer
Jesus - Franz Crass
Sopran - Teresa Zylis-Gara
Alt - Julia Hamari
Tenor - Nicolai Gedda
Baß - Hermann Prey
Petrus, Hoherpriester, Pilatus - Hans Sotin
Judas - Siegfried Heartel
Pilati Weib - Noor Leertower
Erste Magd - Liselotte Renner
Zweite Magd - Susann Dürr
Erster Zeuge - Vera Scherr
Zweiter Zeuge - Thee Altmeyer
Süddeutscher Madrigalchor
Consortium musicum
Dirigent – Wolfgang Gönnenwein

Track List:
CD1:
01. 01 Chor: Kommt, ihr Töchter helft mir klagen (Chor I & Chor II)
02. 02 Rezitativ: Da Jesus diese Rede vollendet hatte (Evangelist - Jesus)
03. 03 Choral: Herrliebster Jesu was hast du verbrochen (Chor I & II)
04. 04 Rezitativ: Da versammelten sich die Hohepriester (Evangelist)
05. 05 Chor: Ja nicht auf das Fest (Chor I & II)
06. 06 Rezitativ: Da nun Jesus war zu Bethanien (Evangelist)
07. 07 Chor: Wozu dienet dieser Unrat (Chor I)
08. 08 Rezitativ: Da das Jesus merkete (Evangelist - Jesus)
09. 09 Rezitativ: Du lieber Heiland du (Alt)
10. 10 Arie: Buß' und Reu' (Alt)
11. 11 Rezitativ: Da ging hin der Zwölfen Einer (Evangelist - Judas)
12. 12 Arie: Blute nur du liebes Herz (Sopran)
13. 13 Rezitativ: Aber am ersten Tag der süßen Brot' (Evangelist)
14. 14 Chor: Wo wo willst du (Chor)
15. 15 Rezitativ: Er sprach: Gehet hin in die Stadt (Evangelist - Jesus)
16. Rezitativ: Und sie wurden sehr betrübt (Evangelist)
17. Chor: Herr bin ich's? (Chor)
18. 16 Choral: Ich bin's ich sollte büßen (Chor I & II)
19. 17 Rezitativ: Er antwortete und sprach (Evangelist - Jesus - Judas)
20. 18 Rezitativ: Wiewohl mein Herz in Tränen schwimmet (Sopran )
21. 19 Arie: Ich will dir mein Herze schenken (Sopran)
22. 20 Rezitativ: Und da sie den Lobgesang gesprochen hatten (Evangelist - Jesus)
23. 23 Choral: Ich will hier bei dir stehen (Chor I & II)
24. 22 Rezitativ: Petrus aber antwortete und sprach zu ihm (Evangelist - Petrus - Jesus)
25. 23 Choral: Ich will hier bei dir stehen (Chor I & II)
26. 24 Rezitativ: Da kam Jesus mit ihnen zu Hofe (Evangelist - Jesus)
27. 25 Rezitativ und Choral: O Schmerz! (Tenor)
28. 26 Arie und Chor: Ich will bei meinem Jesu wachen (Tenor)
29. 27 Rezitativ: Und ging hin ein wenig (Evangelist - Jesus)
30. 28 Rezitativ: Der Heiland fällt vor seinem Vater nieder (Baß)
31. 29 Arie: Gerne will ich mich bequemen (Baß)
32. 30 Rezitativ: Und er kam zu seinen Jüngern (Evangelist - Jesus)
33. 31 Choral: Was mein Gott will das g'scheh' allzeit (Chor I & II)
34. 32 Rezitativ: Und er kam und fand sie aber schlafend (Evangelist - Jesus - Judas)
35. 33 Duett und Chor: So ist mein Jesus nun gefangen (Sopran - Alt - Chor II)
36. Chor: Sind Blitze sind Donner in Wolken verschwunden
CD2:
01. 34 Rezitativ: Und siehe, einer aus denen, die mit Jesus waren, reckte die hand aus (Evangelist - Jesus)
02. 35 Choral: O Mensch, bewein’ dein Sünde groß (Chor I & II)
03. 36 Arie: Ach, nun ist mein Jesus hin (Alt - Chor I)
04. 37 Rezitativ: Die aber Jesum gegriffen hatten (Evangelist)
05. 38 Choral: Mir hat die Welt trüglich gericht’t (Chor I & II)
06. 39 Rezitativ: Und wiewohl viel falsche Zeugen herzutraten (Evangelist - Zwei Zeugen - Hohepriester)
07. 40 Rezitativ: Mein Jesus schweigt (Tenor - 2 Oboen)
08. 41 Arie: Geduld! Geduld! (Tenor)
09. 42 Rezitativ: Und der Hohepriester antwortete und sprach (Evangelist - Hohepriester - Jesus)
10. Chor: Er ist des Todes schuldig
11. 43 Rezitativ: Da speieten sie aus in sein Angesicht (Evangelist)
12. Chor: Weissage uns, Christe
13. 44 Choral: Wer hat dich so Geschlagen (Chor I & II)
14. 45 Rezitativ: Petrus aber saß drausen im Palast (Evangelist - Zwei Magd - Petrus)
15. Chor: Wahrlich, du bist auch einer von denen
16. 46 Rezitativ: Da hub er an, sich zu verfluchen (Evangelist - Petrus)
17. 47 Arie: Erbarme dich, mein Gott (Alt)
18. 48 Choral: Bin ich gleich von dir gewichen (Chor I & II)
19. 49 Rezitativ: Der Morgens aber hielten alle Hohenpriester (Evangelist - Judas)
20. Chor: Was gehet das uns an
21. 50 Rezitativ: Und er warf die Silberlinge in den Tempel (Evangelist - Zwei Priester)
22. 51 Arie: Gebt mir meinen Jesum wieder! (Baß)
23. 52 Rezitativ: Sie hielten aber einen Rat (Evangelist - Pilatus - Jesus)
24. 53 Choral: Befiehl du deine Wege (Chor I & II)
25. 54 Rezitativ: Auf das Fest aber hatte der landpfleger (Evangelist - Pilatus’ Weib - Pilatus)
26. Chor: Las ihn kreuzigen
27. 55 Choral: Wie wunderbarlich ist doch diese Strafe (Chor I & II)
28. 56 Rezitativ: Der Landpfleger sagte (Evangelist - Pilatus)
29. 57 Rezitativ: Er hat uns allen wohlgetan (Sopran)
30. 58 Arie: Aus Liebe will mein Heiland sterben (Sopran)
31. 59 Rezitativ: Sie schrieen aber noch mehr (Evangelist)
32. Chor: Las ihn kreuzigen!
33. Rezitativ: Da aber Pilatus sahe (Evangelist - Pontius Pilatus)
34. Chor: Sein Blut komme uber uns
35. Rezitativ: Da gab er ihnen barrabam los (Evangelist)
36. 60 Rezitativ: Erbarm’ es Gott! (Alt)
37. 61 Arie: Können Tränen meiner Wangen nichts erlangen (Alt)
38. 62 Rezitativ: Da nahmen die Kriegsknechte (Evangelist)
39. Chor: Gegrüßet seist du, Judenkönig!
40. Rezitativ: Und speieten ihn an (Evangelist)
41. 63 Choral: O Haupt voll Blut und Wunden (Chor I & II)
CD3:
01. 64 Rezitativ: Und da sie ihn verspottet hatten (Evangelist)
02. 65 Rezitativ: Ja! freilich will in uns das Fleisch und Blut zum Kreuze gezwungen sein (Baß)
03. 66 Arie: Komm, sußes Kreuz (Baß)
04. 67 Rezitativ: Und da sie an die statte kamen (Evangelist)
05. Chor: Der du den Tempel Gottes zerbrichst
06. Rezitativ: Desgleichn auch die Hohepriester (Evangelist)
07. Chor: Andern hat er geholfen
08. 68 Rezitativ: Desgleichen schmäheten ihn auch die Mörder (Evangelist)
09. 69 Rezitativ: Ach, Golgatha, unsel’ges Golgatha! (Alt)
10. 70 Arie Mit Chor: Sehet, Jesus hat die Hand (Alt)
11. 71 Rezitativ: Und von der sechsten Stunde an (Evangelist - Jesus)
12. Chor: Der rufet den Elias
13. Rezitativ: Und bald lief einer unter ihnen (Evangelist)
14. Chor: Halt, laßt sehen, ob Elias komme
15. Rezitativ: Aber Jesus schrie abermal laut (Evangelist)
16. 72 Choral: Wenn ich einmal soll scheiden (Chor I & II)
17. 73 Rezitativ mit Chor: Und siehe da, der Vorhang im Tempel zerriß
18. Chor: Wahrlich, dieser ist Gottes Sohn gewesen
19. Rezitativ: Und es waren viel Weiber da (Evangelist)
20. 74 Rezitativ: Am Abend, da es kühle war (Baß)
21. 75 Arie: Mache dich, mein Herze, rein (Baß)
22. 76 Rezitativ: Und Joseph nahm den Leib (Evangelist - Pilatus)
23. Chor: Herr, wir haben gedacht
24. Rezitativ: Pilatus sprach zu Ihnen (Evangelist - Pontius Pilatus)
25. 77 Rezitativ Mit Chor: Nun ist der Herr zur Ruh’ gebracht (Sopran - Alt - Tenor - Baß - Chor II)
26. 78 Schlußchor: Wir setzen uns mit Tränen nieder (Chor I & II)


Exact Audio Copy V1.3 from 2. September 2016

EAC extraction logfile from 14. November 2017, 14:31

Wolfgang Gönnenwein, Consortium musicum, Süddeutscher Madrigalchor / Bach - Matthäus-Passion CD1

Used drive : HL-DT-STDVDRAM GH24NS95 Adapter: 1 ID: 0

Read mode : Secure
Utilize accurate stream : Yes
Defeat audio cache : Yes
Make use of C2 pointers : No

Read offset correction : 6
Overread into Lead-In and Lead-Out : No
Fill up missing offset samples with silence : Yes
Delete leading and trailing silent blocks : No
Null samples used in CRC calculations : Yes
Used interface : Native Win32 interface for Win NT & 2000

Used output format : User Defined Encoder
Selected bitrate : 128 kBit/s
Quality : High
Add ID3 tag : No
Command line compressor : C:\Program Files\Exact Audio Copy\Flac\flac.exe
Additional command line options : -V -8 -T "Date=%year%" -T "Genre=%genre%" %source%


TOC of the extracted CD

Track | Start | Length | Start sector | End sector
––––––––––––––––––––––––––––-
1 | 0:00.00 | 9:03.67 | 0 | 40791
2 | 9:03.67 | 0:52.68 | 40792 | 44759
3 | 9:56.60 | 1:04.52 | 44760 | 49611
4 | 11:01.37 | 0:31.08 | 49612 | 51944
5 | 11:32.45 | 0:17.07 | 51945 | 53226
6 | 11:49.52 | 0:44.38 | 53227 | 56564
7 | 12:34.15 | 0:35.10 | 56565 | 59199
8 | 13:09.25 | 1:45.65 | 59200 | 67139
9 | 14:55.15 | 1:05.45 | 67140 | 72059
10 | 16:00.60 | 4:48.67 | 72060 | 93726
11 | 20:49.52 | 0:39.63 | 93727 | 96714
12 | 21:29.40 | 5:26.70 | 96715 | 121234
13 | 26:56.35 | 0:15.27 | 121235 | 122386
14 | 27:11.62 | 0:31.38 | 122387 | 124749
15 | 27:43.25 | 1:39.55 | 124750 | 132229
16 | 29:23.05 | 0:10.67 | 132230 | 133046
17 | 29:33.72 | 0:13.40 | 133047 | 134061
18 | 29:47.37 | 1:03.15 | 134062 | 138801
19 | 30:50.52 | 3:59.43 | 138802 | 156769
20 | 34:50.20 | 1:40.55 | 156770 | 164324
21 | 36:31.00 | 4:09.25 | 164325 | 183024
22 | 40:40.25 | 1:21.00 | 183025 | 189099
23 | 42:01.25 | 1:12.60 | 189100 | 194559
24 | 43:14.10 | 1:11.30 | 194560 | 199914
25 | 44:25.40 | 1:18.30 | 199915 | 205794
26 | 45:43.70 | 2:00.07 | 205795 | 214801
27 | 47:44.02 | 2:25.43 | 214802 | 225719
28 | 50:09.45 | 6:02.55 | 225720 | 252924
29 | 56:12.25 | 0:57.70 | 252925 | 257269
30 | 57:10.20 | 1:12.42 | 257270 | 262711
31 | 58:22.62 | 4:52.25 | 262712 | 284636
32 | 63:15.12 | 1:37.70 | 284637 | 291981
33 | 64:53.07 | 1:17.33 | 291982 | 297789
34 | 66:10.40 | 2:56.00 | 297790 | 310989
35 | 69:06.40 | 3:39.65 | 310990 | 327479
36 | 72:46.30 | 1:24.05 | 327480 | 333784


Range status and errors

Selected range

Filename C:\Program Files\Exact Audio Copy\Flac\Bach - Matthäus-Passion CD1.wav

Peak level 98.0 %
Extraction speed 8.1 X
Range quality 99.9 %
Test CRC F1E97E25
Copy CRC F1E97E25
Copy OK

No errors occurred

End of status report

==== Log checksum 452C60C50D518BAC3D6927E1441CC31621843933486C670F29D8AB255533E1C8 ====


Exact Audio Copy V1.3 from 2. September 2016

EAC extraction logfile from 14. November 2017, 15:28

Wolfgang Gönnenwein, Consortium musicum, Süddeutscher Madrigalchor / Bach - Matthäus-Passion CD2

Used drive : HL-DT-STDVDRAM GH24NS95 Adapter: 1 ID: 0

Read mode : Secure
Utilize accurate stream : Yes
Defeat audio cache : Yes
Make use of C2 pointers : No

Read offset correction : 6
Overread into Lead-In and Lead-Out : No
Fill up missing offset samples with silence : Yes
Delete leading and trailing silent blocks : No
Null samples used in CRC calculations : Yes
Used interface : Native Win32 interface for Win NT & 2000

Used output format : User Defined Encoder
Selected bitrate : 128 kBit/s
Quality : High
Add ID3 tag : No
Command line compressor : C:\Program Files\Exact Audio Copy\Flac\flac.exe
Additional command line options : -V -8 -T "Date=%year%" -T "Genre=%genre%" %source%


TOC of the extracted CD

Track | Start | Length | Start sector | End sector
––––––––––––––––––––––––––––-
1 | 0:00.00 | 2:48.00 | 0 | 12599
2 | 2:48.00 | 7:21.00 | 12600 | 45674
3 | 10:09.00 | 4:51.15 | 45675 | 67514
4 | 15:00.15 | 1:15.18 | 67515 | 73157
5 | 16:15.33 | 0:55.20 | 73158 | 77302
6 | 17:10.53 | 1:19.22 | 77303 | 83249
7 | 18:30.00 | 1:05.13 | 83250 | 88137
8 | 19:35.13 | 3:57.02 | 88138 | 105914
9 | 23:32.15 | 1:37.08 | 105915 | 113197
10 | 25:09.23 | 0:13.32 | 113198 | 114204
11 | 25:22.55 | 0:15.55 | 114205 | 115384
12 | 25:38.35 | 0:22.18 | 115385 | 117052
13 | 26:00.53 | 1:02.05 | 117053 | 121707
14 | 27:02.58 | 1:05.40 | 121708 | 126622
15 | 28:08.23 | 0:14.02 | 126623 | 127674
16 | 28:22.25 | 1:28.05 | 127675 | 134279
17 | 29:50.30 | 7:32.50 | 134280 | 168229
18 | 37:23.05 | 1:14.28 | 168230 | 173807
19 | 38:37.33 | 1:03.67 | 173808 | 178599
20 | 39:41.25 | 0:09.38 | 178600 | 179312
21 | 39:50.63 | 0:48.07 | 179313 | 182919
22 | 40:38.70 | 3:49.00 | 182920 | 200094
23 | 44:27.70 | 2:33.53 | 200095 | 211622
24 | 47:01.48 | 1:20.20 | 211623 | 217642
25 | 48:21.68 | 2:27.72 | 217643 | 228739
26 | 50:49.65 | 0:24.55 | 228740 | 230594
27 | 51:14.45 | 1:01.03 | 230595 | 235172
28 | 52:15.48 | 0:16.07 | 235173 | 236379
29 | 52:31.55 | 1:15.48 | 236380 | 242052
30 | 53:47.28 | 5:20.15 | 242053 | 266067
31 | 59:07.43 | 0:04.10 | 266068 | 266377
32 | 59:11.53 | 0:20.32 | 266378 | 267909
33 | 59:32.10 | 0:33.60 | 267910 | 270444
34 | 60:05.70 | 0:51.60 | 270445 | 274329
35 | 60:57.55 | 0:25.28 | 274330 | 276232
36 | 61:23.08 | 0:56.62 | 276233 | 280494
37 | 62:19.70 | 7:49.25 | 280495 | 315694
38 | 70:09.20 | 0:40.03 | 315695 | 318697
39 | 70:49.23 | 0:11.60 | 318698 | 319582
40 | 71:01.08 | 0:18.30 | 319583 | 320962
41 | 71:19.38 | 2:27.57 | 320963 | 332044


Range status and errors

Selected range

Filename C:\Program Files\Exact Audio Copy\Flac\Bach - Matthäus-Passion CD2.wav

Peak level 98.0 %
Extraction speed 8.1 X
Range quality 100.0 %
Test CRC 44EE6B38
Copy CRC 44EE6B38
Copy OK

No errors occurred

End of status report

==== Log checksum 305093CC4C2387EFA979FE07A7C73443025581810A1D610D307961ABD7376FBE ====


Exact Audio Copy V1.3 from 2. September 2016

EAC extraction logfile from 14. November 2017, 15:54

Wolfgang Gönnenwein, Consortium musicum, Süddeutscher Madrigalchor / Bach - Matthäus-Passion CD3

Used drive : HL-DT-STDVDRAM GH24NS95 Adapter: 1 ID: 0

Read mode : Secure
Utilize accurate stream : Yes
Defeat audio cache : Yes
Make use of C2 pointers : No

Read offset correction : 6
Overread into Lead-In and Lead-Out : No
Fill up missing offset samples with silence : Yes
Delete leading and trailing silent blocks : No
Null samples used in CRC calculations : Yes
Used interface : Native Win32 interface for Win NT & 2000

Used output format : User Defined Encoder
Selected bitrate : 128 kBit/s
Quality : High
Add ID3 tag : No
Command line compressor : C:\Program Files\Exact Audio Copy\Flac\flac.exe
Additional command line options : -V -8 -T "Date=%year%" -T "Genre=%genre%" %source%


TOC of the extracted CD

Track | Start | Length | Start sector | End sector
––––––––––––––––––––––––––––-
1 | 0:00.00 | 1:03.18 | 0 | 4742
2 | 1:03.18 | 0:41.25 | 4743 | 7842
3 | 1:44.43 | 5:47.27 | 7843 | 33894
4 | 7:31.70 | 2:02.10 | 33895 | 43054
5 | 9:34.05 | 0:32.55 | 43055 | 45509
6 | 10:06.60 | 0:10.38 | 45510 | 46297
7 | 10:17.23 | 1:02.40 | 46298 | 50987
8 | 11:19.63 | 0:19.30 | 50988 | 52442
9 | 11:39.18 | 1:44.65 | 52443 | 60307
10 | 13:24.08 | 4:16.45 | 60308 | 79552
11 | 17:40.53 | 1:48.70 | 79553 | 87722
12 | 19:29.48 | 0:04.10 | 87723 | 88032
13 | 19:33.58 | 0:24.32 | 88033 | 89864
14 | 19:58.15 | 0:09.55 | 89865 | 90594
15 | 20:07.70 | 0:30.23 | 90595 | 92867
16 | 20:38.18 | 1:32.20 | 92868 | 99787
17 | 22:10.38 | 1:24.25 | 99788 | 106112
18 | 23:34.63 | 0:24.60 | 106113 | 107972
19 | 23:59.48 | 1:21.52 | 107973 | 114099
20 | 25:21.25 | 2:15.30 | 114100 | 124254
21 | 27:36.55 | 8:10.53 | 124255 | 161057
22 | 35:47.33 | 1:14.17 | 161058 | 166624
23 | 37:01.50 | 1:13.43 | 166625 | 172142
24 | 38:15.18 | 0:42.65 | 172143 | 175357
25 | 38:58.08 | 2:20.45 | 175358 | 185902
26 | 41:18.53 | 7:17.42 | 185903 | 218719


Range status and errors

Selected range

Filename C:\Program Files\Exact Audio Copy\Flac\Bach - Matthäus-Passion CD3.wav

Peak level 100.0 %
Extraction speed 6.8 X
Range quality 99.9 %
Test CRC 03370112
Copy CRC 03370112
Copy OK

No errors occurred

End of status report

==== Log checksum A72EEC742C1D3E5A8021498E60368D776D23A57825EBE0E0A6BB529DE11242E9 ====

Wolfgang Gonnenwein, Consortium musicum, Suddeutscher Madrigalchor - Bach: Matthaus-Passion (1989)