Subcategories

XYZ - XYZ (1989) [Reissue 2001]

Posted By: Andi_Deris
XYZ - XYZ (1989) [Reissue 2001]

XYZ - XYZ (1989) [Reissue 2001]
EAC Rip | FLAC: Image+Cue+Log | 372 Mb | MP3 CBR 320 kbps | 124 Mb | Scans | Time: 44:51
Hard Rock, Glam/Hair Metal | Axe Killer (France) | REF 3064422

XYZ is the 1989 self-titled debut album released by the mid-1980s American glam metal band XYZ. There were two hits off the album; "Inside Out" and "What Keeps Me Loving You". The album was a moderate success, charting at No. 99 on the Billboard 200. There were two music videos made for the songs "Inside Out" and "What Keeps Me Loving You" which both aired on MTV between 1989 and 1990.

XYZ - XYZ (1989) [Reissue 2001]




XYZ - XYZ (1989) [Reissue 2001]


Track Listing

01. Maggy (4:40)
02. Inside Out (4:10)
03. What Keeps Me Loving You (4:42)
04. Take What You Can (4:28)
05. Follow The Night (3:25)
06. Come On N' Love Me (3:49)
07. Souvenirs (3:56)
08. Tied Up (4:14)
09. Nice Day To Die (5:07)
10. After The Rain (2:52)
11. On The Blue Side Of The Night (Bonus track) (3:28)

Produced by Don Dokken

The Band

• Marc Richard Diglio - guitars
• Terry Ilous - vocals
• Patt Fontaine - bass
• Paul Monroe - drums

Notes

Metal band XYZ's self-titled debut album from 1989 has been digitally remastered and reissued with a bonus track, "On The Blue Side Of The Night," in addition to the 10 original songs. The first album of XYZ is a real gem heavy Rock. French edition.

Exact Audio Copy V0.99 prebeta 5 from 4. May 2009

Отчёт EAC об извлечении, выполненном 13. декабря 2009, 17:33

XYZ / XYZ

Дисковод: HL-DT-STDVD-RAM GSA-H55L Adapter: 0 ID: 0

Режим чтения : Достоверность
Использование точного потока : Да
Отключение кэша аудио : Да
Использование указателей C2 : Нет

Коррекция смещения при чтении : 102
Способность читать области Lead-in и Lead-out : Нет
Заполнение пропущенных сэмплов тишиной : Да
Удаление блоков с тишиной в начале и конце : Нет
При вычислениях CRC использовались нулевые сэмплы : Да
Интерфейс : Встроенный Win32-интерфейс для Win NT/2000

Выходной формат : Пользовательский кодировщик
Выбранный битрейт : 1024 kBit/s
Качество : Высокий
Добавление ID3-тэга : Нет
Утилита сжатия : C:\Program Files\Exact Audio Copy\FLAC\FLAC.EXE
Дополнительные параметры : -6 -V -T "ARTIST=%a" -T "TITLE=%t" -T "ALBUM=%g" -T "DATE=%y" -T "TRACKNUMBER=%n" -T "GENRE=%m" -T "COMMENT=%e" %s -o %d


TOC извлечённого CD

Трек | Старт | Длительность | Начальный сектор | Конечный сектор
––––––––––––––––––––––––––––––––––-
1 | 0:00.00 | 4:40.69 | 0 | 21068
2 | 4:40.69 | 4:10.21 | 21069 | 39839
3 | 8:51.15 | 4:42.58 | 39840 | 61047
4 | 13:33.73 | 4:28.14 | 61048 | 81161
5 | 18:02.12 | 3:25.21 | 81162 | 96557
6 | 21:27.33 | 3:49.26 | 96558 | 113758
7 | 25:16.59 | 3:56.15 | 113759 | 131473
8 | 29:12.74 | 4:14.45 | 131474 | 150568
9 | 33:27.44 | 5:07.39 | 150569 | 173632
10 | 38:35.08 | 2:52.45 | 173633 | 186577
11 | 41:27.53 | 3:28.25 | 186578 | 202202


Характеристики диапазона извлечения и сообщения об ошибках

Выбранный диапазон

Имя файла D:\flac\xyz\XYZ - XYZ.wav

Пиковый уровень 100.0 %
Качество диапазона 99.9 %
CRC копии 9BBD8669
Копирование… OK

Ошибок не произошло


AccurateRip: сводка

Трек 1 нет в базе данных
Трек 2 точность не определена (достоверность 3) [A97E1EA0], AccurateRip вернул [F7C62558]
Трек 3 точность не определена (достоверность 2) [EB18B8B3], AccurateRip вернул [C4FBD637]
Трек 4 точность не определена (достоверность 2) [A31C74D3], AccurateRip вернул [2CCCB82F]
Трек 5 точность не определена (достоверность 2) [05B4AE2C], AccurateRip вернул [E6FCE52E]
Трек 6 точность не определена (достоверность 3) [7D974046], AccurateRip вернул [BE0E64FF]
Трек 7 точность не определена (достоверность 2) [2E42E3E3], AccurateRip вернул [46E02B3D]
Трек 8 точность не определена (достоверность 2) [ACCEC20F], AccurateRip вернул [238C3740]
Трек 9 точность не определена (достоверность 2) [F1507A6E], AccurateRip вернул [96784E23]
Трек 10 точность не определена (достоверность 2) [1C1965B6], AccurateRip вернул [48EE828B]
Трек 11 точность не определена (достоверность 2) [4EDD8C6B], AccurateRip вернул [340F9F23]

10 трек(и) не удалось проверить на точность
1 трек(и) не содержатся в базе AccurateRip

Ни один трек не прошёл проверки на точность
В вашей базе может быть иной вариант штамповки диска

Конец отчёта


Many thanks to the original uploader: afayurij

–––––––––
Nitroflare