Tags
Language
Tags

Yes - Going for the One (1977) [2001, Japan, AMCY-6283]

Posted By: v3122
Yes - Going for the One (1977) [2001, Japan, AMCY-6283]

Yes - Going for the One (1977)
EAC | Flac(Image) + Cue + Log & MP3 CBR 320Kbps
East-West, AMCY-6283 | ~ 276 or 93 Mb | Scans(jpg) -> 69 Mb
Progressive Rock | HDCD Remastered by Isao Kikuchi

Going for the One is perhaps the most overlooked item in the Yes catalog. It marked Rick Wakeman's return to the band after a three-year absence, and also a return to shorter song forms after the experimentalism of Close to the Edge, Tales from Topographic Oceans, and Relayer. In many ways, this disc could be seen as the follow-up to Fragile. Its five tracks still retain mystical, abstract lyrical images, and the music is grand and melodic, the vocal harmonies perfectly balanced by the stinging guitar work of Steve Howe, Wakeman's keyboards, and the solid rhythms of Alan White and Chris Squire. The title track features Howe on steel guitar (he's the only prog rocker who bothers with the instrument). "Turn of the Century" and the album's single, "Wonderous Stories," are lovely ballads the way only Yes can do them. "Parallels" is the album's big, pompous song, so well done that in later years the band opened concerts with it. Wakeman's stately church organ, recorded at St. Martin's Church, Vevey, Switzerland, sets the tone for this "Roundabout"-ish track. The concluding "Awaken" is the album's nod to the extended suite. Again, the lyrics are spacy in the extreme, but Jon Anderson and Squire are dead-on vocally, and the addition of Anderson's harp and White's tuned percussion round out this evocative track.

by Ross Boissoneau, allmusic
Yes - Going for the One (1977) [2001, Japan, AMCY-6283]


Yes - Going for the One (1977):

Yes - Going for the One (1977) [2001, Japan, AMCY-6283]

Tracklist:

01. Going For The One (5:32)
02. Turn Of The Century (7:55)
03. Parallels (5:53)
04. Wonderous Stories (3:50)
05. Awaken (15:28)

Exact Audio Copy V1.2 from 12. August 2016

EAC extraction logfile from 22. February 2017, 9:43

Yes / Going for the One

Used drive : hp DVD-RAM GH80N Adapter: 1 ID: 0

Read mode : Secure
Utilize accurate stream : Yes
Defeat audio cache : Yes
Make use of C2 pointers : No

Read offset correction : 667
Overread into Lead-In and Lead-Out : No
Fill up missing offset samples with silence : Yes
Delete leading and trailing silent blocks : No
Null samples used in CRC calculations : Yes
Used interface : Native Win32 interface for Win NT & 2000

Used output format : User Defined Encoder
Selected bitrate : 1024 kBit/s
Quality : High
Add ID3 tag : No
Command line compressor : C:\Program Files\Exact Audio Copy\Flac\flac.exe
Additional command line options : -8 -e -V -T "ARTIST=%artist%" -T "TITLE=%title%" -T "ALBUM=%albumtitle%" -T "DATE=%year%" -T "TRACKNUMBER=%tracknr%" -T "GENRE=%genre%" -T "PERFORMER=%albuminterpret%" -T "COMPOSER=%composer%" %haslyrics%–tag-from-file=LYRICS="%lyricsfile%"%haslyrics% -T "ALBUMARTIST=%albumartist%" -T "DISCNUMBER=%cdnumber%" -T "TOTALDISCS=%totalcds%" -T "TOTALTRACKS=%numtracks%" -T "COMMENT=%comment%" %source% -o %dest%


TOC of the extracted CD

Track | Start | Length | Start sector | End sector
––––––––––––––––––––––––––––-
1 | 0:00.00 | 5:32.20 | 0 | 24919
2 | 5:32.20 | 7:55.07 | 24920 | 60551
3 | 13:27.27 | 5:53.30 | 60552 | 87056
4 | 19:20.57 | 3:50.08 | 87057 | 104314
5 | 23:10.65 | 15:28.72 | 104315 | 173986


Range status and errors

Selected range

Filename C:\Sounds\Yes - Going for the One (1977)[FLAC]\Yes - Going for the One.wav

Peak level 98.3 %
Extraction speed 2.9 X
Range quality 100.0 %
Test CRC 1BC20BDB
Copy CRC 1BC20BDB
Copy OK

No errors occurred


AccurateRip summary

Track 1 accurately ripped (confidence 10) [98E32C17] (AR v2)
Track 2 accurately ripped (confidence 10) [341A0AAF] (AR v2)
Track 3 accurately ripped (confidence 10) [081CD744] (AR v2)
Track 4 accurately ripped (confidence 10) [EC038BDC] (AR v2)
Track 5 accurately ripped (confidence 10) [F3068101] (AR v2)

All tracks accurately ripped

End of status report

–– CUETools DB Plugin V2.1.6

[CTDB TOCID: o.Yy2oBC9M6IHSkv7kphXHzZNuw-] found
Submit result: already submitted
Track | CTDB Status
1 | (15/15) Accurately ripped
2 | (15/15) Accurately ripped
3 | (15/15) Accurately ripped
4 | (15/15) Accurately ripped
5 | (15/15) Accurately ripped


==== Log checksum 467FD8AD66315910BD51CBA45E0EB18D4A368287ED3410773180D44117042073 ====


[CUETools log; Date: 12.05.2017 12:08:37; Version: 2.1.5]
HDCD: peak extend: yes, transient filter: some, gain: none
[CTDB TOCID: o.Yy2oBC9M6IHSkv7kphXHzZNuw-] found.
Track | CTDB Status
1 | (17/17) Accurately ripped
2 | (17/17) Accurately ripped
3 | (17/17) Accurately ripped
4 | (17/17) Accurately ripped
5 | (17/17) Accurately ripped
[AccurateRip ID: 0006e10f-0020bbc6-36090f05] found.
Track [ CRC | V2 ] Status
01 [3c85342c|98e32c17] (08+11/19) Accurately ripped
02 [75d2faab|341a0aaf] (08+11/19) Accurately ripped
03 [f7766e7d|081cd744] (08+11/19) Accurately ripped
04 [c6403aa2|ec038bdc] (08+11/19) Accurately ripped
05 [45cfd363|f3068101] (08+11/19) Accurately ripped

Track Peak [ CRC32 ] [W/O NULL] [ LOG ]
– 98,3 [1BC20BDB] [E916AA57] CRC32
01 98,3 [947EE33E] [3025C644]
02 98,3 [64CEDB4B] [5E939269]
03 98,3 [C093B04F] [D24ACD10]
04 98,3 [924C2E09] [75BAACF4]
05 98,3 [BA4F6D72] [15999378]


Yes - Going for the One (1977) [2001, Japan, AMCY-6283]

All thanks go to Farscape2008

Yes in my Blog

Download Yes - Going for the One (1977):