Tags
Language
Tags
January 2023
Su Mo Tu We Th Fr Sa
1 2 3 4 5 6 7
8 9 10 11 12 13 14
15 16 17 18 19 20 21
22 23 24 25 26 27 28
29 30 31 1 2 3 4

Yes - Union Live (2011) [2CD + 2DVD, Deluxe Edition]

Posted By: v3122
Yes - Union Live (2011) [2CD + 2DVD, Deluxe Edition]

Anna Domino - Anna Domino (1986)
EAC | Flac(Image) + Cue + Log & MP3 CBR 320Kbps
2CD | Gonzo Multimedia, HST007DVD | ~ 854 or 280 Mb | Artwork(jpg) -> 99 Mb
2xDVD-9: NTSC 4:3 (720x480) VBR | LPCM, 2 ch / Dolby AC3, 2 & 6 ch
Progressive Rock

Union Live is a live release by progressive rock band Yes. It documents their “Union” tour of 1991, supporting the Union (1991) album…
Union Live is a live release by progressive rock band Yes. It documents their “Union” tour of 1991, supporting the Union (1991) album.
In addition to the California Shoreline Amphitheatre show that was available in Japan as The Union Tour Live, the limited edition package includes a DVD containing the Denver McNichols Sports Arena show that has been available in trading circles for years, audience shot footage from the Florida Pensacola Civic Center show, bonus audio 5.1 mixes, and bonus audio tracks.

~ discogs
Yes - Union Live (2011) [2CD + 2DVD, Deluxe Edition]

Anna Domino - Anna Domino (1986):

Yes - Union Live (2011) [2CD + 2DVD, Deluxe Edition]

Tracklist CD1:

01 Intro Firebird Suite
02 Yours Is No Disgrace
03 Rhythm of Love
04 Heart of the Sunrise
05 Clap
06 Owner of a Lonely Heart
07 I've Seen All Good People

Exact Audio Copy V0.99 prebeta 5 from 4. May 2009

Отчёт EAC об извлечении, выполненном 28. сентября 2011, 10:01

YES / Union Tour - CD 1

Дисковод: TSSTcorpCDDVDW SH-S203B Adapter: 1 ID: 1

Режим чтения : Достоверность
Использование точного потока : Да
Отключение кэша аудио : Да
Использование указателей C2 : Нет

Коррекция смещения при чтении : 6
Способность читать области Lead-in и Lead-out : Нет
Заполнение пропущенных сэмплов тишиной : Да
Удаление блоков с тишиной в начале и конце : Нет
При вычислениях CRC использовались нулевые сэмплы : Да
Интерфейс : Установленный внешний ASPI-интерфейс

Выходной формат : Внутренние WAV-операции
Формат сэмплов : 44.100 Гц; 16 бит; стерео


TOC извлечённого CD

Трек | Старт | Длительность | Начальный сектор | Конечный сектор
––––––––––––––––––––––––––––––––––-
1 | 0:00.00 | 3:13.69 | 0 | 14543
2 | 3:13.69 | 15:33.06 | 14544 | 84524
3 | 18:47.00 | 6:03.45 | 84525 | 111794
4 | 24:50.45 | 11:26.06 | 111795 | 163250
5 | 36:16.51 | 6:57.50 | 163251 | 194575
6 | 43:14.26 | 8:04.31 | 194576 | 230906
7 | 51:18.57 | 7:56.17 | 230907 | 266623


Характеристики диапазона извлечения и сообщения об ошибках

Выбранный диапазон

Имя файла C:\Users\T-Rex\Desktop\1\YES - Union Tour - CD 1.wav

Пиковый уровень 100.0 %
Качество диапазона 100.0 %
CRC теста ABE80ADC
CRC копии ABE80ADC
Копирование… OK

Ошибок не произошло


AccurateRip: сводка

Трек 1 нет в базе данных
Трек 2 нет в базе данных
Трек 3 нет в базе данных
Трек 4 нет в базе данных
Трек 5 нет в базе данных
Трек 6 нет в базе данных
Трек 7 нет в базе данных

Ни одного трека нет в базе AccurateRip

Конец отчёта


[CUETools log; Date: 22.08.2020 8:31:14; Version: 2.1.4]
[AccurateRip ID: 001044ee-00629db0-610de207] disk not present in database.

Track Peak [ CRC32 ] [W/O NULL] [ LOG ]
– 100,0 [ABE80ADC] [D9510367] CRC32
01 100,0 [2C9C45B7] [F2855B36]
02 81,6 [9F0BD887] [3946E693]
03 81,6 [D452B875] [0C5539C3]
04 81,6 [02D779CA] [81DDD3C9]
05 81,6 [7A31303A] [6A17C512]
06 81,6 [74535786] [9A64650B]
07 81,6 [35133464] [36BC9C17]


Yes - Union Live (2011) [2CD + 2DVD, Deluxe Edition]

Tracklist CD2:

01 Solly's Beard
02 Saving My Heart
03 The Fish-Amazing Grace
04 Rick Wakeman Solo
05 Awaken
06 Roundabout

Exact Audio Copy V0.99 prebeta 5 from 4. May 2009

Отчёт EAC об извлечении, выполненном 28. сентября 2011, 10:19

YES / Union Tour - CD 2

Дисковод: TSSTcorpCDDVDW SH-S203B Adapter: 1 ID: 1

Режим чтения : Достоверность
Использование точного потока : Да
Отключение кэша аудио : Да
Использование указателей C2 : Нет

Коррекция смещения при чтении : 6
Способность читать области Lead-in и Lead-out : Нет
Заполнение пропущенных сэмплов тишиной : Да
Удаление блоков с тишиной в начале и конце : Нет
При вычислениях CRC использовались нулевые сэмплы : Да
Интерфейс : Установленный внешний ASPI-интерфейс

Выходной формат : Внутренние WAV-операции
Формат сэмплов : 44.100 Гц; 16 бит; стерео


TOC извлечённого CD

Трек | Старт | Длительность | Начальный сектор | Конечный сектор
––––––––––––––––––––––––––––––––––-
1 | 0:00.00 | 8:12.30 | 0 | 36929
2 | 8:12.30 | 6:13.32 | 36930 | 64936
3 | 14:25.62 | 10:48.62 | 64937 | 113598
4 | 25:14.49 | 5:46.46 | 113599 | 139594
5 | 31:01.20 | 18:26.13 | 139595 | 222557
6 | 49:27.33 | 10:03.70 | 222558 | 267852


Характеристики диапазона извлечения и сообщения об ошибках

Выбранный диапазон

Имя файла C:\Users\T-Rex\Desktop\1\YES - Union Tour - CD 2.wav

Пиковый уровень 81.6 %
Качество диапазона 100.0 %
CRC теста 5E04DBA3
CRC копии 5E04DBA3
Копирование… OK

Ошибок не произошло


AccurateRip: сводка

Трек 1 нет в базе данных
Трек 2 нет в базе данных
Трек 3 нет в базе данных
Трек 4 нет в базе данных
Трек 5 нет в базе данных
Трек 6 нет в базе данных

Ни одного трека нет в базе AccurateRip

Конец отчёта


[CUETools log; Date: 22.08.2020 8:38:13; Version: 2.1.4]
[AccurateRip ID: 000ce6a0-0046ab42-610df306] disk not present in database.

Track Peak [ CRC32 ] [W/O NULL] [ LOG ]
– 81,6 [5E04DBA3] [83A38B25] CRC32
01 81,6 [9A69D14D] [5C631159]
02 81,6 [C636A74B] [0939A4B3]
03 81,6 [B8BEBA9C] [27C2399C]
04 81,6 [F9DEAB4B] [1734C763]
05 81,6 [E659B737] [82170E98]
06 81,6 [2A919C50] [31DC7E7F]


Yes - Union Live (2011) [2CD + 2DVD, Deluxe Edition]

Tracklist DVD1:

1. Intro: Firebird Suite
2. Yours Is No Disgrace (15:06)
3. Rhythm of Love (5:04)
4. Heart of the Sunrise (10:16)
5. Clap (6:26)
6. Owner of a Lonely Heart (6:24)
7. I've Seen All Good People (7:26)
8. Solly's Beard (6:25)
9. Saving My Heart (4:55)
10. The Fish / Amazing Grace (10:05)
11. Rick Wakeman Solo (4:21)
12. Awaken (19:01)
13. Roundabout (10:14)

Title: Yes 2011 - Union Live DVD1
Size: 7.74 Gb ( 8 115 718,00 KBytes ) - DVD-9
Enabled regions: 1, 2, 3, 4, 5, 6, 7, 8

VTS_01 :
Play Length: 01:58:43
Video: NTSC 4:3 (720x480) VBR
Audio:
English (LinearPCM, 2 ch)
English (Dolby AC3, 6 ch)
Subtitles:
Japanese


Yes - Union Live (2011) [2CD + 2DVD, Deluxe Edition]

Tracklist DVD2. Bonus DVD [05:42:48]:

Bootleg video from Denver, McNichols Sports Arena, 9th May 1991 [02:43:09]
01. Firebird Suite/Yours Is No Disgrace
02. Rhythm Of Love
03. Shock To The System
04. Heart Of The Sunrise
05. Clap/Mood for a Day
06. Make it Easy/Owner Of a Lonely Heart
07. And You And I
08. Drum Duet
09. Hold On
10. I've Seen All Good People
11. Kaye solo/Changes
12. Solly's Beard
13. Long Distance Runaround
14. Whitefish/Amazing Grace
15. Lift Me Up
16. Wakeman solo
17. Awaken
18. Roundabout

Bootleg video from Pensacola, Pensacola Civic Centre, 9th April 1991 [02:59:39]
01. Firebird Suite
02. Yours Is No Disgrace
03. Rhythm Of Love
04. City Of Love
05. Heart Of The Sunrise
06. Leaves Of Green
07. Concerto in D/Clap
08. Make It Easy/Owner Of A Lonely Heart
09. And You And I
10. Drum Duet
11. Hold On
12. Shock To The System
13. Solly's Beard
14. Changes
15. Take The Water To The Mountain
16. Soon
17. Long Distance Runaround
18. Whitefish
19. Amazing Grace
20. Lift Me Up
21. Rick Wakeman solo
22. Awaken
23. Roundabout
24. Starship Trooper

Bonus Audio - 5.1 Surround Tracks
California, Shoreline Amphitheatre, 8th August 1991
01. Shock To The System
02. And You And I
03. Lift Me Up

Bonus Audio - Stereo Tracks
London, Wembley Arena, 29th June 1991
01. Shock To The System
02. And You And I
Burgettstown, Starlake Amphitheatre, 24th July 1991
03. Drum Duet
04. Changes

Title: Yes 2011 - Union Live DVD2
Size: 7.87 Gb ( 8 251 656,00 KBytes ) - DVD-9
Enabled regions: 1, 2, 3, 4, 5, 6, 7, 8

VTS_01 :
Play Length: 00:00:04
Video: NTSC 4:3 (720x480) VBR

VTS_02 :
Play Length: 00:00:07
Video: NTSC 4:3 (720x480) VBR

VTS_03 :
Play Length: 02:43:09+{02:43:09}
Video: NTSC 4:3 (720x480) VBR
Audio:
Not specified (Dolby AC3, 2 ch)

VTS_04 :
Play Length: 00:05:52
Video: NTSC 4:3 (720x480) VBR
Audio:
Not specified (Dolby AC3, 6 ch)
Subtitles:
Not specified

VTS_05 :
Play Length: 00:06:25
Video: NTSC 4:3 (720x480) VBR
Audio:
Not specified (Dolby AC3, 6 ch)
Subtitles:
Not specified

VTS_06 :
Play Length: 00:09:25
Video: NTSC 4:3 (720x480) VBR
Audio:
Not specified (Dolby AC3, 6 ch)
Subtitles:
Not specified

VTS_07 :
Play Length: 00:05:26
Video: NTSC 4:3 (720x480) VBR
Audio:
Not specified (Dolby AC3, 2 ch)
Subtitles:
Not specified

VTS_08 :
Play Length: 00:10:36
Video: NTSC 4:3 (720x480) VBR
Audio:
Not specified (Dolby AC3, 2 ch)
Subtitles:
Not specified

VTS_09 :
Play Length: 00:07:33
Video: NTSC 4:3 (720x480) VBR
Audio:
Not specified (Dolby AC3, 2 ch)
Subtitles:
Not specified

VTS_10 :
Play Length: 00:05:19
Video: NTSC 4:3 (720x480) VBR
Audio:
Not specified (Dolby AC3, 2 ch)
Subtitles:
Not specified

VTS_11 :
Play Length: 02:59:39+{02:59:39}
Video: NTSC 4:3 (720x480) VBR
Audio:
Not specified (Dolby AC3, 2 ch)


Yes - Union Live (2011) [2CD + 2DVD, Deluxe Edition]

Yes - Union Live (2011) [2CD + 2DVD, Deluxe Edition]

Yes - Union Live (2011) [2CD + 2DVD, Deluxe Edition]

Yes - Union Live (2011) [2CD + 2DVD, Deluxe Edition]

All thanks go to the original releaser

Yes in my Blog

Download Anna Domino - Anna Domino (1986):