Tags
Language
Tags

Yevgeny Mravinsky, LPO - Dmitri Shostakovich: Symphony No.5, Op.47; Symphony No.12 'The Year 1917', Op.112 (2016)

Posted By: Designol
Yevgeny Mravinsky, LPO - Dmitri Shostakovich: Symphony No.5, Op.47; Symphony No.12 'The Year 1917', Op.112 (2016)

Dmitri Shostakovich: Symphony No.5, Op.47; Symphony No.12 'The Year 1917', Op.112 (2016)
Leningrad Philharmonic Orchestra; conducted by Yevgeny Mravinsky

EAC | FLAC | Image (Cue&Log) ~ 423 Mb | Mp3 (CBR320) ~ 204 Mb | Scans included
Genre: Classical | Label: Praga Digitals | # 350 122 | Time: 01:19:27

Shostakovich's Symphony No.5 was given its premiere in 1937. It was outwardly in compliance with the ruling party, but the public heard a message of suffering in Shostakovich's masterpiece and it was an unprecedented triumph. Symphony No.12 "The Year 1917" was dedicated to Vladimir Lenin. Both works were premiered by the Leningrad Philharmonic Orchestra under the direction of Yevgeny Mravinsky. The performances featured here were recorded in December 1965.

Yevgeny Mravinsky, LPO - Dmitri Shostakovich: Symphony No.5, Op.47; Symphony No.12 'The Year 1917', Op.112 (2016)



Yevgeny Mravinsky, LPO - Dmitri Shostakovich: Symphony No.5, Op.47; Symphony No.12 'The Year 1917', Op.112 (2016)



Yevgeny Mravinsky, LPO - Dmitri Shostakovich: Symphony No.5, Op.47; Symphony No.12 'The Year 1917', Op.112 (2016)

Yevgeny Mravinsky and Dmitri Shostakovich


Tracklist:

Symphony No.5 in D minor, Op.47 (1937)
01. I. Moderato (14:35)
02. II. Allegretto (04:59)
03. III. Largo (12:22)
04. IV. Allegro non troppo (10:27)

Symphony No.12 in D minor 'The Year 1917', Op.112 (1961)
05. I. Revolutionary Petrograd (11:34)
06. II. Razliv (11:23)
07. III. Aurora (04:24)
08. IV. The Dawn of Humanity (09:40)


Exact Audio Copy V1.0 beta 4 from 7. December 2014

EAC extraction logfile from 26. August 2016, 21:26

Yevgeny Mravinsky / The Mravinsky - Shostakovich Friendship

Used drive : TSSTcorpDVDWBD TS-LB23A Adapter: 1 ID: 0

Read mode : Secure
Utilize accurate stream : Yes
Defeat audio cache : Yes
Make use of C2 pointers : No

Read offset correction : 6
Overread into Lead-In and Lead-Out : No
Fill up missing offset samples with silence : Yes
Delete leading and trailing silent blocks : No
Null samples used in CRC calculations : Yes
Used interface : Native Win32 interface for Win NT & 2000

Used output format : User Defined Encoder
Selected bitrate : 128 kBit/s
Quality : High
Add ID3 tag : Yes
Command line compressor : C:\Program Files (x86)\Exact Audio Copy\Flac\flac.exe
Additional command line options : -T "COMMENT=Ripped by GFox" -V -8 %source%


TOC of the extracted CD

Track | Start | Length | Start sector | End sector
––––––––––––––––––––––––––––-
1 | 0:00.00 | 14:35.65 | 0 | 65689
2 | 14:35.65 | 4:59.36 | 65690 | 88150
3 | 19:35.26 | 12:22.49 | 88151 | 143849
4 | 31:58.00 | 10:27.57 | 143850 | 190931
5 | 42:25.57 | 11:34.74 | 190932 | 243055
6 | 54:00.56 | 11:23.00 | 243056 | 294280
7 | 65:23.56 | 4:24.13 | 294281 | 314093
8 | 69:47.69 | 9:40.04 | 314094 | 357597


Range status and errors

Selected range

Filename D:\Downloads\Yevgeny Mravinsky - The Mravinsky - Shostakovich Friendship.wav

Peak level 91.7 %
Extraction speed 1.8 X
Range quality 100.0 %
Test CRC 77DA3182
Copy CRC 77DA3182
Copy OK

No errors occurred


AccurateRip summary

Track 1 not present in database
Track 2 not present in database
Track 3 not present in database
Track 4 not present in database
Track 5 not present in database
Track 6 not present in database
Track 7 not present in database
Track 8 not present in database

None of the tracks are present in the AccurateRip database

End of status report

==== Log checksum 12FB8D70AF5533000072D0A78804F3042A8FB5C36C55CA6F36096ABC38E4472C ====

foobar2000 1.2 / Dynamic Range Meter 1.1.1
log date: 2016-08-31 14:15:46

––––––––––––––––––––––––––––––––––––––––
Analyzed: Yevgeny Mravinsky / The Mravinsky - Shostakovich Friendship
––––––––––––––––––––––––––––––––––––––––

DR Peak RMS Duration Track
––––––––––––––––––––––––––––––––––––––––
DR12 -0.95 dB -20.79 dB 14:36 01-Symphony No.5, Op.47 - I. Moderato
DR13 -1.84 dB -20.79 dB 4:59 02-Symphony No.5, Op.47 - II. Allegretto
DR13 -2.48 dB -22.59 dB 12:23 03-Symphony No.5, Op.47 - III. Largo
DR11 -0.75 dB -16.62 dB 10:28 04-Symphony No.5, Op.47 - IV. Allegro non troppo
DR11 -1.44 dB -16.66 dB 11:35 05-Symphony No.12, Op.112 - I. Revolutionary Petrograd
DR14 -4.17 dB -25.95 dB 11:23 06-Symphony No.12, Op.112 - II. Razliv
DR11 -2.20 dB -19.07 dB 4:24 07-Symphony No.12, Op.112 - III. Aurora
DR11 -0.95 dB -16.84 dB 9:40 08-Symphony No.12, Op.112 - IV. The Dawn of Humanity
––––––––––––––––––––––––––––––––––––––––

Number of tracks: 8
Official DR value: DR12

Samplerate: 44100 Hz
Channels: 2
Bits per sample: 16
Bitrate: 706 kbps
Codec: FLAC
================================================================================

Yevgeny Mravinsky, LPO - Dmitri Shostakovich: Symphony No.5, Op.47; Symphony No.12 'The Year 1917', Op.112 (2016)

All thanks to original releaser - GFox

More interesting music in My Blog