Tags
Language
Tags

Yevgeny Mravinsky, LPO - Jean Sibelius: Symphony No.3 & No.7, 'The Swan of Tuonela'; Claude Debussy: Nocturnes (2016)

Posted By: Designol
Yevgeny Mravinsky, LPO - Jean Sibelius: Symphony No.3 & No.7, 'The Swan of Tuonela'; Claude Debussy: Nocturnes (2016)

Jean Sibelius: Symphony No.3 & No.7, 'The Swan of Tuonela'; Claude Debussy: Nocturnes (2016)
Leningrad Philharmonic Orchestra; conducted by Yevgeny Mravinsky

EAC | FLAC | Image (Cue&Log) ~ 354 Mb | Mp3 (CBR320) ~ 180 Mb | Scans included
Genre: Classical | Label: Praga Digitals | # 350 106 | Time: 01:10:53

Sibelius's Symphony No.3 was composed in 1907. It is the link between the romantic intensity of his first two symphonies and the more cold complexity of his later symphonies. Symphony No.7 was completed in 1924 and is notable for having only one movement. The Swan of Tuonela is a tone poem based on the Kalevala epic of Finnish mythology. The Leningrad Philharmonic Orchestra and Yevgeny Mravinsky pair these with Debussy's Nocturnes Nos.1 & 2.

Live performances of searing intensity, authoritative pacing and a breathtaking balance of tension and beauty. Includes Mravinsky’s only known Sibelius Symphony No. 3.

Review by Jessica Duchen, BBC Music Magazine

Yevgeny Mravinsky, LPO - Jean Sibelius: Symphony No.3 & No.7, 'The Swan of Tuonela'; Claude Debussy: Nocturnes (2016)



Yevgeny Mravinsky, LPO - Jean Sibelius: Symphony No.3 & No.7, 'The Swan of Tuonela'; Claude Debussy: Nocturnes (2016)



Yevgeny Mravinsky, LPO - Jean Sibelius: Symphony No.3 & No.7, 'The Swan of Tuonela'; Claude Debussy: Nocturnes (2016)



Tracklist:

Jean Sibelius (1865-1957)
Symphony No.3, Op.52
01. I. Allegro moderato (09:53)
02. II. Andantino con moto, quasi allegretto (08:30)
03. III. Moderato-Allegro ma non tanto (08:27)
The Swan of Tuonela, Op.22, No.3
04. Andante molto sostenuto (09:04)

Claude Achille Debussy (1862-1918)
05. Nocturnes No.1 Nuages (08:16)
06. Nocturnes No.2 Fetes (06:33)

Jean Sibelius
07. Symphony No.7, Op.105 (20:08)


Exact Audio Copy V1.0 beta 4 from 7. December 2014

EAC extraction logfile from 26. August 2016, 22:54

Yevgeny Mravinsky / A Debussy - Sibelius Conjunction

Used drive : TSSTcorpDVDWBD TS-LB23A Adapter: 1 ID: 0

Read mode : Secure
Utilize accurate stream : Yes
Defeat audio cache : Yes
Make use of C2 pointers : No

Read offset correction : 6
Overread into Lead-In and Lead-Out : No
Fill up missing offset samples with silence : Yes
Delete leading and trailing silent blocks : No
Null samples used in CRC calculations : Yes
Used interface : Native Win32 interface for Win NT & 2000

Used output format : User Defined Encoder
Selected bitrate : 128 kBit/s
Quality : High
Add ID3 tag : Yes
Command line compressor : C:\Program Files (x86)\Exact Audio Copy\Flac\flac.exe
Additional command line options : -T "COMMENT=Ripped by GFox" -V -8 %source%


TOC of the extracted CD

Track | Start | Length | Start sector | End sector
––––––––––––––––––––––––––––-
1 | 0:00.00 | 9:53.22 | 0 | 44496
2 | 9:53.22 | 8:30.25 | 44497 | 82771
3 | 18:23.47 | 8:27.40 | 82772 | 120836
4 | 26:51.12 | 9:04.53 | 120837 | 161689
5 | 35:55.65 | 8:16.47 | 161690 | 198936
6 | 44:12.37 | 6:33.06 | 198937 | 228417
7 | 50:45.43 | 20:08.07 | 228418 | 319024


Range status and errors

Selected range

Filename D:\Downloads\Yevgeny Mravinsky - A Debussy - Sibelius Conjunction.wav

Peak level 89.5 %
Extraction speed 2.0 X
Range quality 100.0 %
Test CRC 82E92CC5
Copy CRC 82E92CC5
Copy OK

No errors occurred


AccurateRip summary

Track 1 accurately ripped (confidence 1) [3DD5DE67] (AR v2)
Track 2 accurately ripped (confidence 1) [B5BC388A] (AR v2)
Track 3 accurately ripped (confidence 1) [BDF6DEBA] (AR v2)
Track 4 accurately ripped (confidence 1) [09CD0502] (AR v2)
Track 5 accurately ripped (confidence 1) [194A8062] (AR v2)
Track 6 accurately ripped (confidence 1) [59AD3832] (AR v2)
Track 7 accurately ripped (confidence 1) [1E93A7BB] (AR v2)

All tracks accurately ripped

End of status report

==== Log checksum CBDE557E2E6FF755D2E4F235081184F6A3D7EAAACAA1016D893957111E6B0329 ====

foobar2000 1.2 / Dynamic Range Meter 1.1.1
log date: 2016-08-28 16:19:41

––––––––––––––––––––––––––––––––––––––––
Analyzed: Yevgeny Mravinsky / A Debussy - Sibelius Conjunction
––––––––––––––––––––––––––––––––––––––––

DR Peak RMS Duration Track
––––––––––––––––––––––––––––––––––––––––
DR12 -2.36 dB -19.35 dB 9:53 01-Sibelius - Symphony No.3, Op.52 - I. Allegro moderato
DR13 -5.30 dB -23.27 dB 8:30 02-Sibelius - Symphony No.3, Op.52 - II. Andantino con moto, quasi allegretto
DR11 -1.50 dB -17.75 dB 8:28 03-Sibelius - Symphony No.3, Op.52 - III. Moderato-Allegro ma non tanto
DR16 -6.26 dB -28.12 dB 9:05 04-Sibelius - The Swan of Tuonela, Op.22, No.3 - Andante molto sostenuto
DR12 -5.03 dB -24.42 dB 8:17 05-Debussy - Nocturnes No.1 Nuages
DR11 -2.30 dB -19.28 dB 6:33 06-Debussy - Nocturnes No.2 Fetes
DR14 -0.96 dB -20.40 dB 20:08 07-Sibelius - Symphony No.7, Op.105
––––––––––––––––––––––––––––––––––––––––

Number of tracks: 7
Official DR value: DR13

Samplerate: 44100 Hz
Channels: 2
Bits per sample: 16
Bitrate: 663 kbps
Codec: FLAC
================================================================================

Yevgeny Mravinsky, LPO - Jean Sibelius: Symphony No.3 & No.7, 'The Swan of Tuonela'; Claude Debussy: Nocturnes (2016)

All thanks to original releaser - GFox

More interesting music in My Blog