Subcategories

Yevgeny Svetlanov - Russian Moods (1997)

Posted By: tirexiss
Yevgeny Svetlanov - Russian Moods (1997)

Yevgeny Svetlanov - Russian Moods (1997)
EAC | FLAC (image+.cue, log) | Covers Included | 02:29:57 | 710 MB
Genre: Classical | Label: Melodiya | Catalog: 34167

An appealing collection of short Russian orchestral works in recordings dating from 1965 to 1990. The performances are idiomatic, with plangent brass and bassoons, while Svetlanov unfolds the structure of each piece with a sure and certain hand. Many rewarding discoveries among the rarer pieces, including Glazunov’s surprisingly powerful Lyrical Poem, two miniatures by the Czech-born Eduard Nápravník, an influential figure in St Petersburg’s musical life for more than fifty years, and Balakirev’s suite of Chopin arrangements. George Hall

Yevgeny Svetlanov - Russian Moods (1997)

Track List:

CD 1:
Eduard Napravnik (1839-1916):
Melancholy, op.48 no.3
Night Intermezzo
Modest Mussorgsky (1839-1881):
Dawn at the Moskva River
Dance of the Persian Maidens
Alexander Glazunov (1865-1936):
Lyrical Poem in D flat major
Alexander Borodin (1833-1887):
Petite Suite (orch.: Glazunov)
Nikolai Rimsky-Korsakov (1844-1908):
At the Tomb, op.61
Anton Arensky (1861-1906):
Intermezzo in G minor, op.13

CD 2:
Sergei Rachmaninov (1873-1943):
Vocalise, op.34 no.14
The Rock, op.7
Anatoli Liadov (1855- 1914):
Eight Russian Folk Songs for Orchestra, op.58
Musical Snuff-Box, op.32
Vasili Kalinnikov (1866-1901):
Serenade in G minor for String Orchestra
Mili Balakirev (1837-1910):
Suite in D minor in Four Pieces by Frédéric Chopin

Performers:
SSR Symphony Orchestra
Yevgeny Svetlanov - conductor

Exact Audio Copy V1.0 beta 3 from 29. August 2011

EAC extraction logfile from 28. August 2013, 9:22

Evgeny Svetlanov / VC - Russian Moods - Evgeny Svetlanov

Used drive : TSSTcorpCDDVDW SH-222BB Adapter: 2 ID: 1

Read mode : Secure
Utilize accurate stream : Yes
Defeat audio cache : Yes
Make use of C2 pointers : No

Read offset correction : 6
Overread into Lead-In and Lead-Out : No
Fill up missing offset samples with silence : Yes
Delete leading and trailing silent blocks : No
Null samples used in CRC calculations : Yes
Used interface : Native Win32 interface for Win NT & 2000

Used output format : User Defined Encoder
Selected bitrate : 1024 kBit/s
Quality : High
Add ID3 tag : No
Command line compressor : C:\Program Files\Exact Audio Copy\Flac\flac.exe
Additional command line options : -8 -V -T "TITLE=%title%" -T "ARTIST=%artist%" -T "ALBUMARTIST=%albumartist%" -T "ALBUM=%albumtitle%" -T "DATE=%year%" -T "TRACKNUMBER=%tracknr%" -T "TRACKTOTAL=%numtracks%" -T "GENRE=%genre%" -T "COMMENT=%comment%" -T "PERFORMER=%albuminterpret%" -T "COMPOSER=%composer%" %source% -o %dest%


TOC of the extracted CD

Track | Start | Length | Start sector | End sector
––––––––––––––––––––––––––––-
1 | 0:00.00 | 6:59.65 | 0 | 31489
2 | 6:59.65 | 5:47.67 | 31490 | 57581
3 | 12:47.57 | 6:19.25 | 57582 | 86031
4 | 19:07.07 | 7:21.15 | 86032 | 119121
5 | 26:28.22 | 12:13.13 | 119122 | 174109
6 | 38:41.35 | 6:02.27 | 174110 | 201286
7 | 44:43.62 | 3:58.55 | 201287 | 219191
8 | 48:42.42 | 2:54.70 | 219192 | 232311
9 | 51:37.37 | 3:04.30 | 232312 | 246141
10 | 54:41.67 | 4:29.05 | 246142 | 266321
11 | 59:10.72 | 2:22.35 | 266322 | 277006
12 | 61:33.32 | 6:56.00 | 277007 | 308206
13 | 68:29.32 | 4:24.73 | 308207 | 328079
14 | 72:54.30 | 3:18.17 | 328080 | 342946


Range status and errors

Selected range

Filename E:\3000\[3082] VC – Russian Moods – Evgeny Svetlanov\cd1\VC - Russian Moods - Evgeny Svetlanov.wav

Peak level 98.0 %
Extraction speed 7.9 X
Range quality 99.9 %
Test CRC 6BDA0F47
Copy CRC 6BDA0F47
Copy OK

No errors occurred


AccurateRip summary

Track 1 accurately ripped (confidence 2) [CB3E31D5] (AR v2)
Track 2 accurately ripped (confidence 2) [B56DDEB8] (AR v2)
Track 3 accurately ripped (confidence 2) [429D1DB8] (AR v2)
Track 4 accurately ripped (confidence 2) [173A0EA4] (AR v2)
Track 5 accurately ripped (confidence 2) [5FB3AFD3] (AR v2)
Track 6 accurately ripped (confidence 2) [D3BC1686] (AR v2)
Track 7 accurately ripped (confidence 2) [1B9F43F4] (AR v2)
Track 8 accurately ripped (confidence 2) [CFBDF069] (AR v2)
Track 9 accurately ripped (confidence 2) [07990F29] (AR v2)
Track 10 accurately ripped (confidence 2) [459409E6] (AR v2)
Track 11 accurately ripped (confidence 2) [EF6DE5C0] (AR v2)
Track 12 accurately ripped (confidence 2) [F6CB3056] (AR v2)
Track 13 not present in database
Track 14 accurately ripped (confidence 2) [2DA2C916] (AR v2)

13 track(s) accurately ripped
1 track(s) not present in the AccurateRip database

Some tracks could not be verified as accurate

End of status report

Exact Audio Copy V1.0 beta 3 from 29. August 2011

EAC extraction logfile from 28. August 2013, 9:43

Evgeny Svetlanov / VC - Russian Moods - Evgeny Svetlanov (Disc 2)

Used drive : TSSTcorpCDDVDW SH-222BB Adapter: 2 ID: 1

Read mode : Secure
Utilize accurate stream : Yes
Defeat audio cache : Yes
Make use of C2 pointers : No

Read offset correction : 6
Overread into Lead-In and Lead-Out : No
Fill up missing offset samples with silence : Yes
Delete leading and trailing silent blocks : No
Null samples used in CRC calculations : Yes
Used interface : Native Win32 interface for Win NT & 2000

Used output format : User Defined Encoder
Selected bitrate : 1024 kBit/s
Quality : High
Add ID3 tag : No
Command line compressor : C:\Program Files\Exact Audio Copy\Flac\flac.exe
Additional command line options : -8 -V -T "TITLE=%title%" -T "ARTIST=%artist%" -T "ALBUMARTIST=%albumartist%" -T "ALBUM=%albumtitle%" -T "DATE=%year%" -T "TRACKNUMBER=%tracknr%" -T "TRACKTOTAL=%numtracks%" -T "GENRE=%genre%" -T "COMMENT=%comment%" -T "PERFORMER=%albuminterpret%" -T "COMPOSER=%composer%" %source% -o %dest%


TOC of the extracted CD

Track | Start | Length | Start sector | End sector
––––––––––––––––––––––––––––-
1 | 0:00.00 | 8:59.22 | 0 | 40446
2 | 8:59.22 | 15:18.48 | 40447 | 109344
3 | 24:17.70 | 2:05.65 | 109345 | 118784
4 | 26:23.60 | 1:13.25 | 118785 | 124284
5 | 27:37.10 | 3:39.55 | 124285 | 140764
6 | 31:16.65 | 1:01.62 | 140765 | 145401
7 | 32:18.52 | 1:25.40 | 145402 | 151816
8 | 33:44.17 | 2:40.60 | 151817 | 163876
9 | 36:25.02 | 0:46.15 | 163877 | 167341
10 | 37:11.17 | 1:31.60 | 167342 | 174226
11 | 38:43.02 | 2:26.13 | 174227 | 185189
12 | 41:09.15 | 9:52.35 | 185190 | 229624
13 | 51:01.50 | 5:10.67 | 229625 | 252941
14 | 56:12.42 | 3:54.55 | 252942 | 270546
15 | 60:07.22 | 6:47.58 | 270547 | 301129
16 | 66:55.05 | 6:44.35 | 301130 | 331464


Range status and errors

Selected range

Filename E:\3000\[3082] VC – Russian Moods – Evgeny Svetlanov\cd2\VC - Russian Moods - Evgeny Svetlanov (Disc 2).wav

Peak level 98.0 %
Extraction speed 7.9 X
Range quality 100.0 %
Test CRC 20FFF640
Copy CRC 20FFF640
Copy OK

No errors occurred


AccurateRip summary

Track 1 accurately ripped (confidence 2) [3D93F8B2] (AR v2)
Track 2 accurately ripped (confidence 2) [3B398EF6] (AR v2)
Track 3 accurately ripped (confidence 2) [1293EFFC] (AR v2)
Track 4 accurately ripped (confidence 2) [3AD2A009] (AR v2)
Track 5 accurately ripped (confidence 2) [57F9E667] (AR v2)
Track 6 accurately ripped (confidence 2) [4A68AC70] (AR v2)
Track 7 accurately ripped (confidence 2) [6A032F5C] (AR v2)
Track 8 accurately ripped (confidence 2) [2659967E] (AR v2)
Track 9 accurately ripped (confidence 2) [B7F0818A] (AR v2)
Track 10 accurately ripped (confidence 2) [960A0211] (AR v2)
Track 11 accurately ripped (confidence 2) [AB7351A2] (AR v2)
Track 12 accurately ripped (confidence 2) [638D1CF0] (AR v2)
Track 13 accurately ripped (confidence 2) [1D90B9BD] (AR v2)
Track 14 accurately ripped (confidence 2) [E8BC9A81] (AR v2)
Track 15 accurately ripped (confidence 2) [B5F5A6AB] (AR v2)
Track 16 accurately ripped (confidence 2) [59F9B450] (AR v2)

All tracks accurately ripped

End of status report

Thanks to the Original ripper (unknown)!

Welcome to my blog!

Download: