Subcategories
Tags
Language
Tags

Yleclipse - Discography [5 Studio Albums] (2000-2012)

Posted By: gribovar
Yleclipse - Discography [5 Studio Albums] (2000-2012)

Yleclipse - Discography [5 Studio Albums] (2000-2012)
EAC Rip | FLAC (image+.cue+log) - 2,11 GB | MP3 CBR 320 kbps (LAME 3.93) - 748 MB | Covers - 79 MB
Genre: Neo-Progressive Rock | RAR 3% Rec. | Label: Arcontes, Mellow Records, MALS

Yleclipse, from Cagliari, Italy, formed in 1998 under the moniker Eclisse. After the debut album, the band name was changed to Yleclipse. In fact, the band lists as their influences Genesis, Steve Hackett, Anthony Phillips, Marillion, Fish's solo material, IQ, and Pendragon. Yleclipse are certainly one of the best examples of neo-prog from Italy. The band describes their musical philosophy on their website: "The founder-members share the same love and interest for a particular musical field of research: progressive rock. The aim we've been trying to achieve since the earliest rehearsals and the first recording session, was to combine the peculiar progressive and experimental 'eclecticism' with the elegance and the immediacy of the pop song. Our main influences are: medieval music, classic rock, not to forget traditional Celtic music (Irish and Scottish folk in particular). We have always been interested in musical research and our constant perspective is to try, in musical terms, to broaden our horizons, keeping excited on a variety of styles, and doing constant attempts to find 'our special way.' That is why… the wide range of styles covered by the band, goes from ragtime to ambient pieces and evocative 'slow-air like' tunes, arranged with a typical nineties 'unplugged' taste."

Yleclipse - Discography [5 Studio Albums] (2000-2012)

Eclisse - Mercury And Sulfurus (2000)
EAC Rip | FLAC (image+.cue+log) - 445 MB | MP3 CBR 320 kbps (LAME 3.93) - 166 MB | Covers - 7 MB
Genre: Neo-Progressive Rock | RAR 3% Rec. | Label: Arcontes (DP001)

Tracklist:
01. Mercury and Sulfurus
02. A New Eden
03. The Martch to…
04. Volti Sospesi
05. Through the Meadows
06. Face in the Mirror
07. Lovers Whisper Secretly
08. La Via Deserta del Sud Est
09. Welcome to Our Show
10. Turbamenti di Uno Gnomo
11. La Porta Nera
12. La Signora del Tempo

Total time: 01:10:34

Exact Audio Copy V1.0 beta 3 from 29. August 2011

EAC extraction logfile from 22. January 2013, 20:01

Eclisse (Yleclipse) / Mercury And Sulfurus

Used drive : HL-DT-STDVDRAM GH24NS90 Adapter: 1 ID: 0

Read mode : Secure
Utilize accurate stream : Yes
Defeat audio cache : Yes
Make use of C2 pointers : No

Read offset correction : 6
Overread into Lead-In and Lead-Out : No
Fill up missing offset samples with silence : Yes
Delete leading and trailing silent blocks : No
Null samples used in CRC calculations : Yes
Used interface : Native Win32 interface for Win NT & 2000

Used output format : User Defined Encoder
Selected bitrate : 1024 kBit/s
Quality : High
Add ID3 tag : Yes
Command line compressor : C:\Program Files (x86)\FLAC\flac.exe
Additional command line options : -6 -V -T "ARTIST=%artist%" -T "TITLE=%title%" -T "ALBUM=%albumtitle%" -T "DATE=%year%" -T "TRACKNUMBER=%tracknr%" -T "GENRE=%genre%" -T "COMMENT=%comment%" %source% -o %dest%


TOC of the extracted CD

Track | Start | Length | Start sector | End sector
––––––––––––––––––––––––––––-
1 | 0:00.00 | 6:48.44 | 0 | 30643
2 | 6:48.44 | 4:28.10 | 30644 | 50753
3 | 11:16.54 | 5:43.72 | 50754 | 76550
4 | 17:00.51 | 4:05.22 | 76551 | 94947
5 | 21:05.73 | 10:12.43 | 94948 | 140890
6 | 31:18.41 | 6:56.05 | 140891 | 172095
7 | 38:14.46 | 5:43.48 | 172096 | 197868
8 | 43:58.19 | 4:15.09 | 197869 | 217002
9 | 48:13.28 | 6:30.33 | 217003 | 246285
10 | 54:43.61 | 4:42.12 | 246286 | 267447
11 | 59:25.73 | 4:56.27 | 267448 | 289674
12 | 64:22.25 | 6:11.55 | 289675 | 317554


Range status and errors

Selected range

Filename D:\EAC_RIP\Eclisse (Yleclipse) - Mercury And Sulfurus.wav

Peak level 100.0 %
Extraction speed 8.3 X
Range quality 100.0 %
Copy CRC D9C33ECF
Copy OK

No errors occurred


AccurateRip summary

Track 1 accurately ripped (confidence 1) [12EC6B73] (AR v1)
Track 2 accurately ripped (confidence 1) [16D669CB] (AR v1)
Track 3 accurately ripped (confidence 1) [C29D9EDC] (AR v1)
Track 4 accurately ripped (confidence 1) [CB16513A] (AR v1)
Track 5 accurately ripped (confidence 1) [6F63E51C] (AR v1)
Track 6 accurately ripped (confidence 1) [6134CD27] (AR v1)
Track 7 accurately ripped (confidence 1) [3F62CA41] (AR v1)
Track 8 accurately ripped (confidence 1) [9DD9A0C3] (AR v1)
Track 9 accurately ripped (confidence 1) [257F10AF] (AR v1)
Track 10 accurately ripped (confidence 1) [EBCA4390] (AR v1)
Track 11 accurately ripped (confidence 1) [55483D24] (AR v1)
Track 12 accurately ripped (confidence 1) [7DC49FE8] (AR v1)

All tracks accurately ripped

End of status report

[CUETools log; Date: 30.11.2020 0:54:31; Version: 2.1.4]
[CTDB TOCID: olmfnNdLeiOTNxrNHlzDc7Cd8gA-] found.
Track | CTDB Status
1 | (3/3) Accurately ripped
2 | (3/3) Accurately ripped
3 | (3/3) Accurately ripped
4 | (3/3) Accurately ripped
5 | (3/3) Accurately ripped
6 | (3/3) Accurately ripped
7 | (3/3) Accurately ripped
8 | (3/3) Accurately ripped
9 | (3/3) Accurately ripped
10 | (3/3) Accurately ripped
11 | (3/3) Accurately ripped
12 | (3/3) Accurately ripped
[AccurateRip ID: 002011d8-012ae9db-b5108a0c] found.
Track [ CRC | V2 ] Status
01 [12ec6b73|84348e92] (0+2/2) Accurately ripped
02 [16d669cb|719122ae] (0+2/2) Accurately ripped
03 [c29d9edc|0d130fe2] (0+2/2) Accurately ripped
04 [cb16513a|68b6762a] (0+2/2) Accurately ripped
05 [6f63e51c|27342307] (0+2/2) Accurately ripped
06 [6134cd27|ec7155df] (0+2/2) Accurately ripped
07 [3f62ca41|3f6cd539] (0+2/2) Accurately ripped
08 [9dd9a0c3|6dab698b] (0+2/2) Accurately ripped
09 [257f10af|77617d12] (0+2/2) Accurately ripped
10 [ebca4390|0a37b0a0] (0+2/2) Accurately ripped
11 [55483d24|46b0a49d] (0+2/2) Accurately ripped
12 [7dc49fe8|93bdd7bd] (0+2/2) Accurately ripped

Track Peak [ CRC32 ] [W/O NULL] [ LOG ]
– 100,0 [D9C33ECF] [9D7850B2] CRC32
01 97,1 [4AE87942] [C23A0455]
02 100,0 [B349C0A7] [57BF8BC8]
03 97,4 [C4E0AA7F] [58F4A95B]
04 70,7 [AEF88332] [C5AC7385]
05 91,3 [6B1E77D6] [C90303A9]
06 92,5 [2A32AC7C] [51B0C383]
07 100,0 [A739DAB5] [7C5E8661]
08 91,9 [01FC38C0] [B91AAAE5]
09 95,9 [276F16E8] [64EC972E]
10 86,5 [495D2056] [880C7B52]
11 63,8 [CD3F312D] [17AC2E41]
12 64,5 [BEF2B8AC] [2AD9E0CD]

Yleclipse - Discography [5 Studio Albums] (2000-2012)

Yleclipse - Prime Substance (2002)
EAC Rip | FLAC (image+.cue+log) - 334 MB | MP3 CBR 320 kbps (LAME 3.93) - 115 MB | Covers - 29 MB
Genre: Neo-Progressive Rock | RAR 3% Rec. | Label: Mellow Records (MMP 441)

Tracklist:
01. Prime Substance
02. Wizard
03. Farewell Chant
04. Radio Sahara
05. Mercury & Sulfurus
06. Dove Sci
07. Levati in Volo
08. Alle Prime Luci del Mattino

Total time: 48:53

Exact Audio Copy V1.0 beta 3 from 29. August 2011

EAC extraction logfile from 29. January 2013, 22:58

The Yleclipse / Prime Substance

Used drive : HL-DT-STDVDRAM GH24NS90 Adapter: 1 ID: 0

Read mode : Secure
Utilize accurate stream : Yes
Defeat audio cache : Yes
Make use of C2 pointers : No

Read offset correction : 6
Overread into Lead-In and Lead-Out : No
Fill up missing offset samples with silence : Yes
Delete leading and trailing silent blocks : No
Null samples used in CRC calculations : Yes
Used interface : Native Win32 interface for Win NT & 2000

Used output format : User Defined Encoder
Selected bitrate : 1024 kBit/s
Quality : High
Add ID3 tag : Yes
Command line compressor : C:\Program Files (x86)\FLAC\flac.exe
Additional command line options : -6 -V -T "ARTIST=%artist%" -T "TITLE=%title%" -T "ALBUM=%albumtitle%" -T "DATE=%year%" -T "TRACKNUMBER=%tracknr%" -T "GENRE=%genre%" -T "COMMENT=%comment%" %source% -o %dest%


TOC of the extracted CD

Track | Start | Length | Start sector | End sector
––––––––––––––––––––––––––––-
1 | 0:00.00 | 7:56.00 | 0 | 35699
2 | 7:56.00 | 6:14.00 | 35700 | 63749
3 | 14:10.00 | 4:57.00 | 63750 | 86024
4 | 19:07.00 | 5:45.00 | 86025 | 111899
5 | 24:52.00 | 7:32.00 | 111900 | 145799
6 | 32:24.00 | 6:32.00 | 145800 | 175199
7 | 38:56.00 | 4:21.00 | 175200 | 194774
8 | 43:17.00 | 5:36.15 | 194775 | 219989


Range status and errors

Selected range

Filename D:\EAC_RIP\The Yleclipse - Prime Substance.wav

Peak level 96.6 %
Extraction speed 3.2 X
Range quality 99.9 %
Test CRC 89265D7B
Copy CRC 89265D7B
Copy OK

No errors occurred


AccurateRip summary

Track 1 accurately ripped (confidence 1) [8090CE0D] (AR v2)
Track 2 accurately ripped (confidence 1) [B5563D6E] (AR v2)
Track 3 accurately ripped (confidence 1) [3F0425B4] (AR v2)
Track 4 accurately ripped (confidence 1) [D114F4A8] (AR v2)
Track 5 accurately ripped (confidence 1) [ABEA5A2E] (AR v2)
Track 6 accurately ripped (confidence 1) [C5433C19] (AR v2)
Track 7 accurately ripped (confidence 1) [D5259213] (AR v2)
Track 8 accurately ripped (confidence 1) [D61CE50D] (AR v2)

All tracks accurately ripped

End of status report

[CUETools log; Date: 30.11.2020 0:55:16; Version: 2.1.4]
[CTDB TOCID: As2GwBUzF8gKnbLUAnNuWmswVjo-] found.
Track | CTDB Status
1 | (3/3) Accurately ripped
2 | (3/3) Accurately ripped
3 | (3/3) Accurately ripped
4 | (3/3) Accurately ripped
5 | (3/3) Accurately ripped
6 | (3/3) Accurately ripped
7 | (3/3) Accurately ripped
8 | (3/3) Accurately ripped
[AccurateRip ID: 000fc3b4-0067d839-820b7508] found.
Track [ CRC | V2 ] Status
01 [a4ff57d0|8090ce0d] (0+4/4) Accurately ripped
02 [5eca67f6|b5563d6e] (0+4/4) Accurately ripped
03 [a0b6f623|3f0425b4] (0+4/4) Accurately ripped
04 [eb882d92|d114f4a8] (0+4/4) Accurately ripped
05 [fe733b92|abea5a2e] (0+4/4) Accurately ripped
06 [03417f73|c5433c19] (0+4/4) Accurately ripped
07 [b33a7448|d5259213] (0+4/4) Accurately ripped
08 [14b2dbfb|d61ce50d] (0+4/4) Accurately ripped

Track Peak [ CRC32 ] [W/O NULL] [ LOG ]
– 96,6 [89265D7B] [44970AE8] CRC32
01 96,6 [4A3865D2] [2978E033]
02 96,6 [59FAA840] [6F800A51]
03 96,6 [9A3F1079] [D14B63A5]
04 96,6 [BD9CE27E] [04B7B350]
05 96,6 [2CD3AABF] [AEAC0255]
06 96,6 [758A7CF5] [5EE131EF]
07 96,6 [A34D64D5] [0D69CC39]
08 96,6 [9A1EC7F0] [424002AC]

Yleclipse - Discography [5 Studio Albums] (2000-2012)

Yleclipse - Opus (2005)
EAC Rip | FLAC (image+.cue+log) - 428 MB | MP3 CBR 320 kbps (LAME 3.93) - 139 MB | Covers - 5 MB
Genre: Neo-Progressive Rock | RAR 3% Rec. | Label: Mellow Records/MALS (MALS213)

Tracklist:
01. A Crown of Gold
02. Reality Show
03. Sailing to Caralis
04. Opus
05. Glorious
06. The Tale of the Black Cloak
07. Carol
08. In the Park

Total time: 59:03

Exact Audio Copy V0.99 prebeta 4 from 23. January 2008

Отчёт EAC об извлечении, выполненном 21. февраля 2009, 16:36

The Yleclipse / Opus

Дисковод: PIONEER DVD-RW DVR-112D Adapter: 0 ID: 0

Режим чтения : Достоверность
Использование точного потока : Да
Отключение кэша аудио : Да
Использование указателей C2 : Нет

Коррекция смещения при чтении : 48
Способность читать области Lead-in и Lead-out : Нет
Заполнение пропущенных сэмплов тишиной : Да
Удаление блоков с тишиной в начале и конце : Нет
При вычислениях CRC использовались нулевые сэмплы : Да
Интерфейс : Встроенный Win32-интерфейс для Win NT/2000

Выходной формат : Пользовательский кодировщик
Выбранный битрейт : 768 kBit/s
Качество : Высокий
Добавление ID3-тэга : Нет
Утилита сжатия : C:\Program Files\Exact Audio Copy\FLAC\FLAC.EXE
Дополнительные параметры : -6 -V -T "ARTIST=%a" -T "TITLE=%t" -T "ALBUM=%g" -T "DATE=%y" -T "TRACKNUMBER=%n" -T "GENRE=%m" -T "COMMENT=%e" %s -o %d


TOC извлечённого CD

Трек | Старт | Длительность | Начальный сектор | Конечный сектор
––––––––––––––––––––––––––––––––––-
1 | 0:00.00 | 8:02.52 | 0 | 36201
2 | 8:02.52 | 9:47.63 | 36202 | 80289
3 | 17:50.40 | 3:18.20 | 80290 | 95159
4 | 21:08.60 | 7:08.22 | 95160 | 127281
5 | 28:17.07 | 8:56.01 | 127282 | 167482
6 | 37:13.08 | 9:11.44 | 167483 | 208851
7 | 46:24.52 | 4:32.17 | 208852 | 229268
8 | 50:56.69 | 8:06.00 | 229269 | 265718


Характеристики диапазона извлечения и сообщения об ошибках

Выбранный диапазон

Имя файла G:\Upload My Music 9\YLECLIPSE\The Yleclipse - Opus.wav

Пиковый уровень 96.6 %
Качество диапазона 100.0 %
CRC копии 40FE648A
Копирование… OK

Ошибок не произошло


AccurateRip: сводка

Трек 1 нет в базе данных
Трек 2 нет в базе данных
Трек 3 нет в базе данных
Трек 4 нет в базе данных
Трек 5 нет в базе данных
Трек 6 нет в базе данных
Трек 7 нет в базе данных
Трек 8 нет в базе данных

Ни одного трека нет в базе AccurateRip

Конец отчёта

[CUETools log; Date: 30.11.2020 0:56:09; Version: 2.1.4]
[CTDB TOCID: j8r.aHqGmQXDNyVazWR.zKY7UVY-] found.
Track | CTDB Status
1 | (6/6) Accurately ripped
2 | (6/6) Accurately ripped
3 | (6/6) Accurately ripped
4 | (6/6) Accurately ripped
5 | (6/6) Accurately ripped
6 | (6/6) Accurately ripped
7 | (5/6) Accurately ripped
8 | (5/6) Accurately ripped
[AccurateRip ID: 00127791-007a6b1a-720dd608] found.
Track [ CRC | V2 ] Status
01 [31f782f9|6e299442] (02+08/10) Accurately ripped
02 [795a0ce4|17dde7a5] (02+08/10) Accurately ripped
03 [cbd13081|dd340807] (02+08/10) Accurately ripped
04 [2636ebe7|0a3f58c4] (02+08/10) Accurately ripped
05 [9fef4413|4b6d8f8a] (02+08/10) Accurately ripped
06 [23a36c50|0203a4dc] (02+08/10) Accurately ripped
07 [9251b248|765f6110] (02+07/09) Accurately ripped
08 [4a50c264|3f6cb599] (02+07/09) Accurately ripped

Track Peak [ CRC32 ] [W/O NULL] [ LOG ]
– 96,6 [40FE648A] [79CB2B2E] CRC32
01 96,6 [82F035E6] [8A932379]
02 96,6 [3C804A33] [BBB04B9E]
03 92,8 [981DFD79] [8E8E1FC9]
04 96,6 [23E8136C] [510F7600]
05 96,6 [29C1BC39] [C16094AF]
06 96,6 [35CE36A9] [13258BCE]
07 96,6 [A44696C7] [051E4DBC]
08 96,6 [3CC81F64] [A0F51F44]

Yleclipse - Discography [5 Studio Albums] (2000-2012)

Yleclipse - Trails Of Ambergris (2008)
EAC Rip | FLAC (image+.cue+log) - 490 MB | MP3 CBR 320 kbps (LAME 3.93) - 176 MB | Covers - 13 MB
Genre: Neo-Progressive Rock | RAR 3% Rec. | Label: Mellow Records (MMP 505)

Tracklist:
01. Charlotte’s Dream
02. Wind-tanned Horses
03. Sacred Healing Light
04. Trails Of Ambergris
05. The Slower
06. The Ballad Of Vincent Archon
07. Arcontes Merees Karaleos
08. The Day The Wooden Leopard Roared

Total time: 01:14:41

Exact Audio Copy V0.99 prebeta 1 from 25. May 2007

Отчёт EAC об извлечении, выполненном 12. февраля 2009, 20:50

Yleclipse / Trails Of Ambergris

Дисковод: PIONEER DVD-RW DVR-212D Adapter: 1 ID: 1

Режим чтения : Достоверность
Использование точного потока : Да
Отключение кэша аудио : Да
Использование указателей C2 : Нет

Коррекция смещения при чтении : 48
Способность читать области Lead-in и Lead-out : Нет
Заполнение пропущенных сэмплов тишиной : Да
Удаление блоков с тишиной в начале и конце : Нет
Интерфейс : Установленный внешний ASPI-интерфейс

Выходной формат : Пользовательский кодировщик
Выбранный битрейт : 768 kBit/s
Качество : Высокий
Добавление ID3-тэга : Нет
Утилита сжатия : C:\Program Files\Exact Audio Copy\FLAC\FLAC.EXE
Дополнительные параметры : -6 -V -T "ARTIST=%a" -T "TITLE=%t" -T "ALBUM=%g" -T "DATE=%y" -T "TRACKNUMBER=%n" -T "GENRE=%m" -T "COMMENT=%e" %s -o %d


TOC извлечённого CD

Трек | Старт | Длительность | Начальный сектор | Конечный сектор
––––––––––––––––––––––––––––––––––-
1 | 0:00.00 | 2:51.00 | 0 | 12824
2 | 2:51.00 | 11:50.00 | 12825 | 66074
3 | 14:41.00 | 7:57.00 | 66075 | 101849
4 | 22:38.00 | 9:42.00 | 101850 | 145499
5 | 32:20.00 | 13:11.00 | 145500 | 204824
6 | 45:31.00 | 9:42.00 | 204825 | 248474
7 | 55:13.00 | 6:44.00 | 248475 | 278774
8 | 61:57.00 | 12:44.00 | 278775 | 336074


Характеристики диапазона извлечения и сообщения об ошибках

Выбранный диапазон

Имя файла E:\TORRENT\Yleclipse(2008)\Yleclipse - Trails Of Ambergris.wav

Пиковый уровень 96.6 %
Качество диапазона 100.0 %
CRC теста 00B28481
CRC копии 00B28481
Копирование… OK


AccurateRip: сводка

Трек 1 нет в базе данных
Трек 2 нет в базе данных
Трек 3 нет в базе данных
Трек 4 нет в базе данных
Трек 5 нет в базе данных
Трек 6 нет в базе данных
Трек 7 нет в базе данных
Трек 8 нет в базе данных

Ошибок не произошло

Конец отчёта

[CUETools log; Date: 30.11.2020 0:57:18; Version: 2.1.4]
[CTDB TOCID: t9.R.N3jdpqN2EnN_AP1ji.kj04-] found.
Track | CTDB Status
1 | (4/4) Accurately ripped
2 | (4/4) Accurately ripped
3 | (4/4) Accurately ripped
4 | (4/4) Accurately ripped
5 | (4/4) Accurately ripped
6 | (4/4) Accurately ripped
7 | (4/4) Accurately ripped
8 | (4/4) Accurately ripped
[AccurateRip ID: 001546e0-00923566-69118108] found.
Track [ CRC | V2 ] Status
01 [d1db2125|dfed5551] (3+5/8) Accurately ripped
02 [9626bc56|f8725f1b] (3+5/8) Accurately ripped
03 [3c5076a3|f08391f7] (3+5/8) Accurately ripped
04 [f4051a0a|034716b1] (3+6/9) Accurately ripped
05 [392fec12|8337ddf8] (3+6/9) Accurately ripped
06 [6d340aa0|45b90d84] (3+6/9) Accurately ripped
07 [c85d4f5d|10a69eef] (3+6/9) Accurately ripped
08 [7b229a52|8d51a020] (3+6/9) Accurately ripped

Track Peak [ CRC32 ] [W/O NULL] [ LOG ]
– 96,6 [162273AD] [00B28481] W/O NULL
01 96,6 [6ECC7CB7] [C0E8624D]
02 96,6 [04069CCF] [A2DB88F8]
03 96,6 [200E8311] [990533D0]
04 96,6 [A8E4F95A] [F5EDCB7C]
05 96,6 [B2E79E8E] [8F79CB18]
06 96,6 [3A63D158] [FB585FF2]
07 96,6 [64616C85] [4985475C]
08 96,6 [8B6F83F3] [2B70AA6C]

Yleclipse - Discography [5 Studio Albums] (2000-2012)

Yleclipse - Songs From the Crackling Atanor (2012)
EAC Rip | FLAC (image+.cue+log) - 418 MB | MP3 CBR 320 kbps (LAME 3.93) - 152 MB | Covers - 25 MB
Genre: Neo-Progressive Rock | RAR 3% Rec. | Label: Mellow Records (MMP 528)

Tracklist:
01. Convivium Mithrae
02. Gentle Breeze
03. Dreams Are Foam
04. A Jinnee Be Freed
05. Springtime fiery delirium
06. Growling Warty Beast
07. Nadir Voices

Total time: 01:04:40

Exact Audio Copy V1.0 beta 3 from 29. August 2011

EAC extraction logfile from 25. June 2013, 21:05

Yleclipse / Songs From the Crackling Atanor

Used drive : ASUS DRW-24B1LT Adapter: 4 ID: 0

Read mode : Secure
Utilize accurate stream : Yes
Defeat audio cache : Yes
Make use of C2 pointers : No

Read offset correction : 6
Overread into Lead-In and Lead-Out : No
Fill up missing offset samples with silence : Yes
Delete leading and trailing silent blocks : No
Null samples used in CRC calculations : Yes
Used interface : Native Win32 interface for Win NT & 2000

Used output format : User Defined Encoder
Selected bitrate : 1024 kBit/s
Quality : High
Add ID3 tag : Yes
Command line compressor : C:\Program Files (x86)\FLAC_1.3.0\flac.exe
Additional command line options : -6 -V -T "ARTIST=%artist%" -T "TITLE=%title%" -T "ALBUM=%albumtitle%" -T "DATE=%year%" -T "TRACKNUMBER=%tracknr%" -T "GENRE=%genre%" -T "COMMENT=%comment%" %source% -o %dest%


TOC of the extracted CD

Track | Start | Length | Start sector | End sector
––––––––––––––––––––––––––––-
1 | 0:00.00 | 5:28.55 | 0 | 24654
2 | 5:28.55 | 9:06.00 | 24655 | 65604
3 | 14:34.55 | 10:20.36 | 65605 | 112140
4 | 24:55.16 | 9:11.11 | 112141 | 153476
5 | 34:06.27 | 11:13.31 | 153477 | 203982
6 | 45:19.58 | 10:11.14 | 203983 | 249821
7 | 55:30.72 | 9:09.05 | 249822 | 291001


Range status and errors

Selected range

Filename Y:\EAC\wurensh\Yleclipse\Yleclipse - Songs From the Crackling Atanor.wav

Peak level 70.7 %
Extraction speed 9.4 X
Range quality 100.0 %
Test CRC 45541C2D
Copy CRC 45541C2D
Copy OK

No errors occurred


AccurateRip summary

Track 1 not present in database
Track 2 not present in database
Track 3 not present in database
Track 4 not present in database
Track 5 not present in database
Track 6 not present in database
Track 7 not present in database

None of the tracks are present in the AccurateRip database

End of status report

[CUETools log; Date: 30.11.2020 0:58:00; Version: 2.1.4]
[CTDB TOCID: gVH.mEqcEPZ2tFzggQ3PX7cFS2g-] found.
Track | CTDB Status
1 | (4/4) Accurately ripped
2 | (4/4) Accurately ripped
3 | (4/4) Accurately ripped
4 | (4/4) Accurately ripped
5 | (4/4) Accurately ripped
6 | (4/4) Accurately ripped
7 | (4/4) Accurately ripped
[AccurateRip ID: 0010cb8d-006730f7-570f2807] found.
Track [ CRC | V2 ] Status
01 [2e39eb62|db997fb9] (0+3/3) Accurately ripped
02 [b9ced643|5f01b8ab] (0+3/3) Accurately ripped
03 [913a7c6a|aaacf258] (0+3/3) Accurately ripped
04 [ab346eab|dd1179ad] (0+3/3) Accurately ripped
05 [6e3289d6|8a135d94] (0+3/3) Accurately ripped
06 [4ac186cb|4e47f233] (0+3/3) Accurately ripped
07 [62b23732|97f36ee6] (0+3/3) Accurately ripped

Track Peak [ CRC32 ] [W/O NULL] [ LOG ]
– 70,7 [45541C2D] [F6993196] CRC32
01 70,7 [BF98219F] [7344452F]
02 70,7 [36A4A318] [A864734F]
03 70,7 [92E812FD] [BE4EC51E]
04 70,7 [26D3EE0B] [7CC74FAC]
05 70,7 [A32315F8] [F1745629]
06 69,4 [F1569ABB] [6C0D39C5]
07 59,5 [0B933DB9] [35B8CECF]

Thanks to wurensh, Иван_К, Fragile59