Subcategories

Yosuke Yamashita Special Big Band - From The New World (2015) {Japan}

Posted By: popsakov
Yosuke Yamashita Special Big Band - From The New World (2015) {Japan}

Yosuke Yamashita Special Big Band - From The New World (2015)
EAC Rip | FLAC (Img) + Cue + Log ~ 307 Mb | MP3 CBR320 ~ 128 Mb
Scans (PNG, 600 dpi) ~ 92 Mb | RAR 5% Recovery
Jazz, Free Jazz, Neo Classical | JamRice Inc. #JACD-1501

The second 'classical music series' by Yosuke Yamashita special-big band members concentrated more / new world special big band. Dvorak's Symphony No. 9, Matsumoto from the 'new world' all movements in concert with conductor arrangement for big band. 12/18 decorated the prominence of the concert tour in 2014, Hyogo Prefectural Art Cultural Center performances as live journal audience enthusiasm.
Yosuke Yamashita Special Big Band - From The New World (2015) {Japan}


***************

Yosuke Yamashita Special Big Band - From The New World (2015) {Japan}

Track List:

01. Adagio - Allegro molto [0:13:42.74]
02. Largo [0:13:09.62]
03. Scherzo: Molto Vivace [0:09:00.26]
04. Allegro con fuoco [0:17:31.44]

Exact Audio Copy V1.1 from 23. June 2015

EAC extraction logfile from 1. March 2016, 12:56

Yosuke Yamashita Special Big Band / From the New World

Used drive : HL-DT-STDVD-ROM DH16NS10 Adapter: 1 ID: 0

Read mode : Secure
Utilize accurate stream : Yes
Defeat audio cache : Yes
Make use of C2 pointers : No

Read offset correction : 102
Overread into Lead-In and Lead-Out : No
Fill up missing offset samples with silence : Yes
Delete leading and trailing silent blocks : No
Null samples used in CRC calculations : Yes
Used interface : Native Win32 interface for Win NT & 2000

Used output format : User Defined Encoder
Selected bitrate : 896 kBit/s
Quality : High
Add ID3 tag : No
Command line compressor : C:\Program Files\Wavpack\wavpack.exe
Additional command line options : -hlmx4 %source% %dest%


TOC of the extracted CD

Track | Start | Length | Start sector | End sector
––––––––––––––––––––––––––––-
1 | 0:00.00 | 13:42.74 | 0 | 61723
2 | 13:42.74 | 13:09.62 | 61724 | 120960
3 | 26:52.61 | 9:00.26 | 120961 | 161486
4 | 35:53.12 | 17:31.44 | 161487 | 240355


Range status and errors

Selected range

Filename F:\Releases_RAW\Yosuke Yamashita Special Big Band - From the New World\Yosuke Yamashita Special Big Band - From the New World.wav

Peak level 100.0 %
Extraction speed 9.3 X
Range quality 100.0 %
Test CRC ABC3C1C3
Copy CRC ABC3C1C3
Copy OK

No errors occurred


AccurateRip summary

Track 1 not present in database
Track 2 not present in database
Track 3 not present in database
Track 4 not present in database

None of the tracks are present in the AccurateRip database

End of status report

–– CUETools DB Plugin V2.1.6

[CTDB TOCID: VfS3xnN7GQrcV.wgc4s_ldkU4A0-] found
Submit result: VfS3xnN7GQrcV.wgc4s_ldkU4A0- has been confirmed
Track | CTDB Status
1 | (4/4) Accurately ripped
2 | (4/4) Accurately ripped
3 | (4/4) Accurately ripped
4 | (4/4) Accurately ripped


==== Log checksum 1F40F2C529BE9EC1790A2C1CF17CC5BB422C3AC6E7DCEB2899A98E2C402AC73B ====

foobar2000 1.2.6 / Dynamic Range Meter 1.1.1
log date: 2016-04-17 22:32:33

––––––––––––––––––––––––––––––––––––––––
Analyzed: Yosuke Yamashita Special Big Band / From the New World
––––––––––––––––––––––––––––––––––––––––

DR Peak RMS Duration Track
––––––––––––––––––––––––––––––––––––––––
DR14 0.00 dB -17.85 dB 13:43 01-Adagio - Allegro Molto
DR17 0.00 dB -21.96 dB 13:10 02-Largo
DR14 0.00 dB -17.21 dB 9:00 03-Scherzo: Molto Vivace
DR12 0.00 dB -16.73 dB 17:32 04-Allegro Con Fuoco
––––––––––––––––––––––––––––––––––––––––

Number of tracks: 4
Official DR value: DR14

Samplerate: 44100 Hz
Channels: 2
Bits per sample: 16
Bitrate: 762 kbps
Codec: FLAC
================================================================================

[CUETools log; Date: 17.04.2016 22:32:33; Version: 2.1.5]
[CTDB TOCID: VfS3xnN7GQrcV.wgc4s_ldkU4A0-] found.
Track | CTDB Status
1 | (5/5) Accurately ripped
2 | (5/5) Accurately ripped
3 | (5/5) Accurately ripped
4 | (5/5) Accurately ripped
[AccurateRip ID: 0008eb50-00239d6c-290c8404] found.
Track [ CRC | V2 ] Status
01 [39ed0ebb|dc5a45b6] (0+1/1) Accurately ripped
02 [5ad6754a|3bc822f3] (0+1/1) Accurately ripped
03 [f6ecd1b3|c20503b6] (0+1/1) Accurately ripped
04 [6b1d1229|621ab8d7] (0+1/1) Accurately ripped

Track Peak [ CRC32 ] [W/O NULL] [ LOG ]
– 100,0 [ABC3C1C3] [241B9A9A] CRC32
01 100,0 [79945559] [B2AB1057]
02 100,0 [3243D567] [846516A0]
03 100,0 [2F6C9B77] [3B867D4D]
04 100,0 [6CF34698] [641A4EBD]

Yosuke Yamashita Special Big Band - From The New World (2015) {Japan}

Yosuke Yamashita Special Big Band - From The New World (2015) {Japan}

All thanks go to Гордый
Visit my blog!

Download:
Nitroflare: FLAC-part 1 | FLAC-part 2 | Scans | mp3
FileJoker: FLAC-part 1 | FLAC-part 2 | Scans | mp3