Subcategories

Your Highness - Cults 'n' Cunts (2011)

Posted By: v3122
Your Highness - Cults 'n' Cunts (2011)

Your Highness - Cults 'n' Cunts (2011)
EAC | Flac(Image) + Cue + Log & MP3 CBR 320Kbps
Hammerheart, HHR2011-12 | ~ 216 or 68 Mb | Scans(jpg) -> 14 Mb
Sludge / Stoner Rock

"Cults 'n' Cunts" is the debut full-length studio album by Belgian sludge metal act Your Highness. The album was released through Hammerheart Records in July 2011.

Eight tracks distributed over a 28:41 minutes long playing time featuring some pretty standard sludge metal. That´s about what you get with "Cults 'n' Cunts". The music is well played, well produced and to a certain extent well written. But when that is said the album does come off as pretty unremarkable. It´s not an album I remember after it´s finished, but it´s pretty enjoyable while it plays. It´s pretty much no nonsense sludge metal in the not so filthy end of the spectrum with some leanings toward 70s hard rock. Check out the bluesy hard rock soloing or a harmony lead like the one in "Skull Goblet" for examples of that influence. The vocals are your usual raw and shouting type vocals.

"Cults 'n' Cunts" is in many ways a quality sludge metal album, but as mentioned above it´s not an album I remember much from when it has finished, so if you ask me the songwriting definitely could use some improvement. A 3 star (60%) rating is fair.

by UMUR, rateyourmusic
Your Highness - Cults 'n' Cunts (2011):

Your Highness - Cults 'n' Cunts (2011)

Tracklist:

1. Through The Eyes Of The Beast
2. Gut This City
3. The Rivening
4. Skull Goblet
5. Cults 'n' Cunts
6. Pagan Warrior
7. Emmets Of The Hillock
8. Hoogheid

Exact Audio Copy V1.1 from 23. June 2015

EAC extraction logfile from 22. May 2017, 18:56

Your Highness / Cults 'n' Cunts

Used drive : ASUS DRW-24B1ST Adapter: 1 ID: 1

Read mode : Secure
Utilize accurate stream : Yes
Defeat audio cache : Yes
Make use of C2 pointers : No

Read offset correction : 6
Overread into Lead-In and Lead-Out : No
Fill up missing offset samples with silence : Yes
Delete leading and trailing silent blocks : No
Null samples used in CRC calculations : Yes
Used interface : Native Win32 interface for Win NT & 2000

Used output format : User Defined Encoder
Selected bitrate : 1024 kBit/s
Quality : High
Add ID3 tag : No
Command line compressor : C:\Program Files (x86)\Exact Audio Copy\Flac\flac.exe
Additional command line options : -V -8 -T "Genre=%genre%" -T "Artist=%artist%" -T "Title=%title%" -T "Album=%albumtitle%" -T "Date=%year%" -T "Tracknumber=%tracknr%" -T "Comment=%comment%" %source%


TOC of the extracted CD

Track | Start | Length | Start sector | End sector
––––––––––––––––––––––––––––-
1 | 0:00.00 | 5:30.24 | 0 | 24773
2 | 5:30.24 | 2:41.37 | 24774 | 36885
3 | 8:11.61 | 3:11.48 | 36886 | 51258
4 | 11:23.34 | 3:23.63 | 51259 | 66546
5 | 14:47.22 | 2:58.42 | 66547 | 79938
6 | 17:45.64 | 2:26.57 | 79939 | 90945
7 | 20:12.46 | 2:46.60 | 90946 | 103455
8 | 22:59.31 | 5:42.23 | 103456 | 129128


Range status and errors

Selected range

Filename E:\Torrent\# MY\# Подготовка раздач\Your Highness - Cults 'n' Cunts (2011) (HHR2011-12, Holland)\Your Highness - Cults 'n' Cunts.wav

Peak level 100.0 %
Extraction speed 2.5 X
Range quality 99.9 %
Test CRC 992DD7E5
Copy CRC 992DD7E5
Copy OK

No errors occurred


AccurateRip summary

Track 1 accurately ripped (confidence 2) [CA331260] (AR v2)
Track 2 accurately ripped (confidence 2) [5AA32F83] (AR v2)
Track 3 accurately ripped (confidence 2) [AB7B32B6] (AR v2)
Track 4 accurately ripped (confidence 2) [F6B6A30D] (AR v2)
Track 5 accurately ripped (confidence 2) [D4A540D4] (AR v2)
Track 6 accurately ripped (confidence 2) [757FE083] (AR v2)
Track 7 accurately ripped (confidence 2) [92AF2D77] (AR v2)
Track 8 accurately ripped (confidence 2) [DF0D4AFF] (AR v2)

All tracks accurately ripped

End of status report

–– CUETools DB Plugin V2.1.6

[CTDB TOCID: L3qNSogYE3kUfzZ_xl43_I9Upqc-] found
Submit result: L3qNSogYE3kUfzZ_xl43_I9Upqc- has been confirmed
Track | CTDB Status
1 | (4/4) Accurately ripped
2 | (4/4) Accurately ripped
3 | (4/4) Accurately ripped
4 | (4/4) Accurately ripped
5 | (4/4) Accurately ripped
6 | (4/4) Accurately ripped
7 | (4/4) Accurately ripped
8 | (4/4) Accurately ripped


==== Log checksum 30E55CC148970EF61E207E07EE8282694E3E078CE208276A419DF42F3CC2925F ====

foobar2000 1.2.9 / Dynamic Range Meter 1.1.1
log date: 2017-06-26 14:34:44

––––––––––––––––––––––––––––––––––––––––
Analyzed: Your Highness / Cults 'n' Cunts
––––––––––––––––––––––––––––––––––––––––

DR Peak RMS Duration Track
––––––––––––––––––––––––––––––––––––––––
DR5 0.00 dB -7.25 dB 5:30 01-Through The Eyes Of The Beast
DR6 0.00 dB -7.05 dB 2:41 02-Gut This City
DR7 0.00 dB -7.26 dB 3:12 03-The Rivening
DR5 0.00 dB -6.57 dB 3:24 04-Skull Goblet
DR6 0.00 dB -6.48 dB 2:59 05-Cults 'n' Cunts
DR5 0.00 dB -5.89 dB 2:27 06-Pagan Warrior
DR5 0.00 dB -6.34 dB 2:47 07-Emmets Of The Hillock
DR5 0.00 dB -6.99 dB 5:42 08-Hoogheid
––––––––––––––––––––––––––––––––––––––––

Number of tracks: 8
Official DR value: DR6

Samplerate: 44100 Hz
Channels: 2
Bits per sample: 16
Bitrate: 1022 kbps
Codec: FLAC

[CUETools log; Date: 26.06.2017 14:31:40; Version: 2.1.4]
[CTDB TOCID: L3qNSogYE3kUfzZ_xl43_I9Upqc-] found.
Track | CTDB Status
1 | (5/5) Accurately ripped
2 | (5/5) Accurately ripped
3 | (5/5) Accurately ripped
4 | (5/5) Accurately ripped
5 | (5/5) Accurately ripped
6 | (5/5) Accurately ripped
7 | (5/5) Accurately ripped
8 | (5/5) Accurately ripped
[AccurateRip ID: 0008e518-003a0b8b-6906b908] found.
Track [ CRC | V2 ] Status
01 [02828189|ca331260] (0+2/2) Accurately ripped
02 [3546530d|5aa32f83] (0+2/2) Accurately ripped
03 [ba7ab65f|ab7b32b6] (0+2/2) Accurately ripped
04 [a66447b4|f6b6a30d] (0+2/2) Accurately ripped
05 [a15ffcc8|d4a540d4] (0+2/2) Accurately ripped
06 [b70e7488|757fe083] (0+2/2) Accurately ripped
07 [b38e3973|92af2d77] (0+2/2) Accurately ripped
08 [9c008410|df0d4aff] (0+2/2) Accurately ripped

Track Peak [ CRC32 ] [W/O NULL] [ LOG ]
– 100,0 [992DD7E5] [F726DBDF] CRC32
01 100,0 [87AE8316] [EE866FC6]
02 100,0 [14AD4DBD] [4FE5D2AA]
03 100,0 [F7350CBD] [327A9CB3]
04 100,0 [2D42DF49] [CB9A5FBE]
05 100,0 [985B8243] [B7C327BA]
06 100,0 [B51FF059] [F8A04889]
07 100,0 [C654C701] [A19364D3]
08 100,0 [C00EE197] [36017E76]

Your Highness - Cults 'n' Cunts (2011)

All thanks go to Ginger Devil

Stoner Rock in my Blog

Download Your Highness - Cults 'n' Cunts (2011):