Subcategories

Yousef - 9 Moor Drive (2019)

Posted By: gribovar
Yousef - 9 Moor Drive (2019)

Yousef - 9 Moor Drive (2019)
EAC Rip | FLAC (tracks+.cue+log) - 588 MB | MP3 CBR 320 kbps (LAME 3.93) - 203 MB | Covers - 33 MB
Genre: Progressive House, Deep House | RAR 3% Rec. | Label: Modern Sky (MO95-UK-CD)

For DJ, producer and Circus label-head, Yousef, music has underpinned his entire life; throughout a turbulent and often uncertain childhood, music became a life defining outlet. Consolidating a difficult ten-year period from four to fourteen years of age, growing up in his Liverpool family home, 9 Moor Drive, Yousef explores contrasting themes of extreme difficulties, laughter and freedom.
"9 Moor Drive is autobiographical, but it isn’t a bleeding-heart story about my hard times or anguish. It’s about dealing with life's difficulties, and reminiscing about my life defining moments and thinking about that shattered boy who got up, from nothing, to do what he loves, and made it into his life" - Yousef.
Tracklist:
01. 9 Moor Drive
02. I Don't Understand
03. Riches To Rags
04. The Only Constant Is Change (feat Isla Will)
05. Reminders (feat Shyam)
06. Vivienne
07. Give It To Me
08. The Beat (with Mihalis Safras - feat Val)
09. We Don't Need Yo Love
10. How Could You Know (feat The Angel)
11. One Sunny Sunday
12. The Mother Tongue (feat Val)
13. Genesis (with Harry Romero - feat Chuck Roberts)

Total time: 01:24:04

Exact Audio Copy V1.1 from 23. June 2015

EAC extraction logfile from 30. November 2019, 19:50

Yousef / 9 Moor Drive

Used drive : ASUS DRW-24D5MT Adapter: 1 ID: 0

Read mode : Secure
Utilize accurate stream : Yes
Defeat audio cache : Yes
Make use of C2 pointers : No

Read offset correction : 6
Overread into Lead-In and Lead-Out : No
Fill up missing offset samples with silence : Yes
Delete leading and trailing silent blocks : No
Null samples used in CRC calculations : Yes
Used interface : Native Win32 interface for Win NT & 2000
Gap handling : Appended to previous track

Used output format : User Defined Encoder
Selected bitrate : 768 kBit/s
Quality : High
Add ID3 tag : No
Command line compressor : F:\Программы\Exact Audio Copy\FLAC\FLAC.EXE
Additional command line options : -8 -V -T "ARTIST=%artist%" -T "TITLE=%title%" -T "ALBUM=%albumtitle%" -T "DATE=%year%" -T "TRACKNUMBER=%tracknr%" -T "GENRE=%genre%" -T "COMMENT=Ripped by grandsrt8" %source%


TOC of the extracted CD

Track | Start | Length | Start sector | End sector
––––––––––––––––––––––––––––-
1 | 0:00.00 | 3:59.37 | 0 | 17961
2 | 3:59.37 | 6:12.36 | 17962 | 45897
3 | 10:11.73 | 7:36.70 | 45898 | 80167
4 | 17:48.68 | 6:36.34 | 80168 | 109901
5 | 24:25.27 | 6:47.35 | 109902 | 140461
6 | 31:12.62 | 6:14.41 | 140462 | 168552
7 | 37:27.28 | 6:20.00 | 168553 | 197052
8 | 43:47.28 | 6:08.72 | 197053 | 224724
9 | 49:56.25 | 7:03.02 | 224725 | 256451
10 | 56:59.27 | 6:27.09 | 256452 | 285485
11 | 63:26.36 | 7:12.39 | 285486 | 317924
12 | 70:39.00 | 6:18.41 | 317925 | 346315
13 | 76:57.41 | 7:06.37 | 346316 | 378302


Track 1

Filename F:\Rips grandsrt8\01 9 Moor Drive.wav

Pre-gap length 0:00:02.00

Peak level 98.8 %
Extraction speed 1.2 X
Track quality 100.0 %
Test CRC C5E3F87D
Copy CRC C5E3F87D
Track not present in AccurateRip database
Copy OK

Track 2

Filename F:\Rips grandsrt8\02 I Don't Understand.wav

Pre-gap length 0:00:01.13

Peak level 98.8 %
Extraction speed 1.3 X
Track quality 99.9 %
Test CRC F0FBEFAF
Copy CRC F0FBEFAF
Track not present in AccurateRip database
Copy OK

Track 3

Filename F:\Rips grandsrt8\03 Riches To Rags.wav

Pre-gap length 0:00:01.50

Peak level 98.8 %
Extraction speed 1.6 X
Track quality 100.0 %
Test CRC FC942062
Copy CRC FC942062
Track not present in AccurateRip database
Copy OK

Track 4

Filename F:\Rips grandsrt8\04 The Only Constant Is Change (feat Isla Will).wav

Pre-gap length 0:00:02.00

Peak level 98.8 %
Extraction speed 1.7 X
Track quality 100.0 %
Test CRC 7CAF1E33
Copy CRC 7CAF1E33
Track not present in AccurateRip database
Copy OK

Track 5

Filename F:\Rips grandsrt8\05 Reminders (feat Shyam).wav

Pre-gap length 0:00:01.58

Peak level 98.8 %
Extraction speed 1.8 X
Track quality 100.0 %
Test CRC 3301AC99
Copy CRC 3301AC99
Track not present in AccurateRip database
Copy OK

Track 6

Filename F:\Rips grandsrt8\06 Vivienne.wav

Pre-gap length 0:00:02.20

Peak level 98.8 %
Extraction speed 1.9 X
Track quality 100.0 %
Test CRC 9F7A136D
Copy CRC 9F7A136D
Track not present in AccurateRip database
Copy OK

Track 7

Filename F:\Rips grandsrt8\07 Give It To Me.wav

Pre-gap length 0:00:01.74

Peak level 97.7 %
Extraction speed 2.0 X
Track quality 100.0 %
Test CRC 012431C5
Copy CRC 012431C5
Track not present in AccurateRip database
Copy OK

Track 8

Filename F:\Rips grandsrt8\08 The Beat (with Mihalis Safras - feat Val).wav

Pre-gap length 0:00:01.24

Peak level 98.8 %
Extraction speed 2.1 X
Track quality 100.0 %
Test CRC E051E9E5
Copy CRC E051E9E5
Track not present in AccurateRip database
Copy OK

Track 9

Filename F:\Rips grandsrt8\09 We Don't Need Yo Love.wav

Pre-gap length 0:00:02.31

Peak level 98.8 %
Extraction speed 2.3 X
Track quality 100.0 %
Test CRC 0B3EB137
Copy CRC 0B3EB137
Track not present in AccurateRip database
Copy OK

Track 10

Filename F:\Rips grandsrt8\10 How Could You Know (feat The Angel).wav

Pre-gap length 0:00:01.05

Peak level 98.8 %
Extraction speed 2.2 X
Track quality 99.9 %
Test CRC 1C3DC93C
Copy CRC 1C3DC93C
Track not present in AccurateRip database
Copy OK

Track 11

Filename F:\Rips grandsrt8\11 One Sunny Sunday.wav

Pre-gap length 0:00:01.74

Peak level 98.8 %
Extraction speed 2.5 X
Track quality 100.0 %
Test CRC ABB2E6B6
Copy CRC ABB2E6B6
Track not present in AccurateRip database
Copy OK

Track 12

Filename F:\Rips grandsrt8\12 The Mother Tongue (feat Val).wav

Peak level 98.8 %
Extraction speed 2.6 X
Track quality 100.0 %
Test CRC 2DD59F96
Copy CRC 2DD59F96
Track not present in AccurateRip database
Copy OK

Track 13

Filename F:\Rips grandsrt8\13 Genesis (with Harry Romero - feat Chuck Roberts).wav

Pre-gap length 0:00:01.30

Peak level 98.8 %
Extraction speed 2.6 X
Track quality 100.0 %
Test CRC B444648C
Copy CRC B444648C
Track not present in AccurateRip database
Copy OK


None of the tracks are present in the AccurateRip database

No errors occurred

End of status report

–– CUETools DB Plugin V2.1.6

[CTDB TOCID: PLvWCr_FtG.tUr5jNL9lNanovmo-] disk not present in database
Submit result: PLvWCr_FtG.tUr5jNL9lNanovmo- has been uploaded


==== Log checksum 62B355B8AF7759E055D025BED67F57B5AB46BA58243735586D59F28F0E7BC9AC ====

[CUETools log; Date: 02.12.2019 4:00:09; Version: 2.1.4]
[CTDB TOCID: PLvWCr_FtG.tUr5jNL9lNanovmo-] found.
Track | CTDB Status
1 | (1/1) Accurately ripped
2 | (1/1) Accurately ripped
3 | (1/1) Accurately ripped
4 | (1/1) Accurately ripped
5 | (1/1) Accurately ripped
6 | (1/1) Accurately ripped
7 | (1/1) Accurately ripped
8 | (1/1) Accurately ripped
9 | (1/1) Accurately ripped
10 | (1/1) Accurately ripped
11 | (1/1) Accurately ripped
12 | (1/1) Accurately ripped
13 | (1/1) Accurately ripped
[AccurateRip ID: 002733f5-018c7add-bd13b40d] disk not present in database.

Track Peak [ CRC32 ] [W/O NULL] [ LOG ]
– 98,8 [8CB4AB22] [4E59DFE1]
01 98,8 [C5E3F87D] [74EC03BA] CRC32
02 98,8 [F0FBEFAF] [E7E62805] CRC32
03 98,8 [FC942062] [B4FE7089] CRC32
04 98,8 [7CAF1E33] [44DBE0BF] CRC32
05 98,8 [3301AC99] [73820826] CRC32
06 98,8 [9F7A136D] [A686E551] CRC32
07 97,7 [012431C5] [0175396D] CRC32
08 98,8 [E051E9E5] [093BC4F9] CRC32
09 98,8 [0B3EB137] [A18BCF64] CRC32
10 98,8 [1C3DC93C] [7FE53352] CRC32
11 98,8 [ABB2E6B6] [E97AAE23] CRC32
12 98,8 [2DD59F96] [02C112B2] CRC32
13 98,8 [B444648C] [ECB4C84D] CRC32

Thanks to grandsrt8