Subcategories

Zoot Sims - Quietly There: Zoot Sims Plays Johnny Mandel (1984) [Japanese Edition 1993, XRCD]

Posted By: gribovar
Zoot Sims - Quietly There: Zoot Sims Plays Johnny Mandel (1984) [Japanese Edition 1993, XRCD]

Zoot Sims - Quietly There: Zoot Sims Plays Johnny Mandel (1984) [Japanese Edition 1993, XRCD]
EAC Rip | WavPack (image+.cue+log) - 235 MB | MP3 CBR 320 kbps (LAME 3.93) - 101 MB | Covers - 260 MB
Genre: Jazz | RAR 3% Rec. | Label: JVC XRCD (JVCXR-0040-2)

Norman Granz's idea to match Zoot Sims' lyrical, swinging tenor sax with Johnny Mandel's equally arresting compositions was a masterful one. Sims' tart, alternately lush and furious solos were wonderfully spotlighted on such tunes as "Cinnamon and Cloves," "Emily" and "Zoot." The six-tune session also contains effective piano solos from Mike Wofford. The date's tour-de-force was its final selection, the wonderful "Low Life," which Sims probed, illuminated and ultimately redefined via his solo.
Tracklist:
01. Cinnamon and Cloves
02. A Time for Love
03. Zoot
04. Quietly There
05. Emily
06. Low Life

Total time: 42:55

Exact Audio Copy V0.99 prebeta 4 from 23. January 2008

EAC extraction logfile from 23. May 2010, 20:42

Zoot Sims / Quietly There (Plays Johnny Mandel)

Used drive : PLEXTOR DVDR PX-755A Adapter: 1 ID: 1

Read mode : Secure
Utilize accurate stream : Yes
Defeat audio cache : Yes
Make use of C2 pointers : No

Read offset correction : 30
Overread into Lead-In and Lead-Out : No
Fill up missing offset samples with silence : Yes
Delete leading and trailing silent blocks : No
Null samples used in CRC calculations : Yes
Used interface : Installed external ASPI interface

Used output format : Internal WAV Routines
Sample format : 44.100 Hz; 16 Bit; Stereo


TOC of the extracted CD

Track | Start | Length | Start sector | End sector
––––––––––––––––––––––––––––-
1 | 0:00.37 | 5:48.35 | 37 | 26171
2 | 5:48.72 | 7:54.62 | 26172 | 61783
3 | 13:43.59 | 6:50.18 | 61784 | 92551
4 | 20:34.02 | 6:13.55 | 92552 | 120581
5 | 26:47.57 | 9:47.50 | 120582 | 164656
6 | 36:35.32 | 6:19.22 | 164657 | 193103


Range status and errors

Selected range

Filename Z:\Zoot Sims - Quietly There (Plays Johnny Mandel) (1984) {1993. XRCD JVCXR-0040-2}\Zoot Sims - Quietly There (Plays Johnny Mandel).wav

Peak level 100.0 %
Range quality 100.0 %
Test CRC 33CA7D48
Copy CRC 33CA7D48
Copy OK

No errors occurred


AccurateRip summary

Track 1 accurately ripped (confidence 1) [E3B12CFE]
Track 2 accurately ripped (confidence 1) [57093A9F]
Track 3 accurately ripped (confidence 1) [AAFB99DB]
Track 4 accurately ripped (confidence 1) [796E6998]
Track 5 accurately ripped (confidence 1) [46FB5EF2]
Track 6 accurately ripped (confidence 1) [E9EF69F2]

All tracks accurately ripped

End of status report

[CUETools log; Date: 09.04.2019 17:26:58; Version: 2.1.4]
Pregap length 00:00:37.
[CTDB TOCID: Dv2By28TCvYPSpzBNbiKZpcRELI-] found.
Track | CTDB Status
1 | (26/26) Accurately ripped
2 | (26/26) Accurately ripped
3 | (26/26) Accurately ripped
4 | (26/26) Accurately ripped
5 | (26/26) Accurately ripped
6 | (26/26) Accurately ripped
[AccurateRip ID: 000a0dc8-00362d39-480a0e06] found.
Track [ CRC | V2 ] Status
01 [e3b12cfe|0fde0641] (05+26/31) Accurately ripped
02 [57093a9f|7ee8c3e7] (05+26/31) Accurately ripped
03 [aafb99db|3b377971] (05+26/31) Accurately ripped
04 [796e6998|e23cff3f] (05+26/31) Accurately ripped
05 [46fb5ef2|01c424f4] (05+26/31) Accurately ripped
06 [e9ef69f2|62f6ca57] (05+26/31) Accurately ripped

Track Peak [ CRC32 ] [W/O NULL] [ LOG ]
– 100,0 [33CA7D48] [D5D1F6A1] CRC32
01 95,0 [20935CC5] [68D4A51B]
02 100,0 [E437779E] [BF0437EC]
03 94,9 [F4039EEB] [8AD113C9]
04 100,0 [0B53018A] [F3159120]
05 100,0 [15BDE1A5] [9642C3A3]
06 100,0 [90B76953] [4A6FFF6C]

Thanks to Pr3ss

See also: